This file was generated by Ched 2.7.0.0.
#TITLE ""
#ARTIST ""
#DESIGNER ""
#DIFFICULTY 0
#PLAYLEVEL
#SONGID ""
#WAVE ""
#WAVEOFFSET 0
#JACKET ""
#REQUEST "ticks_per_beat 480"
#00002: 4
#BPM01: 136
#00008: 01
#TIL00: ""
#VOLUME: ""
#HISPEED 00
#MEASUREHS 00
#04812:1313000000000000
#0481b:13000000000000230000000000000000
#04818:00130000
#04815:0000001300000013
#00212:0013
#00215:00000013
#00415:13
#00512:13
#00518:13
#00515:0023
#0051b:0023
#0061a:1414
#00618:00140000
#00612:2424
#00614:00240000
#0081b:13
#0091a:0014
#00915:0014
#00912:24
#00917:24
#0101a:14140000
#01018:00001414
#01012:24240000
#01014:00002424
#0111a:14
#01118:0014
#01114:0014
#01112:24
#01312:1300000000130000
#0131b:00130013
#01318:0013
#01315:0000001300000013
#0141b:13
#01412:00240000
#0141a:00000000000000240000000000000000
#01414:0000000000240024
#01418:00000024
#01512:00130000
#01515:00000000000000130000000013000000
#01518:2400001300000000
#0151b:0000000000130023
#01510:41
#01612:0014
#01616:00000000000000000000001400000000
#0161a:0000000000000014
#01712:0000001300000000
#01715:23
#0181b:00130000
#01812:00130000
#01815:0000000013000023
#01818:00000013
#01918:00000013
#01919:0000000000000033
#02012:0014
#02016:00000000000000000000001400000000
#0201a:0000000000000014
#02118:00000013
#02112:23
#02115:0000000000000023
#02218:00000013
#02215:0000000000000013
#0231b:13130000
#02312:0013000000130013
#02318:00000000000000130000000013000000
#02315:0000001300000000
#02310:41
#0261b:0000130000000013
#02615:00130013
#02618:0013
#02612:0013
#03012:14141300
#0301a:14140000
#03015:0000000000130000
#03018:00000013
#0301b:0000000000000013
#03010:41
#03218:0000001300000000
#03215:0013
#03212:24
#03118:0014
#0311f:11
#03112:24
#03119:00000000000000000000005400000000
#0311a:0000000000000054
#03113:00000064000000000000000000000000
#03114:0000006400000000
#03412:0013
#03418:0000000000130000
#03415:00000013
#0341a:14
#0341b:0000000000000023
#03512:0013
#03518:0000000000000013
#03515:00230000
#03612:1400000000000014
#03616:00000014000000000000000000000000
#0361a:0000001400000000
#03714:00000014000000000000000000000000
#03718:00000000000014000000001500000000
#03713:0000000000000015
#03712:0025
#0371a:24
#03915:0013000000000000
#03918:00000000130000230000000000000000
#03912:0000001300000000
#0391b:23
#0391f:21
#04012:13
#04018:0013000000000013
#04015:00000000130000130000000000000000
#0401b:0000001300000000
#04010:41
#04118:00000000000000001300001300000000
#04115:2300000000130013
#0431b:1300001300000000
#04318:0013000000000013
#04315:00000000130000230000000000000000
#04518:1300002300000000
#04515:0023
#04512:0000000000000023
#0461b:13
#04618:00000013000000000000000000000000
#04612:23
#04615:00000023000000000000000000000000
#0471b:0013000000000000
#04715:00130000
#04718:0000001300000013
#04712:24000000000000130000000000000000
#0471a:24
#04912:0013
#04918:2300000000130000
#04915:00000000000000000000001300000000
#0491b:0000000000000013
#04212:0014
#04214:00140000
#04215:0000000000000013
#04218:24
#0421a:0024
#05318:1400002400000000
#05312:0000000000000014
#0531a:0000000000000024
#05314:0024
#05718:1400000000130013
#05715:00000000000000001300001300000000
#05719:00000054000000000000000000000000
#0571a:0000005400000000
#0581a:14
#05814:14
#05812:00140000
#05818:00140000
#0591b:1313000000000000
#05915:00130000
#05918:0000001300000013
#05912:13000000000000230000000000000000
#06112:1414
#06118:0013001300000013
#06115:00130013
#0611b:0000000000130000
#06214:0014
#06212:24000014
#0621a:00240024
#06218:0024
#06312:14
#06314:0014
#0631a:24
#06318:0024
#06512:1313
#06518:0013001300000013
#06515:00130013
#0651b:0000000000130000
#06615:2313000000000000
#06618:00130000000000000000000026000000
#0661a:00240000
#06616:00000000000000240000000000000000
#06612:0000000000240026
#02518:13
#0251b:0000001300000000
#0241a:0014
#02416:00000000000000000000001400000000
#02412:0000000000000014
#02918:00000013000000000000000000000000
#02915:0013000000000000
#0291a:14
#0281a:0014
#02816:00000000000000000000001400000000
#02812:0000000000000014
#04418:00000000130000130000000000000000
#04415:0013000000000013
#04412:1300001300000000
#05012:2616
#05018:00162600
#05015:0000000000000013
#05115:00130000
#05118:0013001300000013
#05112:00000000000000130000000000000000
#0511b:13
#05110:41
#05215:0013001300000000
#05218:00130000
#05214:0000000000000014
#05212:13
#0521b:00000000000000230000000000000000
#05418:00000014000000000000000000000000
#05414:00000014000000000000000000000000
#05412:14
#0541a:24
#06012:1313000000000000
#06018:00130000
#06015:0000001300000000
#0601b:13000000000000130000000000000000
#0331a:14
#03314:0024
#03319:00000054000000000000000000000000
#03318:0000005400000000
#03313:00000000000000000000006400000000
#03312:0000000000000064
#03818:26000023
#03812:00230000
#03815:0023
#06718:26
#02712:00000023
#02713:0000000000000033
#00318:23
#00712:23
#00710:41
#0701c:00000062
#01152:64
#0115a:64
#01158:0054
#01154:0054
#0635a:64
#06352:54
#06354:0054
#06358:0064
#00455:53
#0085b:53
#0145b:13
#01752:0000005300000000
#01755:53
#01958:00000053
#01952:0000001300000000
#0265b:0000000000000053
#02752:00000053
#02758:0000001300000000
#03255:0053
#03252:54
#03552:0023
#03555:00530000
#0375a:14
#03752:0015
#03858:16
#04555:0063
#04558:63
#0465b:63
#04652:63
#04658:00000063000000000000000000000000
#04655:00000063000000000000000000000000
#04752:00000000000000530000000000000000
#04252:0014
#04254:00140000
#04258:14
#0425a:0014
#05358:54
#05354:0054
#0585a:00000014
#05854:00000014
#06152:1414
#06252:14
#0625a:00140000
#06758:66
#01855:0000000000000053
#06452:0000000000140000
#0645a:0000000000140000
#00752:53
#00358:53
#0205b:00130000
#02558:53
#0255b:0000006300000000
#02352:0000000000000053
#02855:00130000
#02958:00000053000000000000000000000000
#0345a:64
#0345b:0000000000000053
#04458:00000000000000530000000000000000
#05052:1616
#05058:00161600
#0545a:54
#05452:54
#05454:00000054000000000000000000000000
#05458:00000054000000000000000000000000
#0565a:14
#05652:14
#0605b:00000000000000630000000000000000
#0155b:0000000000000053
#02152:53
#02155:0000000000000053
#0365a:0000001400000000
#04055:00000000000000630000000000000000
#03958:00000000000000530000000000000000
#04355:00000000000000530000000000000000
#0485b:00000000000000530000000000000000
#05152:00000000000000530000000000000000
#0525b:00000000000000530000000000000000
#05952:00000000000000530000000000000000
#003380:13
#0033b0:0023
#004350:13
#004320:0023
#007320:13
#007350:0023
#0083b0:13
#008380:0023
#011320:14
#011340:00000000000034343400000000000000
#012320:00000024
#0113a1:14
#011381:00000000000034343400000000000000
#0123a1:00000024
#0153b1:0000000000000013
#016381:00230000
#017351:13
#017321:0000003300000000
#018351:23
#018351:0000000000000013
#019321:0033332300000000
#019381:00000013
#019391:0000000000000033
#0203b1:0033230000000000
#021321:13
#021351:0023
#021351:0000000000000013
#022321:0023
#023321:0000000000000013
#024351:00230000
#025381:13
#0253b1:0000003300000000
#026381:23
#0263b1:0000000000000013
#027381:0033332300000000
#027321:00000013
#027331:0000000000000033
#028351:0033230000000000
#029381:00000013000000000000000000000000
#0293b1:00000023
#032321:14
#032351:00240000
#032351:0013
#032321:00000023
#0343a1:14
#034371:00240000
#0343b1:0000000000000013
#035381:0023000000000000
#035351:00130023
#035321:0053
#039381:00000000000000130000000000000000
#0393b1:00000023
#040351:00000000000000130000000000000000
#040321:00000023
#041351:1300002300000000
#041321:00000033000000000000000000000000
#043351:00000000000000130000000000000000
#043321:00000023
#044381:00000000000000130000000000000000
#0443b1:00000023
#045381:13
#0453b1:00003323000000000000000000000000
#045351:0013
#045321:00000000000000000000332300000000
#0453b1:0000000000000013
#0463b1:33000023
#046381:00000033000000000000000000000000
#045320:0000000000000013
#046320:33000023
#046350:00000033000000000000000000000000
#047320:00000000000000130000000000000000
#047350:00000023
#0483b0:00000000000000130000000000000000
#048380:00000023
#049380:1300002300000000
#0493b0:00000033000000000000000000000000
#051320:00000000000000130000000000000000
#051350:00000023
#0523b0:00000000000000130000000000000000
#052380:00000023
#053380:14
#0533a0:00003424000000000000000000000000
#053340:0014
#053320:00000000000000000000342400000000
#054320:14
#054340:00000034000000000000000000000000
#056320:24
#0543a1:14
#054381:00000034000000000000000000000000
#0563a1:24
#058341:00001424
#0583a0:00001424
#059320:00000000000000130000000000000000
#059350:00000023
#0603b0:00000000000000130000000000000000
#060380:00000023
#0633a0:14
#063380:00000000000034343400000000000000
#0643a0:0000000000240000
#063321:14
#063341:00000000000034343400000000000000
#064321:0000000000240000
#067381:16
#0703c1:00000022
#031920:14
#031940:000000000000000000000000000000000000000000000000000000000000000000000000000000000000000000000000000000000000000000000000000000000000000000000000000000000000000000000000000000000000000000000000000000000000000000000000000000000000000000000000000000000000000000000000000000000000000000000000000000000000000000000000000000000000000000000000000000000000000000000000000000000000000000000000000000000000000000000000000000000000000000000000000000000000000000000000000000000000000000000000000000000000000000000000000000000000000000000000000000000000000000000000000000000000000000000000000000000000000000000000000000000000000000000000000000000000000000000000000000000000000000000000000000000000000000000000000000000000000000000000000000000000000000000000000000000000000000000000000000000000000000000000000000000000000000000000000000000000000000000000000000000000000000000000000000000000000000000000000000000000000000000000000000000000000000000000000000000000000000000000000000000000000000000000000000000000000000000000000000000000000000000000000000000000000000000000000000000000000000000000000000000000000000000000000000000000000000000000000000000000000000000000000000000000000000000000000000000000000000000000000000000000000000000000000000000000000000000000000000000000000000000000000000000000000000000000000000000000000000000000000000000000000000000000000000000000000000000000000000000000000000000000000000000000000000000000000000000000000000005454240000000000000000000000000000000000000000000000000000000000000000000000000000000000000000000000000000000000000000000000000000000000000000000000000000000000000000000000000000000000000000000000000000000000000000000000000000000000000000000000000000000000000000000000000000000000000000000000000000000000000000000000000000000000000000000000000000000000000000000000000000000000000000000000000000000000000000000000000000000000000000000000000000000000000000000000000000000000000000000000000000000000000000000000000000000000000000000000000000000000000000000000000000000000000000000000000000000000000000000000000000000000000000000000000000000000000000000000000000000000000000000000000000000000000000000000000000000000000000000000000000000000000000000000000000000000000000000000000000000000000000000000000000000000000000000000000000000000000000000000000000000000000000000000000000000000000000000000000000000000000000000000000000000000000000000000000000000000000000000000000000000000000000000000000000000000000000000000000000000000000000000000000000000000000000000000000000000000000000000000000000000000000000000000000000000000000000000000000000000000000000000000000000000000000000000000000000000000000000000000000000000000000000000000000000000000000000000000000000000000000000000000000000000000000000000000000000000000000000000000000000000000000000000000000000000000000000000000000000000000000000000000000000000000000000000000000000000000000000000000000000000000000000000000000000000000000000000000000000000000000000000000000000000000000000000000000000000000000000000000000000000000000000000000000000000000000000000000000000000000000000000000000000000000000000000000000000000000000000000000000000000000000000000000000000000000000000000000000000000000000000000000000000000000000000000000000000000000000000000000000000000000000000000000000000000000000000000000000000000000000000000000000000000000000000000000000000000000000000000000000000000000000000000000000000000000000000000000000000000000000000000000000000000000000000000000000000000000000000000000000000000000000000000000000000000000000000000000000000000000000000000000000000000000000000000000000000000000000000000000000000000000000000000000000000000000000000000000000000000000000000000000000000000000000000000000000000000000000000000000000000000000000000000000000000000000000000000000000000000000000000000000000000000000000000000000000000000000000000000000
#031980:0014
#0319a0:000000000000000000000000000000000000000000000000000000000000000000000000000000000000000000000000000000000000000000000000000000000000000000000000000000000000000000000000000000000000000000000000000000000000000000000000000000000000000000000000000000000000000000000000000000000000000000000000000000000000000000000000000000000000000000000000000000000000000000000000000000000000000000000000000000000000000000000000000000000000000000000000000000000000000000000000000000000000000000000000000000000000000000000000000000000000000000000000000000000000000000000000000000000000000000000000000000000000000000000000000000000000000000000000000000000000000000000000000000000000000000000000000000000000000000000000000000000000000000000000000000000000000000000000000000000000000000000000000000000000000000000000000000000000000000000000000000000000000000000000000000000000000000000000000000000000000000000000000000000000000000000000000000000000000000000000000000000000000000000000000000000000000000000000000000000000000000000000000000000000000000000000000000000000000000000000000000000000000000000000000000000000000000000000000000000000000000000000000000000000000000000000000000000000000000000000000000000000000000000000000000000000000000000000000000000000000000000000000000000000000000000000000000000000000000000000000000000000000000000000000000000000000000000000000000000000000000000000000000000000000000000000000000000000000000000000000000000000000000000000000000000000000000000000000000000000000000000000000000000000000000000000000000000000000000000000000000000000000000000000000000000000000000000000000000000000000000000000000000000000000000000000000000000000000000000000000000000000000000000000000000000000000000000000000000000000000000000000000000000000000000000000000000000000000000000000000000000000000000000000000000000000000000000000000000000000000000000000000000000000000000000000000000000000000000000000000000000000000000000000000000000000000000000000000000000000000000000000000000000000000000000000000000000000000000000000000000000000000000000000000000000000000000000000000000000000000000000000000000000000000000000000000000000000000000000000000000000000000000000000000000000000000000000000000000000000000000000000000000000000000000000000000000000000000000000000000000000000000000000000000000000000000000000000000000000000000000000000000000000000000000000000000000000000000000000000000000000000000000000000000000000000000000000000000000000000000000000000000000000000000000000000000000000000000000000000000000000000000000000000000000000000000000000000000000000000000000000000000000000000000000000000000000000000000000000000000000000000000000000000000000000000000000000000000000000000000000000000000000000000000000000000000000000000000000000000000000000000000000000000000000000000000000000000000000000000000000000000000000000000000000000000000000000000000000000000000000000000000000000000000000000000000000000000000000000000000000000000000000000000000000000000000000000000000000000000000000000000000000000000000000000000000000000000000000000000000000000000000000000000000000000000000000000000000000000000000000000000000000000000000000000000000000000000000000000000000000000000000000000000000000000000000000000000000000000000000000000000000000000000000000000000000000000000000000000000000000000000000000000000000000000000000000000000000000000000000000000000000000005454240000000000000000000000000000000000000000000000000000000000000000000000000000000000000000000000000000000000000000000000000000000000000000000000000000000000000000000000000000000000000000000000000000000000000000000000000000000000000000000000000000000000000000000000000000000000000000000000000000000000000000000000000000000000000000000000000000000000000000000000000000000000000000000000000000000000000000000000000000000000000000000000000000000000000000000000000000000000000000000000
#0339a0:14
#033980:000000000000000000000000000000000000000000000000000000000000000000000000000000000000000000000000000000000000000000000000000000000000000000000000000000000000000000000000000000000000000000000000000000000000000000000000000000000000000000000000000000000000000000000000000000000000000000000000000000000000000000000000000000000000000000000000000000000000000000000000000000000000000000000000000000000000000000000000000000000000000000000000000000000000000000000000000000000000000000000000000000000000000000000000000000000000000000000000000000000000000000000000000000000000000000000000000000000000000000000000000000000000000000000000000000000000000000000000000000000000000000000000000000000000000000000000000000000000000000000000000000000000000000000000000000000000000000000000000000000000000000000000000000000000000000000000000000000000000000000000000000000000000000000000000000000000000000000000000000000000000000000000000000000000000000000000000000000000000000000000000000000000000000000000000000000000000000000000000000000000000000000000000000000000000000000000000000000000000000000000000000000000000000000000000000000000000000000000000000000000000000000000000000000000000000000000000000000000000000000000000000000000000000000000000000000000000000000000000000000000000000000000000000000000000000000000000000000000000000000000000000000000000000000000000000000000000000000000000000000000000000000000000000000000000000000000000000000000000000005454240000000000000000000000000000000000000000000000000000000000000000000000000000000000000000000000000000000000000000000000000000000000000000000000000000000000000000000000000000000000000000000000000000000000000000000000000000000000000000000000000000000000000000000000000000000000000000000000000000000000000000000000000000000000000000000000000000000000000000000000000000000000000000000000000000000000000000000000000000000000000000000000000000000000000000000000000000000000000000000000000000000000000000000000000000000000000000000000000000000000000000000000000000000000000000000000000000000000000000000000000000000000000000000000000000000000000000000000000000000000000000000000000000000000000000000000000000000000000000000000000000000000000000000000000000000000000000000000000000000000000000000000000000000000000000000000000000000000000000000000000000000000000000000000000000000000000000000000000000000000000000000000000000000000000000000000000000000000000000000000000000000000000000000000000000000000000000000000000000000000000000000000000000000000000000000000000000000000000000000000000000000000000000000000000000000000000000000000000000000000000000000000000000000000000000000000000000000000000000000000000000000000000000000000000000000000000000000000000000000000000000000000000000000000000000000000000000000000000000000000000000000000000000000000000000000000000000000000000000000000000000000000000000000000000000000000000000000000000000000000000000000000000000000000000000000000000000000000000000000000000000000000000000000000000000000000000000000000000000000000000000000000000000000000000000000000000000000000000000000000000000000000000000000000000000000000000000000000000000000000000000000000000000000000000000000000000000000000000000000000000000000000000000000000000000000000000000000000000000000000000000000000000000000000000000000000000000000000000000000000000000000000000000000000000000000000000000000000000000000000000000000000000000000000000000000000000000000000000000000000000000000000000000000000000000000000000000000000000000000000000000000000000000000000000000000000000000000000000000000000000000000000000000000000000000000000000000000000000000000000000000000000000000000000000000000000000000000000000000000000000000000000000000000000000000000000000000000000000000000000000000000000000000000000000000000000000000000000000000000000000000000000000000000000000000000000000000000000000000000000
#033940:0014
#033920:000000000000000000000000000000000000000000000000000000000000000000000000000000000000000000000000000000000000000000000000000000000000000000000000000000000000000000000000000000000000000000000000000000000000000000000000000000000000000000000000000000000000000000000000000000000000000000000000000000000000000000000000000000000000000000000000000000000000000000000000000000000000000000000000000000000000000000000000000000000000000000000000000000000000000000000000000000000000000000000000000000000000000000000000000000000000000000000000000000000000000000000000000000000000000000000000000000000000000000000000000000000000000000000000000000000000000000000000000000000000000000000000000000000000000000000000000000000000000000000000000000000000000000000000000000000000000000000000000000000000000000000000000000000000000000000000000000000000000000000000000000000000000000000000000000000000000000000000000000000000000000000000000000000000000000000000000000000000000000000000000000000000000000000000000000000000000000000000000000000000000000000000000000000000000000000000000000000000000000000000000000000000000000000000000000000000000000000000000000000000000000000000000000000000000000000000000000000000000000000000000000000000000000000000000000000000000000000000000000000000000000000000000000000000000000000000000000000000000000000000000000000000000000000000000000000000000000000000000000000000000000000000000000000000000000000000000000000000000000000000000000000000000000000000000000000000000000000000000000000000000000000000000000000000000000000000000000000000000000000000000000000000000000000000000000000000000000000000000000000000000000000000000000000000000000000000000000000000000000000000000000000000000000000000000000000000000000000000000000000000000000000000000000000000000000000000000000000000000000000000000000000000000000000000000000000000000000000000000000000000000000000000000000000000000000000000000000000000000000000000000000000000000000000000000000000000000000000000000000000000000000000000000000000000000000000000000000000000000000000000000000000000000000000000000000000000000000000000000000000000000000000000000000000000000000000000000000000000000000000000000000000000000000000000000000000000000000000000000000000000000000000000000000000000000000000000000000000000000000000000000000000000000000000000000000000000000000000000000000000000000000000000000000000000000000000000000000000000000000000000000000000000000000000000000000000000000000000000000000000000000000000000000000000000000000000000000000000000000000000000000000000000000000000000000000000000000000000000000000000000000000000000000000000000000000000000000000000000000000000000000000000000000000000000000000000000000000000000000000000000000000000000000000000000000000000000000000000000000000000000000000000000000000000000000000000000000000000000000000000000000000000000000000000000000000000000000000000000000000000000000000000000000000000000000000000000000000000000000000000000000000000000000000000000000000000000000000000000000000000000000000000000000000000000000000000000000000000000000000000000000000000000000000000000000000000000000000000000000000000000000000000000000000000000000000000000000000000000000000000000000000000000000000000000000000000000000000000000000000000000000000000000000000000000000000000000000000000000000000000000000000000000000000000000000000000000000000000000000000005454240000000000000000000000000000000000000000000000000000000000000000000000000000000000000000000000000000000000000000000000000000000000000000000000000000000000000000000000000000000000000000000000000000000000000000000000000000000000000000000000000000000000000000000000000000000000000000000000000000000000000000000000000000000000000000000000000000000000000000000000000000000000000000000000000000000000000000000000000000000000000000000000000000000000000000000000000000000000000000000000
#057980:14
#0579a0:000000000000000000000000000000000000000000000000000000000000000000000000000000000000000000000000000000000000000000000000000000000000000000000000000000000000000000000000000000000000000000000000000000000000000000000000000000000000000000000000000000000000000000000000000000000000000000000000000000000000000000000000000000000000000000000000000000000000000000000000000000000000000000000000000000000000000000000000000000000000000000000000000000000000000000000000000000000000000000000000000000000000000000000000000000000000000000000000000000000000000000000000000000000000000000000000000000000000000000000000000000000000000000000000000000000000000000000000000000000000000000000000000000000000000000000000000000000000000000000000000000000000000000000000000000000000000000000000000000000000000000000000000000000000000000000000000000000000000000000000000000000000000000000000000000000000000000000000000000000000000000000000000000000000000000000000000000000000000000000000000000000000000000000000000000000000000000000000000000000000000000000000000000000000000000000000000000000000000000000000000000000000000000000000000000000000000000000000000000000000000000000000000000000000000000000000000000000000000000000000000000000000000000000000000000000000000000000000000000000000000000000000000000000000000000000000000000000000000000000000000000000000000000000000000000000000000000000000000000000000000000000000000000000000000000000000000000000000000000005454240000000000000000000000000000000000000000000000000000000000000000000000000000000000000000000000000000000000000000000000000000000000000000000000000000000000000000000000000000000000000000000000000000000000000000000000000000000000000000000000000000000000000000000000000000000000000000000000000000000000000000000000000000000000000000000000000000000000000000000000000000000000000000000000000000000000000000000000000000000000000000000000000000000000000000000000000000000000000000000000000000000000000000000000000000000000000000000000000000000000000000000000000000000000000000000000000000000000000000000000000000000000000000000000000000000000000000000000000000000000000000000000000000000000000000000000000000000000000000000000000000000000000000000000000000000000000000000000000000000000000000000000000000000000000000000000000000000000000000000000000000000000000000000000000000000000000000000000000000000000000000000000000000000000000000000000000000000000000000000000000000000000000000000000000000000000000000000000000000000000000000000000000000000000000000000000000000000000000000000000000000000000000000000000000000000000000000000000000000000000000000000000000000000000000000000000000000000000000000000000000000000000000000000000000000000000000000000000000000000000000000000000000000000000000000000000000000000000000000000000000000000000000000000000000000000000000000000000000000000000000000000000000000000000000000000000000000000000000000000000000000000000000000000000000000000000000000000000000000000000000000000000000000000000000000000000000000000000000000000000000000000000000000000000000000000000000000000000000000000000000000000000000000000000000000000000000000000000000000000000000000000000000000000000000000000000000000000000000000000000000000000000000000000000000000000000000000000000000000000000000000000000000000000000000000000000000000000000000000000000000000000000000000000000000000000000000000000000000000000000000000000000000000000000000000000000000000000000000000000000000000000000000000000000000000000000000000000000000000000000000000000000000000000000000000000000000000000000000000000000000000000000000000000000000000000000000000000000000000000000000000000000000000000000000000000000000000000000000000000000000000000000000000000000000000000000000000000000000000000000000000000000000000000000000000000000000000000000000000000000000000000000000000000000000000000000000000000000000000000000
