This file was generated by Ched 2.7.0.0.
#TITLE ""
#ARTIST ""
#DESIGNER ""
#DIFFICULTY 0
#PLAYLEVEL
#SONGID ""
#WAVE ""
#WAVEOFFSET 0
#JACKET ""
#REQUEST "ticks_per_beat 480"
#00002: 4
#BPM01: 136
#00008: 01
#TIL00: ""
#VOLUME: ""
#HISPEED 00
#MEASUREHS 00
#0151a:1414
#01510:41
#01614:1414
#03018:00000014
#03014:0014
#03012:14
#0301a:14
#03010:41
#05918:14
#05914:00140000
#0591a:0014
#0051a:14
#00512:0014
#01418:1414
#01414:00140014
#01718:14
#0171a:0000003400000000
#01814:00140014
#01818:0014
#02312:1414
#02318:00140014
#02310:41
#02414:14
#0241a:0014
#02514:14
#02512:0000003400000000
#02618:00140014
#02614:0014
#03214:00000014
#03218:0014
#03414:0014
#03418:00000014
#03914:00140000
#03918:0014
#0391a:24
#0391f:21
#04012:14
#04018:00140000
#04014:0014
#04010:41
#0411a:14
#04114:14
#04112:0014
#04118:0014
#04218:1416
#04214:00140000
#04314:14
#04318:00140000
#04312:0014
#04418:14
#04414:00140000
#0441a:0014
#04512:14
#04518:14
#04514:0014
#0451a:0014
#04718:00140000
#04714:0014
#04712:24
#0481a:14
#04814:00140000
#04818:0014
#0491a:14
#04912:14
#04919:0014
#04913:0014
#0501a:14
#05012:00140000
#05018:0016
#05212:14
#05218:00140000
#05214:0014
#05718:14
#05712:14
#0571a:0014
#05714:0014
#05818:14
#05814:00140000
#0581a:0014
#05812:00000014
#06014:14
#06018:00140000
#06012:0014
#0611a:14
#06118:0014
#0511a:14
#05114:00140000
#05118:0014
#05110:41
#0311f:11
#03114:00000034000034000000000000000000
#03112:00000000000000000000003400003400
#00912:24
#0091a:0024
#01014:2424
#01018:00240024
#0371a:24
#03712:24
#03719:0024
#03713:0024
#0381a:24
#03814:00240000
#03818:0024
#03812:00000024
#05412:24
#0541a:24
#06712:24
#0671a:24
#00618:2424
#00614:00240000
#01114:24
#01112:00000000000034343400000000000000
#05312:24
#0531a:24
#05313:0024
#05319:0024
#06214:24
#06212:0024
#06318:24
#0631a:00000000000034343400000000000000
#06614:24240000
#06618:00002424
#03318:00000034000034000000000000000000
#0331a:00000000000000000000003400003400
#00710:41
#07012:00000063
#0701b:00000063
#01758:54
#02554:64
#04258:0016
#05058:0016
#0615a:14
#06158:0014
#01154:54
#06254:14
#06252:0014
#06358:54
#03252:14
#0345a:14
#003380:14
#0033a0:0024
#004340:14
#004320:0024
#007340:14
#007320:0024
#008380:14
#0083a0:0024
#011340:14
#011320:00000000000034343400000000000000
#013320:24
#017380:14
#0173a0:0000003400000000
#0183a0:24
#0193a0:1424
#020320:1424
#021380:14
#0213a0:0024
#022340:14
#022320:0024
#025340:14
#025320:0000003400000000
#026320:24
#027320:1424
#0283a0:1424
#029340:14
#029320:0024
#031320:14000000000000000000003400003400
#031340:00000034000034003400000000000000
#032320:24
#0333a0:14000000000000000000003400003400
#033380:00000034000034003400000000000000
#0343a0:24
#035340:14
#035320:0024
#036380:14
#0363a0:0024
#046380:14
#0463a0:0024
#054320:14000034000000000000000000000000
#056320:26
#0543a1:14000034000000000000000000000000
#056381:26
#063381:14
#0633a1:00000000000034343400000000000000
#0653a1:24
#067321:14
#070321:00000023
#0673a0:14
#0703b0:00000023
