This file was generated by Ched 2.7.0.0.
#TITLE ""
#ARTIST ""
#DESIGNER ""
#DIFFICULTY 0
#PLAYLEVEL
#SONGID ""
#WAVE ""
#WAVEOFFSET 0
#JACKET ""
#REQUEST "ticks_per_beat 480"
#00002: 4
#BPM01: 180
#00008: 01
#TIL00: ""
#VOLUME: ""
#HISPEED 00
#MEASUREHS 00
#0011a:14
#0021a:14
#00314:14
#00414:14
#00518:14
#00618:14
#00712:14
#00812:14
#0091a:14
#00910:41
#01112:14
#01318:14
#01514:14
#0251a:1414
#02712:1414
#02918:14
#03114:14
#03312:0016
#03318:26
#03310:41
#03418:16
#03412:0016
#04118:1616
#04110:41
#04212:1616
#04518:16
#04512:0016
#04618:16
#04612:0016
#05712:14
#05718:0014
#05814:14
#0581a:0014
#06112:0016
#06118:26
#0611f:21
#06218:1616
#06210:41
#06512:1616
#06618:1616
#06918:0016
#06912:16
#07012:1616
#07318:16
#07312:0016
#07418:16
#07412:0016
#03712:16
#03718:0016
#03812:16
#03818:0016
#0811a:1414
#08110:41
#08312:1414
#08518:1414
#08714:1414
#0521f:11
#04918:26
#05112:26
#05912:26
#07718:26
#07912:26
#0891a:24
#01710:41
#02958:64
#03154:54
#04958:66
#05152:56
#07758:66
#07952:56
#0103a0:1424
#012320:1424
#014380:1424
#016340:1424
#0173a0:14
#019380:34
#020380:24
#021320:14
#023340:34
#024340:24
#0263a0:1424
#028320:1424
#029380:14
#0303a0:24
#031340:14
#032320:24
#035380:1636
#036380:26
#039320:1636
#040320:26
#043380:1626
#044320:1626
#047380:1626
#048320:1626
#049380:16
#0503a0:24
#051320:16
#052320:24
#053380:14
#053390:0034
#0543a0:34
#054390:0034
#055380:34
#055390:0034
#0563a0:3424
#059320:16
#060320:26
#063320:1626
#064380:1626
#067320:1626
#068380:1626
#071380:1626
#072320:1626
#075380:1626
#076320:1626
#077380:16
#078380:24
#079320:16
#080340:24
#0823a0:1424
#084320:1424
#086380:1424
#088340:1424
#0893a0:1400340034003424
