This file was generated by Ched 2.7.0.0.
#TITLE ""
#ARTIST ""
#DESIGNER ""
#DIFFICULTY 0
#PLAYLEVEL
#SONGID ""
#WAVE ""
#WAVEOFFSET 0
#JACKET ""
#REQUEST "ticks_per_beat 480"
#00002: 4
#BPM01: 180
#00008: 01
#TIL00: ""
#VOLUME: ""
#HISPEED 00
#MEASUREHS 00
#00112:14141414
#00117:1300001300000013
#00212:14141414
#00217:00001313
#0031a:14141414
#00316:1300001300000013
#0041a:14141414
#00416:00001313
#00512:14141414
#00519:13
#0051a:0000001300000000
#0051b:0000000000000013
#00612:14141414
#0061b:00001313
#0071a:14141414
#00714:13
#00713:0000001300000000
#00716:0000000000000013
#0081a:14141400
#00815:00000013
#00818:00000013
#00812:0023000000230000
#00816:0000002300000000
#00916:00130013000000000000000000000000
#0091b:2313130000000000
#00912:0000001400131300
#0091a:0000000014000014
#00917:00000000000000000000001300000000
#00910:41
#01016:1300000000130000
#01017:0000131300000013
#01012:0000001300000000
#01212:0013000000001300
#01215:00130000
#01218:0000001300000000
#0121b:0013
#01216:0013
#01217:00000013
#0111b:0000001300000013
#01112:1313
#01115:0013000000130000
#01118:00130013
#01116:0000000000000013
#0131b:1300001300230000
#01315:00000013000000000000000000000000
#01318:00130000
#01312:0000000013000023
#01316:0000000000130000
#01317:0000000000000013
#01412:0013000023000000
#0141b:0013000013002300
#01415:00130000
#01418:0000001300000000
#01414:0000000000130000
#01416:00000013
#01419:0000000000000013
#01517:1300130000000013
#01516:00001313
#01512:0000000000000013
#01612:0000001300000000
#01615:0012
#01617:0000000000120000
#01619:00000012
#0161b:0000000000000013
#01717:14
#01712:14
#01716:0013
#0171b:00000013
#01710:41
#01812:13
#01816:00130000
#01817:0013
#01915:14
#01912:00000013
#0191a:14
#01917:0013
#02016:0013
#0201b:13
#02017:00130000
#02117:14
#0211c:00120000
#02119:0012
#0211b:00000013
#02116:0013
#02218:13
#0221a:00140000
#02217:0014
#02215:13
#02214:0013
#02315:1412
#02312:00120013
#02317:0013
#02415:1314
#02412:00140000
#02418:13
#02419:0013
#0251a:14000000140000000000002300000000
#02512:00140000
#02518:0023
#02514:0023
#02513:00000000000000000000002300000000
#02515:0000000000000023
#02519:0000000000000023
#0261a:14000000140000000000002300000000
#02612:14140000
#02615:0023
#02619:0023
#02613:00000000000000000000002300000000
#02618:0000000000000023
#02614:0000000000000023
#0271a:14140000
#02712:14142300
#02717:0023
#02719:00000000000000000000002300000000
#02714:00000000000000000000002300000000
#0271b:0000000000000023
#02716:0000000000000023
#02812:1400140000000023
#0281a:14140000
#02816:0023
#0281b:0023
#02814:00000000000000000000002300000000
#02819:00000000000000000000002300000000
#02817:0000000000000023
#0291a:14141414
#02912:14140000
#02915:00000000000000002300002300002300
#03012:14141414
#0301a:14140000
#03018:00000000000000002300002300002300
#03115:13
#03112:0013000000000000
#03118:0000130000002424
#0311b:0000001300000000
#03114:0000000024240000
#03213:1a
#03316:00130000
#0331b:00130000
#03312:26001324
#0331a:0000000000130000
#03317:00001313
#03318:26
#03310:41
#03416:14000014
#0341b:13000013
#03419:0013
#03414:0014
#03512:1413
#03517:1313
#0351b:0013000000000000
#03514:00140014
#03519:00140000
#0361b:1313
#03612:1313
#03615:0013001300000000
#03618:0000130000130024
#03614:00000024
#03717:0013230000000000
#03712:2400131300000000
#0371b:0000000013001313
#03716:0000000000132300
#03812:0013000000000000
#03815:00130013
#03818:0000230000130013
#03816:23
#03915:0013000000000000
#03918:00130000
#0391b:1300000000130000
#03912:2300002600000023
#0391a:0000002400000000
#03919:00000023
#03914:00000023
#03917:0000000000000023
#0401b:2300130000130000
#04018:0013000000000000
#04016:1300130000140000
#04013:0013000000000000
#04017:0013
#04012:00001326
#04019:00000014
#04116:15001313
#0411b:0013
#04113:0000000000130000
#04112:00130000
#0411a:00000024
#04110:41
#04216:14000014
#04212:13000013
#04214:0013
#04218:0014
#04319:15250000
#04312:16001525
#04316:0014000000140000
#04318:0016
#04412:0014000014002400
#0441a:1400240000140000
#04414:26
#04416:0026
#04519:15
#04515:00000013
#04518:0000000000000013
#04512:25
#04612:1400000000130000
#04616:0013000000000000
#04617:00140000
#0461b:0000001300000013
#04618:00000013
#04615:00001313
#0461a:24
#04718:13
#04719:0013000000000000
#0471a:00132400
#0471b:0000001300000000
#04715:00241300
#04714:0000000000130000
#04713:00000013
#04712:2400000000000013
#04717:00000024
#0481a:1424
#04818:0013130000640000
#04815:00000013000000000000000000000064
#04812:2400001300002400
#04816:00001364
#04819:00000000000000000064000000000000
#04817:00000000000000000000006400000000
#04813:00000000000000000000000000640000
#04814:0000000000000064
#04915:0016
#04912:0013
#0491a:24
#04916:64
#05015:0016
#0501b:0013
#05012:24
#05116:14
#05114:0018
#05212:1414
#05216:00130013
#05217:0014
#0521b:00000013
#0521f:11
#05316:18
#05312:0015
#05412:1617
#0541a:14
#05417:00130000
#05419:0013
#0541b:00000013
#05512:18
#05519:0015
#05618:16
#05617:0017
#05612:14000013
#05616:00130000
#05614:0013
#05716:18
#05717:00170000
#05718:0016
#05719:00000015
#05712:00252627
#05814:0014
#0581a:14
#05812:2800000000000013
#0581b:0000000000000013
#05815:00130000
#05818:0000001324000000
#05915:0013001300000000
#05918:23232426
#05914:0000000000240000
#05912:0000000000000026
#06017:00000012
#06012:2c
#06117:00130000
#06112:0000130000140000
#0611b:0013
#06116:0013
#06119:00000025
#0611f:21
#06216:14130014
#06214:0013
#06218:0014
#06212:00000013
#06210:41
#06316:1300000000140000
#06312:0013000000000000
#06318:00140000
#0631b:0013
#06319:00000013
#06313:00140000
#06314:0000000000000014
#0631a:24
#0641b:1300000013130000
#06412:0013000013130000
#06418:00000000130000000000000000230000
#06415:0000130000002323
#06514:0014000000140000
#0651a:2400140000002414
#06518:0000001400000000
#06512:2414
#06516:00242414
#06612:0013000000000000
#06615:2400130000130013
#06618:00230013
#06718:0013002600000000
#06715:00130000
#06712:1300002500130000
#0671b:0000000000000013
#06716:0000000000000013
#0671a:24
#06714:00000023
#06719:00000023
#06912:00001325
#0691a:2400000000140000
#06917:0013
#0691b:00130000
#06915:15
#07118:16
#07116:0014000000140000
#07112:25251600
#07115:0000001600000016
#07119:00002525
#0721a:0014000024002400
#07212:2400240000140000
#07215:0000001600000026
#07216:26
#07214:0026
#07312:15
#07318:00000013
#07315:0000000000000013
#07319:25
#0741a:14
#07417:0013000000000000
#07415:00140023
#0741b:0000000000130000
#07412:2400001300000013
#07418:00002313
#07515:13000014
#07514:0013000000000000
#07512:0000001324000000
#07518:0013
#07519:0000000000130000
#0751b:0000000000000013
#07517:00140000
#0751a:24000023
#07513:00230000
#06812:1400000014142400
#0681a:00140000
#06816:00000000000000000014001400000000
#06817:2454
#06813:005400000000000000000000
#06814:005400000000
#06815:00540000
#06819:005400
#06818:000000000054000000000000
#07016:14000014
#07019:0013
#07014:0014
#0701b:00000013
#07017:00130000
#07612:24000000000000000014001400000000
#0761a:0000140000140000
#07616:00002414
#07615:00140000
#07617:24
#07712:2500130000000014
#07716:00141400
#07718:25
#07813:15
#07816:00141400
#0781b:00130000
#07819:25
#07912:15
#07915:0000131300001313
#07918:0000000023130000
#0801a:14
#08018:0000141400001414
#08014:0000000024140000
#08012:24
#0831a:14141414
#08316:1300001300000013
#08314:0013000000000000
#08313:00000000000000000013000000000000
#0841a:14141414
#08416:00001313
#08412:00130000000000000000000000000000
#08512:14141414
#08517:1300001300000013
#08519:0013000000000000
#0851a:00000000000000000013000000000000
#08612:14141414
#08617:00001313
#0861b:00130000000000000000000000000000
#08112:24141414
#08117:1300001300000013
#08119:0013000000000000
#0811a:00000000000000000013000000000000
#08110:41
#08212:14141414
#08217:00001313
#0821b:00130000000000000000000000000000
#0871a:24141414
#08716:0013000000000000
#08714:00130000
#08712:2400001300000000
#08715:0000000000130013
#08718:0000000000000013
#08812:14141414
#0881b:0013000000000013
#08819:0000130000130000
#08817:0000001300000000
#08916:14141400
#08914:0013000000000000
#08912:0000130000130024
#08919:0000001300000000
#0891b:1313
#08915:00000013
#0891a:0000000000000014
#08918:00000023
#00356:5300005300000063
#00157:6300006300000053
#00559:53
#0055a:0000005300000000
#0055b:0000000000000063
#00754:63
#00753:0000006300000000
#00756:0000000000000013
#00855:00000013
#00858:00000013
#01056:6300000000630000
#01057:0000005300000000
#0115b:0000000000000063
#01256:0013
#01257:00000013
#01252:00000063
#01358:00630000
#0135b:0000002300130000
#01352:0000000000000013
#01557:0000130000000063
#01552:0000000000000063
#01757:64
#01752:64
#01756:0023
#0175b:00000023
#01852:6333
#01856:00230000
#01857:0063
#01955:64
#01952:00000023
#0195a:64
#01957:0023
#02056:0063
#0205b:6343
#02057:00230000
#02157:64
#0215c:00220000
#02159:0062
#0215b:00000023
#02258:63
#0225a:00240000
#02257:0064
#02355:5452
#02352:00220023
#02455:5354
#02452:00240000
#02952:14
#0295a:14
#03052:14
#0305a:14
#03253:1a
#03358:46
#03352:36000064
#0335b:00630000
#03357:00006363
#0335a:0000000000230000
#03456:24
#0345b:23000013
#03554:00340000
#03559:00640044
#03557:0023
#03658:00130000
#03752:34
#03852:0023000000000000
#03855:00630000
#03856:63
#03858:00630000
#0395a:0000004400000000
#03952:0000006600000000
#0395b:43
#0405b:6300630000230000
#04058:0023000000000000
#04056:6300630000240000
#04053:0023000000000000
#04052:00006336
#04057:0063
#04059:00000064
#04156:25005353
#04153:0000000000230000
#0415a:00000054
#04152:00630000
#04256:24
#04252:23000013
#04352:5635
#04359:45
#04356:0024000000240000
#04358:0066
#04452:0024000014000000
#04454:66
#0445a:1400000000240000
#04456:0056
#04555:0000001300000000
#04559:65
#04552:65
#04558:0000001300000000
#04652:64340000
#04656:0023000000000000
#04657:00640000
#04655:00000013
#0465b:0000002300000000
#04658:0013
#04956:14
#04955:0066
#0495a:24
#05055:0056
#05052:24
#05156:24
#05154:0068
#05252:6464
#05256:00230023
#05257:0064
#0525b:00000023
#05352:34
#05356:68
#0545a:64
#05457:00230000
#05459:0063
#0545b:00000023
#05552:58
#0555a:14
#05652:54000023
#05656:00230000
#05654:0053
#05752:14
#0585a:14
#05854:0064
#05858:0064
#05954:0000000000340000
#05958:00004446
#05952:0000000000000036
#06152:1c00530000240000
#06156:0053
#06159:00000055
#06154:00000015
#06057:00000062
#06052:6c
#06256:24330000
#06252:00000033
#06358:00440000
#06353:00540000
#06354:0000000000000034
#06356:0000000000340000
#06652:0023000000000000
#06655:64630000
#06658:00630000
#06752:3300003500000000
#06758:0000005600000000
#0695a:1400000000240000
#06957:00006315
#0695b:00530000
#06955:25
#06952:00000065
#07158:66
#07156:0024000000240000
#07152:3556
#07159:0045
#0725a:0024000014000000
#07252:1400000000240000
#07256:56
#07254:0066
#07352:55
#07359:55
#07358:0000001300000000
#07355:0000001300000000
#0745a:54440000
#07457:0023000000000000
#07455:00541300
#07458:00000013
#07452:0000002300000000
#0655a:44
#06458:00130000
#06455:00130000
#06852:00000064
#06857:14
#07056:24
#0705b:00000043
#07057:00430000
#07557:00140000
#07555:00000014
#07656:00000014
#07655:00140000
#07657:14
#07752:6500230000000024
#07756:00246400
#07758:65
#07853:65
#07856:00246400
#07859:65
#0785b:00230000
#07952:15
#07959:15
#0805a:14
#08052:14
#08157:6300006300000053
#08152:14
#08159:0023000000000000
#0815a:00000000000000000023000000000000
#0825b:00230000000000000000000000000000
#08257:00001313
#08356:5300005300000063
#08354:0023000000000000
#08353:00000000000000000023000000000000
#08452:00230000000000000000000000000000
#08456:00001313
#08557:6300006300000053
#08559:0023000000000000
#0855a:00000000000000000023000000000000
#0865b:00230000000000000000000000000000
#08657:00001313
#08758:0000000000000043
#08952:0000000000000014
#0895a:0000000000000014
#001370:13
#001390:00230000
#001370:0000001300000000
#0013a0:00000023
#001370:0000000000000013
#0023b0:00230000
#003360:13
#003340:00230000
#003360:0000001300000000
#003330:00000023
#003360:0000000000000013
#004320:00230000
#005390:13
#005370:00230000
#0053a0:0000001300000000
#005370:00000023
#0053b0:0000000000000013
#006370:00230000
#007340:13
#007360:00230000
#007330:0000001300000000
#007360:00000023
#010360:13
#010320:00230000
#010370:0000001300000000
#0103b0:0000000000230000
#010361:0000000000130000
#010321:0000000000000023
#0113b1:0000000000000013
#012371:0023000000000000
#012321:00000013
#013361:23
#013381:00130000
#0133b1:0000005300000000
#013371:0023
#015321:13230000
#0153b1:00001323
#015321:0000000000000013
#016361:00230000
#015370:0000000000000013
#0163b0:00230000
#017370:14
#0173b0:00000053
#018370:0033
#0193a0:34
#019370:0053
#0203b0:3323
#020370:00530000
#017321:14
#017361:0053
#018321:3323
#018361:00530000
#019351:14
#019321:00000053
#020361:0033
#021321:24
#021370:14
#0213c0:00520000
#021390:0032
#0213b0:00000053
#022380:33
#0223a0:00540000
#022370:0034
#0233a0:24
#023351:1432
#023321:00520053
#024351:3334
#024321:00540000
#025321:24
#0333b1:00130000
#033371:00003333
#0333a1:0000000000530000
#0343b1:53
#034371:00230000
#033320:00000014
#034360:54
#034320:00240000
#035390:00140024
#035370:0053
#038360:13
#038320:0053000024000000
#038350:00330000
#038381:00130000
#0383a1:0024
#039321:0000001600000000
#039361:0000000000230000
#0403b1:1300330000530000
#040381:0053000000000000
#040371:0033
#040391:00000034
#041361:55
#041381:00260000
#040360:1300330000540000
#040330:0053000000000000
#040320:00003326
#041320:00130000
#041360:00003333
#041330:0000000000530000
#042320:53
#042360:00230000
#0413a1:00000014
#042361:54
#0423a1:00240000
#043321:16260000
#043361:0054000000000000
#043381:00001626
#043361:0000000000540000
#044341:16260000
#044321:0054000000000000
#044361:00001626
#0443a1:0000000000540000
#045321:15
#045351:0000002300000000
#045390:15
#045380:0000002300000000
#046320:14240000
#046360:0053000000000000
#046371:00140000
#0463b1:0000005300000000
#046381:0023
#0493a1:14
#049351:0036
#0503a1:24
#050320:14
#050350:0036
#051320:24
#051361:14
#051341:0038
#052361:24
#052320:1434
#052360:00530053
#053320:24
#052371:0014
#0523b1:00000053
#053361:38
#0543a1:34
#054371:00530000
#054391:0033
#0543b1:00000053
#0553a1:24
#055320:18
#056320:34000053
#056360:00530000
#056340:0033
#057320:24
#058340:0014
#058320:00000023
#058381:0014
#0583b1:00000023
#060321:1c
#060371:00000032
#061321:2c
#061321:0000130000540000
#061361:0033
#061341:00000025
#061390:00000015
#062360:54
#0623a0:00240000
#063330:00140000
#063360:0024
#066350:14330000
#066320:0053000024000000
#066381:00130000
#0663a1:0024
#067381:0000001600000000
#067371:0000000000230000
#068321:00000014
#069351:55
#069321:00260000
#0693b0:00130000
#069370:00003325
#0693a0:0000000000540000
#069321:00000015
#070361:54
#070321:00240000
#071381:16260000
#071361:0054000000000000
#071321:00001626
#071361:0000000000540000
#072361:16260000
#0723a1:0054000000000000
#072341:00001626
#072321:0000000000540000
#073391:15
#073381:0000002300000000
#073320:15
#073350:0000002300000000
#0743a0:14240000
#074370:0053000000000000
#074351:00142300
#074321:0000005300000000
#077321:1500530000000054
#077361:0034
#078331:35
#078361:00540000
#078321:0023
#077380:15
#077360:00540000
#0773b0:0023
#078390:15
#0783b0:00530000
#078360:0034
#079390:25
#081370:13230000
#081390:0053000000000000
#081370:0000001300002300
#0813a0:00000000000000000053000000000000
#081370:0000000000000013
#0823b0:00530000000000000000000000000000
#082370:00230000
#083360:13230000
#083340:0053000000000000
#083360:0000001300002300
#083330:00000000000000000053000000000000
#083360:0000000000000013
#084320:00530000000000000000000000000000
#084360:00230000
#085370:13230000
#085390:0053000000000000
#085370:0000001300002300
#0853a0:00000000000000000053000000000000
#085370:0000000000000013
#0863b0:00530000000000000000000000000000
#086370:00230000
#0489a0:0014
#048960:000000000000000000000000000000000000000000000000000000000000000000000000000000000000000000000000000000000000000000000000000000000000000000000000000000000000000000000000000000000000000000000000000000000000000000000000000000000000000000000000000000000000000000000000000000000000000000000000000000000000000000000000000000000000000000000000000000000000000000000000000000000000000000000000000000000000000000000000000000000000000000000000000000000000000000000000000000000000000000000000000000000000000000000000000000000000000000000000000000000000000000000000000000000000000000000000000000000000000000000000000000000000000000000000000000000000000000000000000000000000000000000000000000000000000000000000000000000000000000000000000000000000000000000000000000000000000000000000000000000000000000000000000000000000000000000000000000000000000000000000000000000000000000000000000000000000000000000000000000000000000000000000000000000000000000000000000000000000000000000000000000000000000000000000000000000000000000000000000000000000000000000000000000000000000000000000000000000000000000000000000000000000000000000000000000000000000000000000000000000000000000000000000000000000000000000000000000000000000000000000000000000000000000000000000000000000000000000000000000000000000000000000000000000000000000000000000000000000000000000000000000000000000000000000000000000000000000000000000000000000000000000000000000000000000000000000000000000000000000000000000000000000000000000000000000000000000000000000000000000000000000000000000000000000000000000000000000000000000000000000000000000000000000000000000000000000000000000000000000000000000000000000000000000000000000000000000000000000000000000000000000000000000000000000000000000000000000000000000000000000000000000000000000000000000000000000000000000000000000000000000000000000000000000000000000000000000000000000000000000000000000000000000000000000000000000000000000000000000000000000000000000000000000000000000000000000000000000000000000000000000000000000000000000000000000000000000000000000000000000000000000000000000000000000000000000000000000000000000000000000000000000000000000000000000000000000000000000000000000000000000000000000000000000000000000000000000000000000000000000000000000000000000000000000000000000000000000000000000000000000000000000000000000000000000000000000000000000000000000000000000000000000000000000000000000000000000000000000000000000000000000000000000000000000000000000000000000000000000000000000000000000000000000000000000000000000000000000000000000000000000000000000000000000000000000000000000000000000000000000000000000000000000000000000000000000000000000000000000000000000000000000000000000000000000000000000000000000000000000000000000000000000000000000000000000000000000000000000000000000000000000000000000000000000000000000000000000000000000000000000000000000000000000000000000000000000000000000000000000000054240000000000000000000000000000000000000000000000000000000000000000000000000000000000000000000000000000000000000000000000000000000000000000000000000000000000000000000000000000000000000000000000000000000000000000000000000000000000000000000000000000000000000000000000000000000000000000000000000000000000000000000000000000000000000000000000000000000000000000000000000000000000000000000000000000000000000000000000000000000000000000000000000000000000000000000000000000000000000000000000000000000000000000000000000000000000000000000000000000000000000000000000000000000000000000000000000000000000000000000000000000000000000000000000000000000000000000000000000000000000000000000000000000000000000000000000000000000000000000000000000000000000000000000000000000000000000000000000000000000000000000000000000000000000000000000000000000000000000000000000000000000000000000000000000000000000000000000000000000000000000000000000000000000000000000000000000000000000000000000000
#048921:00000014
#048961:000000000000000000000000000000000000000000000000000000000000000000000000000000000000000000000000000000000000000000000000000000000000000000000000000000000000000000000000000000000000000000000000000000000000000000000000000000000000000000000000000000000000000000000000000000000000000000000000000000000000000000000000000000000000000000000000000000000000000000000000000000000000000000000000000000000000000000000000000000000000000000000000000000000000000000000000000000000000000000000000000000000000000000000000000000000000000000000000000000000000000000000000000000000000000000000000000000000000000000000000000000000000000000000000000000000000000000000000000000000000000000000000000000000000000000000000000000000000000000000000000000000000000000000000000000000000000000000000000000000000000000000000000000000000000000000000000000000000000000000000000000000000000000000000000000000000000000000000000000000000000000000000000000000000000000000000000000000000000000000000000000000000000000000000000000000000000000000000000000000000000000000000000000000000000000000000000000000000000000000000000000000000000000000000000000000000000000000000000000000000000000000000000000000000000000000000000000000000000000000000000000000000000000000000000000000000000000000000000000000000000000000000000000000000000000000000000000000000000000000000000000000000000000000000000000000000000000000000000000000000000000000000000000000000000000000000000000000000000000000000000000000000000000000000000000000000000000000000000000000000000000000000000000000000000000000000000000000000000000000000000000000000000000000000000000000000000000000000000000000000000000000000000000000000000000000000000000000000000000000000000000000000000000000000000000000000000000000000000000000000000000000000000000000000000000000000000000000000000000000000000000000000000000000000000000000000000000000000000000000000000000000000000000000000000000000000000000000000000000000000000000000000000000000000000000000000000000000000000000000000000000000000000000000000000000000000000000000000000000000000000000000000000000000000000000000000000000000000000000000000000000000000000000000000000000000000000000000000000000000000000000000000000000000000000000000000000000000000000000000000000000000000000000000000000000000000000000000000000000000000000000000000000000000000000000000000000000000000000000000000000000000000000000000000000000000000000000000000000000000000000000000000000000000000000000000000000000000000000000000000000000000000000000000000000000000000000000000000000000000000000000000000000000000000000000000000000000000000000000000000000000000000000000000000000000000000000000000000000000000000000000000000000000000000000000000000000000000000000000000000000000000000000000000000000000000000000000000000000000000000000000000000000000000000000000000000000000000000000000000000000000000000000000000000000000000000000000000000000000000000000000000000000000000000000000000000000000000000000000000000000000000000000000000000000000000000000000000000000000000000000000000000000000000000000000000000000000000000000000000000000000000000000000000000000000000000000000000000000000000000000000000000000000000000000000000000000000000000000000000000000000000000000000000000000000000000000000000000000000000000000000000000000000000000000000000000000000000000000000000000000000000000000000000000000000000000000000000000000000000000000000000000000000000000000000000000000000000000000000000000000000000000000000000000000000000000000000000000000000000000000000000000000000000000000000000000000000000000000000000000000000000000000000000000000000000000000000000000000000000000000000000000000000000000000000000000000000000000000000000000000000000000000000000000000000000000000000000000000000000000000000000000000000000000000000000000000000000000000000000000000000000000000000000000000000000000000000000000000000000054
#049961:24
#068921:14
#068951:000000000000000000000000000000000000000000000000000000000000000000000000000000000000000000000000000000000000000000000000000000000000000000000000000000000000000000000000000000000000000000000000000000000000000000000000000000000000000000000000000000000000000000000000000000000000000000000000000000000000000000000000000000000000000000000000000000000000000000000000000000000000000000000000000000000000000000000000000000000000000000000000000000000000000000000000000000000000000000000000000000000000000000000000000000000000000000000000000000000000000000000000000000000000000000000000000000000000000000000000000000000000000000000000000000000000000000000000000000000000000000000000000000000000000000000000000000000000000000000000000000000000000000000000000000000000000000000000000000000000000000000000000000000000000000000000000000000000000000000000000000000000000000000000000000000000000000000000000000000000000000000000000000000000000000000000000000000000000000000054240000000000000000000000000000000000000000000000000000000000000000000000000000000000000000000000000000000000000000000000000000000000000000000000000000000000000000000000000000000000000000000000000000000000000000000000000000000000000000000000000000000000000000000000000000000000000000000000000000000000000000000000000000000000000000000000000000000000000000000000000000000000000000000000000000000000000000000000000000000000000000000000000000000000000000000000000000000000000000000000000000000000000000000000000000000000000000000000000000000000000000000000000000000000000000000000000000000000000000000000000000000000000000000000000000000000000000000000000000000000000000000000000000000000000000000000000000000000000000000000000000000000000000000000000000000000000000000000000000000000000000000000000000000000000000000000000000000000000000000000000000000000000000000000000000000000000000000000000000000000000000000000000000000000000000000000000000000000000000000000000000000000000000000000000000000000000000000000000000000000000000000000000000000000000000000000000000000000000000000000000000000000000000000000000000000000000000000000000000000000000000000000000000000000000000000000000000000000000000000000000000000000000000000000000000000000000000000000000000000000000000000000000000000000000000000000000000000000000000000000000000000000000000000000000000000000000000000000000000000000000000000000000000000000000000000000000000000000000000000000000000000000000000000000000000000000000000000000000000000000000000000000000000000000000000000000000000000000000000000000000000000000000000000000000000000000000000000000000000000000000000000000000000000000000000000000000000000000000000000000000000000000000000000000000000000000000000000000000000000000000000000000000000000000000000000000000000000000000000000000000000000000000000000000000000000000000000000000000000000000000000000000000000000000000000000000000000000000000000000000000000000000000000000000000000000000000000000000000000000000000000000000000000000000000000000000000000000000000000000000000000000000000000000000000000000000000000000000000000000000000000000000000000000000000000000000000000000000000000000000000000000000000000000000000000000000000000000000000000000000000000000000000000000000000000000000000000000000000000000000000000000000000000000000000000000000000000000000000000000000000000000000000000000000000000000000000000000000000000000000000000000000000000000000000000000000000000000000000000000000000000000000000000000000000000000000000000000000000000000000000000000000000000000000000000000000000000000000000000000000000000000000000000000000000000000000000000000000000000000000000000000000000000000000000000000000000000000000000000000000000000000000000000000000000000000000000000000000000000000000000000000000000000000000000000000000000000000000000000000000000000000000000000000000000000000000000000000000000000000000
#0689a0:00140000
#068970:000000000000000000000000000000000000000000000000000000000000000000000000000000000000000000000000000000000000000000000000000000000000000000000000000000000000000000000000000000000000000000000000000000000000000000000000000000000000000000000000000000000000000000000000000000000000000000000000000000000000000000000000000000000000000000000000000000000000000000000000000000000000000000000000000000000000000000000000000000000000000000000000000000000000000000000000000000000000000000000000000000000000000000000000000000000000000000000000000000000000000000000000000000000000000000000000000000000000000000000000000000000000000000000000000000000000000000000000000000000000000000000000000000000000000000000000000000000000000000000000000000000000000000000000000000000000000000000000000000000000000000000000000000000000000000000000000000000000000000000000000000000000000000000000000000000000000000000000000000000000000000000000000000000000000000000000000000000000000000000000000000000000000000000000000000000000000000000000000000000000000000000000000000000000000000000000000000000000000000000000000000000000000000000000000000000000000000000000000000000000000000000000000000000000000000000000000000000000000000000000000000000000000000000000000000000000000000000000000000000000000000000000000000000000000000000000000000000000000000000000000000000000000000000000000000000000000000000000000000000000000000000000000000000000000000000000000000000000000000000000000000000000000000000000000000000000000000000000000000000000000000000000000000000000000000000000000000000000000000000000000000000000000000000000000000000000000000000000000000000000000000000000000000000000000000000000000000000000000000000000000000000000000000000000000000000000000000000000000000000000000000000000000000000000000000000000000000000000000000000000000000000000000000000000000000000000000000000000000000000000000000000000000000000000000000000000000000000000000000000054240000000000000000000000000000000000000000000000000000000000000000000000000000000000000000000000000000000000000000000000000000000000000000000000000000000000000000000000000000000000000000000000000000000000000000000000000000000000000000000000000000000000000000000000000000000000000000000000000000000000000000000000000000000000000000000000000000000000000000000000000000000000000000000000000000000000000000000000000000000000000000000000000000000000000000000000000000000000000000000000000000000000000000000000000000000000000000000000000000000000000000000000000000000000000000000000000000000000000000000000000000000000000000000000000000000000000000000000000000000000000000000000000000000000000000000000000000000000000000000000000000000000000000000000000000000000000000000000000000000000000000000000000000000000000000000000000000000000000000000000000000000000000000000000000000000000000000000000000000000000000000000000000000000000000000000000000000000000000000000000000000000000000000000000000000000000000000000000000000000000000000000000000000000000000000000000000000000000000000000000000000000000000000000000000000000000000000000000000000000000000000000000000000000000000000000000000000000000000000000000000000000000000000000000000000000000000000000000000000000000000000000000000000000000000000000000000000000000000000000000000000000000000000000000000000000000000000000000000000000000000000000000000000000000000000000000000000000000000000000000000000000000000000000000000000000000000000000000000000000000000000000000000000000000000000000000000000000000000000000000000000000000000000000000000000000000000000000000000000000000000000000000000000000000000000000000000000000000000000000000000000000000000000000000000000000000000000000000000000000000000000000000000000000000000000000000000000000000000000000000000000000000000000000000000000000000000000000000000000000000000000000000000000000000000000000000000000000000000000000000
