This file was generated by Ched 2.7.0.0.
#TITLE ""
#ARTIST ""
#DESIGNER ""
#DIFFICULTY 0
#PLAYLEVEL
#SONGID ""
#WAVE ""
#WAVEOFFSET 0
#JACKET ""
#REQUEST "ticks_per_beat 480"
#00002: 4
#BPM01: 180
#00008: 01
#TIL00: ""
#VOLUME: ""
#HISPEED 00
#MEASUREHS 00
#0011a:14
#00115:0000130000000013
#00118:0000001300001300
#00112:0014
#00012:00000014
#00218:00131300
#0021b:0000001300000000
#0021a:14
#00215:0000000000000013
#00318:13131300
#00315:0013001300000013
#00412:00130000000000001300000000000000
#00418:0000001300130000
#00415:00000013
#0041b:0000000000000013
#00515:0013000013000000
#00512:14130000
#00513:00000013
#00618:0000001300000013
#00615:0013
#0061b:0000000000130000
#00612:00000013
#00715:13
#00712:0013000000000000
#00814:00000013
#00819:00000013
#0101b:1300001300000000
#01012:0000000000000013
#01118:13130000
#01112:0013000000000014
#01115:0000001300130000
#0111b:00001313
#01216:00130000000000000000000000000000
#01218:0000001300130000
#01215:00001313
#01212:0000000000000013
#01318:13
#0131b:00000033130000000000000000000000
#01315:0000000000000013
#01418:0000001300130000
#01415:00001313
#01412:0000000000000013
#01518:13
#0151b:0013000000000000
#01618:0013001300001300
#01615:0000130000130000
#01612:0013
#0161b:0000000000000013
#01712:16
#01710:41
#01814:12
#01918:16
#0201a:12
#02112:16
#02115:0015
#02212:14
#02318:16
#02316:0015
#0241a:14
#02512:14000000000000002400006400006400
#02518:00140000
#0261a:14000000000000002400006400006400
#02614:00140000
#02712:1400000000000064
#02718:00140000
#02714:0024
#02713:00000000000000000000006400000000
#0281a:1400000000000064
#02814:00140000
#02818:0024
#02819:00000000000000000000006400000000
#02914:1400140024000064
#02912:00000000000000000000006400000000
#03018:1400140024000064
#0301a:00000000000000000000006400000000
#03316:00130000
#03314:0013
#03312:26000013
#0331b:00130000
#03319:0013
#03317:00000013
#03318:26
#03310:41
#03412:0013
#03417:0013
#0341b:00000013
#03416:00000013
#03512:13
#03517:0013000000000000
#0361b:00130000
#03612:0000130000000024
#03615:0013
#03618:0013
#0361a:00000024
#0371b:0013001300000000
#03715:00130000
#03712:00001313
#03718:0000000000130000
#0381a:1400000000140000
#03816:00000014
#03812:2400000000000014
#04012:16000026
#04015:00160000
#04018:00001626
#04117:00130000
#04119:0013
#0411b:00000013
#04112:00130000
#04114:0013
#04116:00000013
#04110:41
#0421b:0013
#04216:0013
#04212:00000013
#04217:00000013
#04416:13
#04415:00130000
#04414:0013
#04413:00000013
#0441b:23
#0441a:00230000
#04419:0023
#04418:00000023
#04512:13
#04515:00000013
#04518:0000000000000013
#04517:23
#04612:1413
#0461a:00140000
#04615:0000000000130000
#04618:00000013
#0461b:0000000000000013
#0481a:00140000
#04818:00000014
#04812:24
#04814:0024
#04912:16
#05018:16
#05113:14
#05219:14
#0521f:11
#05317:0014
#0531a:24
#05417:1414
#05515:0014
#05615:1414
#05712:14
#05716:00140000
#0571a:0014
#05715:00000013
#05718:0000000000000013
#05812:14
#05815:0013
#05818:0023
#05915:00130000
#05918:0000001300140015
#05914:0014
#05913:00000015
#06015:0015
#06012:26
#03214:14
#06116:00130014
#06114:0013
#06112:00000013
#06118:0014
#0611a:00140000
#0611f:21
#0621a:0014
#06216:00001314
#06212:00000013
#06219:14
#06215:13
#06210:41
#06315:0014000000000000
#0631a:14
#0641b:00130000
#06412:00130024
#06415:0013
#06418:0013
#0641a:0000000000000024
#06512:0013000000130000
#06518:00130013
#06515:0000001300000013
#0651b:0013
#06612:1400000000000014
#0661a:2400000000140000
#06616:00000014
#06812:16000026
#06815:00160000
#06818:00001626
#07216:14
#07215:00140000
#07214:0014
#07213:00000014
#0721a:24
#07219:00240000
#07218:0024
#07217:00000024
#07312:14
#07315:00000014000000000000000013000000
#07318:0000000000000013
#0731a:00000014000000000000000000000000
#07316:24
#07412:1413
#0741a:00140000
#07415:0000000000130000
#07418:00000013
#0741b:0000000000000013
#0761a:00140000
#07618:00000014
#07612:24
#07614:0024
#0671a:1400000000000024
#06712:00000024
#06714:00240000
#06718:0000002400000000
#06917:00130000
#06919:0013
#0691b:00000013
#06914:0014
#06916:00000014
#06912:00140000
#07012:0014
#07017:0013
#0701b:00000013
#07016:00000014
#07013:14
#07018:13
#07713:0014
#07718:0014
#07712:26
#07819:0014
#07814:0014
#07818:26
#07915:0014
#0791a:0014
#07912:26
#08017:0014
#08012:0014
#08018:26
#08112:1600001300000000
#08118:0000130000000013
#0811b:0000000000130000
#08115:00000013
#08110:41
#08212:0014
#0821a:00000014
#08312:14
#08318:0000130000000013
#08315:0000001300001300
#0831a:0014
#08415:00131300
#08412:1400001300000000
#08418:0000000000000013
#08515:1313
#0851b:0013000000000000
#08512:00130000
#08518:0000001300000013
#0861b:00130000000000001300000000000000
#08615:0000001300001300
#08618:0000000000130000
#08612:0000000000000013
#08718:0013000000000000
#0871a:14
#0871b:00130000
#08717:0013
#08719:00000000000000000000001300000000
#08815:0000001300001300
#0881b:0013
#08818:0000000000130000
#08812:0000000000000013
#08918:1300000000000026
#0891b:0013000000000000
#08913:00001414
#08919:00001414
#08912:0000000000000026
#03112:26
#03118:0000260000240024
#03114:00002424
#03917:24
#03914:00000024
#03918:0000000000000024
#0431b:2323
#07112:2424
#00918:00333333000000000000000000000000
#00915:00000000000000000000333300000000
#00910:41
#00258:00632300
#0025b:0000006300000000
#0025a:64
#00358:0063
#00355:0000000000000063
#00452:00230000000000000000000000000000
#00555:0023000023000000
#00552:6400630000000013
#00553:00000063
#00755:63
#0075b:0000000000000013
#00752:0023000000000000
#0105b:6300006300000000
#01058:0000000000130000
#01152:0000000000000064
#01256:00230000000000000000000000000000
#01358:6300000000130000
#0135b:00630000
#01355:0000000000000013
#01558:53
#0155b:0023000000000000
#01552:0000000000000013
#01752:66
#01854:62
#01852:0016
#01958:56
#0205a:52
#02058:0016
#02152:66
#02155:0025
#02252:64
#02358:56
#02356:0025
#0245a:54
#03358:46
#03352:36000063
#03357:00000063
#03653:16
#03655:0013
#03658:0013
#0385a:64
#03852:64
#03858:00130000
#03855:00130000
#0395a:0000001400000000
#03957:64
#04052:00000036
#04058:00000046
#0415b:00000053
#04156:00000053
#04555:0000001400000000
#0455a:0000001400000000
#04552:63
#04557:63
#04753:00140000
#04759:00000014
#04952:66
#04953:0014
#05058:56
#05059:0014
#05152:0016
#05153:24
#05259:24
#05258:0016
#05852:64
#05858:0063
#05855:0063
#05952:14
#0595a:14
#06152:36000063
#06156:00000064
#06055:0025
#06052:66
#03254:14
#06455:0013
#06458:0013
#06454:18
#06652:54
#0665a:54
#06658:00130000
#06655:00130000
#07352:6400001500000000
#07356:64
#07357:0000001500000000
#07355:00000024000000000000000000000000
#0735a:00000024000000000000000000000000
#06852:00000036
#06858:00000046
#07559:00000014
#07553:00140000
#06259:24
#06255:23
#0675a:44
#06754:00340000
#06758:0000004400000000
#0695b:00000053
#06956:00000054
#07053:24
#07058:23
#07753:0024
#07752:66
#07859:0024
#07858:56
#07955:0024
#07952:66
#08057:0024
#08058:56
#08158:0000000000000063
#08455:00532300
#08452:5400005300000000
#08555:0053
#08558:0000000000000053
#0865b:00230000000000000000000000000000
#08758:0023000000000000
#0875a:54
#0875b:0000530000000013
#08757:0023
#08759:00000000000000000000005300000000
#08958:5300000000000016
#0895b:0023000000000000
#08952:0000000000000016
#0023a0:14
#002380:00335300
#0023b0:0000003300230000
#003380:0013
#0033b0:00000023
#003350:0000000000000013
#004320:00530000000000000000000000000000
#004350:00230000
#005320:1400330000000023
#005350:0053000053000000
#005330:00000053
#007350:13230000
#007320:0053000000000000
#007380:00001333
#0073b0:0000000000330023
#0093b0:13
#009380:00333333230000000000000000000000
#009320:0013
#009350:00000000000000000000333323000000
#0103b0:1300003300000000
#010380:0000330000230000
#011320:0000000000000014
#012360:00530000000000000000000000000000
#012320:00240000
#013380:1300000000230000
#0133b0:00000033330000000000000000000000
#015380:13230000
#0153b0:0053000000000000
#015350:00001333
#015320:0000000000330023
#017320:16
#018340:32
#018320:0026
#019380:16
#0203a0:32
#020380:0026
#021320:16
#021350:0055
#022320:34
#022350:0024
#023380:16
#023360:0055
#0243a0:34
#024370:0024
#033370:00000013
#0343b0:00230000
#033321:00000013
#034361:00230000
#035321:00130000
#036331:26
#038321:14
#038351:00230000
#0383a0:14
#038380:00230000
#039370:14
#0393a0:0000342400000000
#041360:00000013
#042320:00230000
#0413b1:00000013
#042371:00230000
#0433b1:13
#043371:00240000
#043360:13
#043320:00240000
#0433b0:0013
#043370:00000024
#043361:0013
#043321:00000024
#045321:13
#045351:0000002400000000
#045370:13
#0453a0:0000002400000000
#047330:14240000
#047390:00001424
#049320:16
#049330:0024
#050380:16
#050390:0024
#051330:14
#051320:0026
#052390:14
#052380:0026
#053320:14
#055320:24
#0553a1:14
#0573a1:24
#058321:1400000000000034
#058351:0000003333000000
#059321:24
#058380:0013
#0583a0:0000000000000034
#0593a0:24
#060320:16
#060350:0055
#061320:26
#061360:00000014
#062390:54
#062360:00240000
#061321:00000013
#062351:53
#062321:00230000
#0633a1:00140000
#064341:28
#0663a1:14
#066381:00230000
#066320:14
#066350:00230000
#069360:00000014
#070330:54
#070360:00240000
#0693b1:00000013
#070381:53
#0703b1:00230000
#071371:13
#0713a1:00240000
#071320:14
#071340:00250000
#071370:0013
#0713a0:00000024
#071321:0014
#071341:00000025
#073321:1400002500000000
#073351:00000054000000000000000000000000
#073360:14
#0733a0:00000054000000000000000000000000
#073370:0000002500000000
#075330:14240000
#075390:00001424
#077320:16
#077330:0054
#078320:26
#078381:16
#078391:0054
#079381:26
#079320:16
#079350:0054
#080320:26
#080381:16
#080371:0054
#081381:26
#081381:0000000000000013
#0823b1:00230000
#084321:1400003300230000
#084351:00335300
#085351:0013
#085321:00000023
#085381:0000000000000013
#0863b1:00530000000000000000000000000000
#086381:00230000
#0873a1:14
#087381:0053000000000000
#0873b1:0000330000000023
#087371:0053
#087391:00000000000000000000005300000000
#089381:13230000
#0893b1:0053000000000000
#025920:000000000000000000000000000000000000000000000000000000000000000000000000000000000000000000000000000000000000000000000000000000000000000000000000000000000000000000000000000000000000000000000000000000000000000000000000000000000000000000000000000000000000000000000000000000000000000000000000000000000000000000000000000000000000000000000000000000000000000000000000000000000000000000000000000000000000000000000000000000000000000000000000000000000000000000000000000000000000000000000000000000000000000000000000000000000000000000000000000000000000000000000000000000000000000000000000000000000000000000000000000000000000000000000000000000000000000000000000000000000000000000000000000000000000000000000000000000000000000000000000000000000000000000000000000000000000000000000000000000000000000000000000000000000000000000000000000000000000000000000000000000000000000000000000000000000000000000000000000000000000000000000000000000000000000000000000000000000000000000000000000000000000000000000000000000000000000000000000000000000000000000000000000000000000000000000000000000000000000000000000000000000000000000000000000000000000000000000000000000000000000000000000000000000000000000000000000000000000000000000000000000000000000000000000000000000000000000000000000000000000000000000000000000000000000000000000000000000000000000000000000000000000000000000000000000000000000000000000000000000000000000000000000000000000000000000000000000000000000000000000000000000000000000000000000000000000000000000000000000000000000000000000000000000000000000000000000000000000000000000000000000000000000000000000000000000000000000000000000000000000000000000000000000000000000000000000000000000000000000000000000000000000000000000000000000000000000000000000000000000000000000000000000000000000000000000000000000000000000000000000000000000000000000000000000000000000000000000000000000000000000000000000000000000000000000000000000000000000000000000000140000000000000000000000000000000000000000000000000000000000000000000000000000000000000000000000000000000000000000000000000000000000000000000000000000000000000000000000000000000000000000000000000000000000000000000000000000000000000000000000000000000000000000000000000000000000000000000000000000000000000000000000000000000000000000000000000000000000000000000000000000000000000000000000000000000000000000000000000000000000000000000000000000000000000000000000000000000000000000000000000000000000000000000000000000000000000000000000000000000000000000000000000000000000000000000000000000000000000000000000000000000000000000000000000000000000000000000000000000000000000000000000000000000000000000000000000000000000000000000000000000000000000000000000000000000000000000000000000000000000000000000000000000000000000000000000000000000000000000000000000000000000000000000000000000000000000000000000000000000000000000000000000000000000000000000000000000000000000000000000000000000000000000000000000000000000000000000000000000000000000000000000000000000000000000000000000000000000000000000000000000000000000000000000000000000000000000000000000000000000000000000000000000000000000000000000000000000000000000000000000000000000000000000000000000000000000000000000000000000000000000000000000000000000000000000000000000000000000000000000000000000000000000000000000000000000000000000000000000000000000000000000000000000000000000000000000000000000000000000054240000000000000000000000000000000000000000000000000000000000000000000000000000000000000000000000000000000000000000000000000000000000000000000000000000000000000000000000000000000000000000000000000000000000000000000000000000000000000000000000000000000000000000000000000000000000000000000000000000000000000000000000000000000000000000000000000000000000000000000000000000000000000000000000000000000000000000000000000000000000000000000000000000000000000000000000000000000000000000000000
#0269a0:000000000000000000000000000000000000000000000000000000000000000000000000000000000000000000000000000000000000000000000000000000000000000000000000000000000000000000000000000000000000000000000000000000000000000000000000000000000000000000000000000000000000000000000000000000000000000000000000000000000000000000000000000000000000000000000000000000000000000000000000000000000000000000000000000000000000000000000000000000000000000000000000000000000000000000000000000000000000000000000000000000000000000000000000000000000000000000000000000000000000000000000000000000000000000000000000000000000000000000000000000000000000000000000000000000000000000000000000000000000000000000000000000000000000000000000000000000000000000000000000000000000000000000000000000000000000000000000000000000000000000000000000000000000000000000000000000000000000000000000000000000000000000000000000000000000000000000000000000000000000000000000000000000000000000000000000000000000000000000000000000000000000000000000000000000000000000000000000000000000000000000000000000000000000000000000000000000000000000000000000000000000000000000000000000000000000000000000000000000000000000000000000000000000000000000000000000000000000000000000000000000000000000000000000000000000000000000000000000000000000000000000000000000000000000000000000000000000000000000000000000000000000000000000000000000000000000000000000000000000000000000000000000000000000000000000000000000000000000000000000000000000000000000000000000000000000000000000000000000000000000000000000000000000000000000000000000000000000000000000000000000000000000000000000000000000000000000000000000000000000000000000000000000000000000000000000000000000000000000000000000000000000000000000000000000000000000000000000000000000000000000000000000000000000000000000000000000000000000000000000000000000000000000000000000000000000000000000000000000000000000000000000000000000000000000000000000000000000000000000000140000000000000000000000000000000000000000000000000000000000000000000000000000000000000000000000000000000000000000000000000000000000000000000000000000000000000000000000000000000000000000000000000000000000000000000000000000000000000000000000000000000000000000000000000000000000000000000000000000000000000000000000000000000000000000000000000000000000000000000000000000000000000000000000000000000000000000000000000000000000000000000000000000000000000000000000000000000000000000000000000000000000000000000000000000000000000000000000000000000000000000000000000000000000000000000000000000000000000000000000000000000000000000000000000000000000000000000000000000000000000000000000000000000000000000000000000000000000000000000000000000000000000000000000000000000000000000000000000000000000000000000000000000000000000000000000000000000000000000000000000000000000000000000000000000000000000000000000000000000000000000000000000000000000000000000000000000000000000000000000000000000000000000000000000000000000000000000000000000000000000000000000000000000000000000000000000000000000000000000000000000000000000000000000000000000000000000000000000000000000000000000000000000000000000000000000000000000000000000000000000000000000000000000000000000000000000000000000000000000000000000000000000000000000000000000000000000000000000000000000000000000000000000000000000000000000000000000000000000000000000000000000000000000000000000000000000000000000000000000054240000000000000000000000000000000000000000000000000000000000000000000000000000000000000000000000000000000000000000000000000000000000000000000000000000000000000000000000000000000000000000000000000000000000000000000000000000000000000000000000000000000000000000000000000000000000000000000000000000000000000000000000000000000000000000000000000000000000000000000000000000000000000000000000000000000000000000000000000000000000000000000000000000000000000000000000000000000000000000000000
#027940:0014
#027920:000000000000000000000000000000000000000000000000000000000000000000000000000000000000000000000000000000000000000000000000000000000000000000000000000000000000000000000000000000000000000000000000000000000000000000000000000000000000000000000000000000000000000000000000000000000000000000000000000000000000000000000000000000000000000000000000000000000000000000000000000000000000000000000000000000000000000000000000000000000000000000000000000000000000000000000000000000000000000000000000000000000000000000000000000000000000000000000000000000000000000000000000000000000000000000000000000000000000000000000000000000000000000000000000000000000000000000000000000000000000000000000000000000000000000000000000000000000000000000000000000000000000000000000000000000000000000000000000000000000000000000000000000000000000000000000000000000000000000000000000000000000000000000000000000000000000000000000000000000000000000000000000000000000000000000000000000000000000000000000000000000000000000000000000000000000000000000000000000000000000000000000000000000000000000000000000000000000000000000000000000000000000000000000000000000000000000000000000000000000000000000000000000000000000000000000000000000000000000000000000000000000000000000000000000000000000000000000000000000000000000000000000000000000000000000000000000000000000000000000000000000000000000000000000000000000000000000000000000000000000000000000000000000000000000000000000000000000000000000000000000000000000000000000000000000000000000000000000000000000000000000000000000000000000000000000000000000000000000000000000000000000000000000000000000000000000000000000000000000000000000000000000000000000000000000000000000000000000000000000000000000000000000000000000000000000000000000000000000000000000000000000000000000000000000000000000000000000000000000000000000000000000000000000000000000000000000000000000000000000000000000000000000000000000000000000000000000000000000000000000000000000000000000000000000000000000000000000000000000000000000000000000000000000000000000000000000000000000000000000000000000000000000000000000000000000000000000000000000000000000000000000000000000000000000000000000000000000000000000000000000000000000000000000000000000000000000000000000000000000000000000000000000000000000000000000000000000000000000000000000000000000000000000000000000000000000000000000000000000000000000000000000000000000000000000000000000000000000000000000000000000000000000000000000000000000000000000000000000000000000000000000000000000000000000000000000000000000000000000000000000000000000000000000000000000000000000000000000000000000000000000000000000000000000000000000000000000000000000000000000000000000000000000000000000000000000000000000000000000000000000000000000000000000000000000000000000000000000000000000000000000000000000000000000000000000000000000000000000000000000000000000000000000000000000000000000000000000000000000000000000000000000000000000000000000000000000000000000000000000000000000000000000000000000000000000000000000000000000000000000000000000000000000000000000000000000000000000000000000000000000000000000000000000000000000000000000000000000000000000000000000000000000000000000000000000000000000000000000000000000000000000000000000000000000000000000000000000000000000000000000000000000000000000000000000000000000000000000000000000000000000000000000000000000000000000000000000000000000000000054240000000000000000000000000000000000000000000000000000000000000000000000000000000000000000000000000000000000000000000000000000000000000000000000000000000000000000000000000000000000000000000000000000000000000000000000000000000000000000000000000000000000000000000000000000000000000000000000000000000000000000000000000000000000000000000000000000000000000000000000000000000000000000000000000000000000000000000000000000000000000000000000000000000000000000000000000000000000000000000000
#028980:0014
#0289a0:000000000000000000000000000000000000000000000000000000000000000000000000000000000000000000000000000000000000000000000000000000000000000000000000000000000000000000000000000000000000000000000000000000000000000000000000000000000000000000000000000000000000000000000000000000000000000000000000000000000000000000000000000000000000000000000000000000000000000000000000000000000000000000000000000000000000000000000000000000000000000000000000000000000000000000000000000000000000000000000000000000000000000000000000000000000000000000000000000000000000000000000000000000000000000000000000000000000000000000000000000000000000000000000000000000000000000000000000000000000000000000000000000000000000000000000000000000000000000000000000000000000000000000000000000000000000000000000000000000000000000000000000000000000000000000000000000000000000000000000000000000000000000000000000000000000000000000000000000000000000000000000000000000000000000000000000000000000000000000000000000000000000000000000000000000000000000000000000000000000000000000000000000000000000000000000000000000000000000000000000000000000000000000000000000000000000000000000000000000000000000000000000000000000000000000000000000000000000000000000000000000000000000000000000000000000000000000000000000000000000000000000000000000000000000000000000000000000000000000000000000000000000000000000000000000000000000000000000000000000000000000000000000000000000000000000000000000000000000000000000000000000000000000000000000000000000000000000000000000000000000000000000000000000000000000000000000000000000000000000000000000000000000000000000000000000000000000000000000000000000000000000000000000000000000000000000000000000000000000000000000000000000000000000000000000000000000000000000000000000000000000000000000000000000000000000000000000000000000000000000000000000000000000000000000000000000000000000000000000000000000000000000000000000000000000000000000000000000000000000000000000000000000000000000000000000000000000000000000000000000000000000000000000000000000000000000000000000000000000000000000000000000000000000000000000000000000000000000000000000000000000000000000000000000000000000000000000000000000000000000000000000000000000000000000000000000000000000000000000000000000000000000000000000000000000000000000000000000000000000000000000000000000000000000000000000000000000000000000000000000000000000000000000000000000000000000000000000000000000000000000000000000000000000000000000000000000000000000000000000000000000000000000000000000000000000000000000000000000000000000000000000000000000000000000000000000000000000000000000000000000000000000000000000000000000000000000000000000000000000000000000000000000000000000000000000000000000000000000000000000000000000000000000000000000000000000000000000000000000000000000000000000000000000000000000000000000000000000000000000000000000000000000000000000000000000000000000000000000000000000000000000000000000000000000000000000000000000000000000000000000000000000000000000000000000000000000000000000000000000000000000000000000000000000000000000000000000000000000000000000000000000000000000000000000000000000000000000000000000000000000000000000000000000000000000000000000000000000000000000000000000000000000000000000000000000000000000000000000000000000000000000000000000000000000000000000000000000000000000000000000000000000000000000000000000000000000000000000000000000054240000000000000000000000000000000000000000000000000000000000000000000000000000000000000000000000000000000000000000000000000000000000000000000000000000000000000000000000000000000000000000000000000000000000000000000000000000000000000000000000000000000000000000000000000000000000000000000000000000000000000000000000000000000000000000000000000000000000000000000000000000000000000000000000000000000000000000000000000000000000000000000000000000000000000000000000000000000000000000000000
#029940:000000000000000000000000000000000000000000000000000000000000000000000000000000000000000000000000000000000000000000000000000000000000000000000000000000000000000000000000000000000000000000000000000000000000000000000000000000000000000000000000000000000000000000000000000000000000000000000000000000000000000000000000000000000000000000000000000000000000000000000000000000000000000000000000000000000000000000000000000000000000000000000000000000000000000000000000000000000000000000000000000000000000000000000000000000000000000000000000000000000000000000000000000000000000000000000000000000000000000000000000000000000000000000000000000000000000000000000000000000000000000000000000000000000000000000000000000000000000000000000000000000000000000000000000000000000000000000000000000000000000000000000000000000000000000000000000000000000000000000000000000000000000000000000000000000000000000000000000000000000000000000000000000000000000000000000000000000000000000000000000000000000000000000000000000000000000000000000000000000000000000000000000000000000000000000000000000000000000000000000000000000000000000000000000000000000000000000000000000000000000000000000000000000000000000000000000000000000000000000000000000000000000000000000000000000000000000000000000000000000000000000000000000000000000000000000000000000000000000000000000000000000000000000000000000000000000000000000000000000000000000000000000000000000000000000000000000000000000000000000000000000000000000000000000000000000000000000000000000000000000000000000000000000000000000000000000000000000000000000000000000000000000000000000000000000000000000000000000000000000000000000000000000000000000000000000000000000000000000000000000000000000000000000000000000000000000000000000000000000000000000000000000000000000000000000000000000000000000000000000000000000000000000000000000000000000000000000000000000000000000000000000000000000000000000000000000000000000000000000000000140000000000000000000000000000000000000000000000000000000000000000000000000000000000000000000000000000000000000000000000000000000000000000000000000000000000000000000000000000000000000000000000000000000000000000000000000000000000000000000000000000000000000000000000000000000000000000000000000000000000000000000000000000000000000000000000000000000000000000000000000000000000000000000000000000000000000000000000000000000000000000000000000000000000000000000000000000000000000000000000000000000000000000000000000000000000000000000000000000000000000000000000000000000000000000000000000000000000000000000000000000000000000000000000000000000000000000000000000000000000000000000000000000000000000000000000000000000000000000000000000000000000000000000000000000000000000000000000000000000000000000000000000000000000000000000000000000000000000000000000000000000000000000000000000000000000000000000000000000000000000000000000000000000000000000000000000000000000000000000000000000000000000000000000000000000000000000000000000000000000000000000000000000000000000000000000000000000000000000000000000000000000000000000000000000000000000000000000000000000000000000000000000000000000000000000000000000000000000000000000000000000000000000000000000000000000000000000000000000000000000000000000000000000000000000000000000000000000000000000000000000000000000000000000000000000000000000000000000000000000000000000000000000000000000000000000000000000000000054545454240000000000000000000000000000000000000000000000000000000000000000000000000000000000000000000000000000000000000000000000000000000000000000000000000000000000000000000000000000000000000000000000000000000000000000000000000000000000000000000000000000000000000000000000000000000000000000000000000000000000000000000000000000000000000000000000000000000000000000000000000000000000000000000000000000000000000000000000000000000000000000000000000000000000000000000000000000000000000000000000
#029920:00000000000000000000005400000000
#030980:000000000000000000000000000000000000000000000000000000000000000000000000000000000000000000000000000000000000000000000000000000000000000000000000000000000000000000000000000000000000000000000000000000000000000000000000000000000000000000000000000000000000000000000000000000000000000000000000000000000000000000000000000000000000000000000000000000000000000000000000000000000000000000000000000000000000000000000000000000000000000000000000000000000000000000000000000000000000000000000000000000000000000000000000000000000000000000000000000000000000000000000000000000000000000000000000000000000000000000000000000000000000000000000000000000000000000000000000000000000000000000000000000000000000000000000000000000000000000000000000000000000000000000000000000000000000000000000000000000000000000000000000000000000000000000000000000000000000000000000000000000000000000000000000000000000000000000000000000000000000000000000000000000000000000000000000000000000000000000000000000000000000000000000000000000000000000000000000000000000000000000000000000000000000000000000000000000000000000000000000000000000000000000000000000000000000000000000000000000000000000000000000000000000000000000000000000000000000000000000000000000000000000000000000000000000000000000000000000000000000000000000000000000000000000000000000000000000000000000000000000000000000000000000000000000000000000000000000000000000000000000000000000000000000000000000000000000000000000000000000000000000000000000000000000000000000000000000000000000000000000000000000000000000000000000000000000000000000000000000000000000000000000000000000000000000000000000000000000000000000000000000000000000000000000000000000000000000000000000000000000000000000000000000000000000000000000000000000000000000000000000000000000000000000000000000000000000000000000000000000000000000000000000000000000000000000000000000000000000000000000000000000000000000000000000000000000000000000000000000000140000000000000000000000000000000000000000000000000000000000000000000000000000000000000000000000000000000000000000000000000000000000000000000000000000000000000000000000000000000000000000000000000000000000000000000000000000000000000000000000000000000000000000000000000000000000000000000000000000000000000000000000000000000000000000000000000000000000000000000000000000000000000000000000000000000000000000000000000000000000000000000000000000000000000000000000000000000000000000000000000000000000000000000000000000000000000000000000000000000000000000000000000000000000000000000000000000000000000000000000000000000000000000000000000000000000000000000000000000000000000000000000000000000000000000000000000000000000000000000000000000000000000000000000000000000000000000000000000000000000000000000000000000000000000000000000000000000000000000000000000000000000000000000000000000000000000000000000000000000000000000000000000000000000000000000000000000000000000000000000000000000000000000000000000000000000000000000000000000000000000000000000000000000000000000000000000000000000000000000000000000000000000000000000000000000000000000000000000000000000000000000000000000000000000000000000000000000000000000000000000000000000000000000000000000000000000000000000000000000000000000000000000000000000000000000000000000000000000000000000000000000000000000000000000000000000000000000000000000000000000000000000000000000000000000000000000000000000000054545454240000000000000000000000000000000000000000000000000000000000000000000000000000000000000000000000000000000000000000000000000000000000000000000000000000000000000000000000000000000000000000000000000000000000000000000000000000000000000000000000000000000000000000000000000000000000000000000000000000000000000000000000000000000000000000000000000000000000000000000000000000000000000000000000000000000000000000000000000000000000000000000000000000000000000000000000000000000000000000000000
#0309a0:00000000000000000000005400000000
