This file was generated by Ched 2.7.0.0.
#TITLE ""
#ARTIST ""
#DESIGNER ""
#DIFFICULTY 0
#PLAYLEVEL
#SONGID ""
#WAVE ""
#WAVEOFFSET 0
#JACKET ""
#REQUEST "ticks_per_beat 480"
#00002: 4
#BPM01: 180
#00008: 01
#TIL00: ""
#VOLUME: ""
#HISPEED 00
#MEASUREHS 00
#00112:1414
#00318:1414
#00514:1414
#0071a:1414
#00914:1414
#00918:00140000
#00910:41
#0101a:14
#01012:0014
#01118:1414
#01114:00140000
#01212:14
#0121a:0014
#01314:14
#01318:00140000
#01312:0014
#0141a:14
#01414:0014
#01518:14
#01514:00140000
#0151a:0014
#01612:14
#01618:0014
#01712:14
#01710:41
#0191a:14
#02114:14
#02318:14
#02512:24140000
#0261a:14140000
#02914:1414
#02918:00140014
#02712:14
#02713:00140000
#0281a:14
#02819:00140000
#03012:1414
#0301a:00140014
#03112:14
#03115:0000340034343434
#03314:00140000
#03318:0014
#03312:00000014
#0331a:24
#03310:41
#03418:00140014
#03414:0014
#03514:14
#03513:0054000000000000
#03512:00540000
#03618:14
#03614:00140000
#0361a:0014
#03612:00000014
#03718:24140000
#03714:00001414
#0381a:14140000
#03812:00001414
#04012:14
#04018:00140000
#04014:0014
#0401a:00000014
#04118:00140000
#04114:0014
#0411a:00000014
#04112:24
#04110:41
#04214:00140014
#04218:0014
#04318:16
#04412:16
#04413:00340000
#04518:14
#04514:00000014
#04618:1414
#04612:00140000
#04614:00000014
#0571a:14
#05714:00140000
#05719:0014
#05713:00000014
#05818:14
#05912:14
#05918:00140000
#05913:0014
#05919:00000014
#06014:14
#06114:00140000
#06118:0014
#06112:00000014
#0611a:24
#0611f:21
#0621a:00140000
#06218:0014
#06214:00000014
#06210:41
#06312:14
#06313:0054000000000000
#06314:00540000
#06418:14
#06414:00140000
#0641a:0014
#06412:00000014
#0651a:00140000
#06514:0014
#06512:00000014
#06518:24
#0661a:14
#06618:00140000
#06612:0014
#06614:00000014
#06812:14
#06814:00140000
#06818:0014
#0681a:00000014
#06918:00140000
#06914:0014
#0691a:00000014
#06912:24
#07014:00140014
#07018:0014
#07118:16
#07117:00150000
#07212:16
#07214:00150000
#0731a:14000014
#07312:14
#07414:14
#07419:00140000
#07413:0014
#07418:00000014
#07512:24140000
#07518:00002414
#07614:24140000
#0761a:00002414
#08112:14
#08118:00140000
#08113:0014
#08119:00000014
#08110:41
#08214:14
#0821a:00140000
#08212:00002424
#0831a:14
#08314:00140000
#08319:0014
#08313:00000014
#08418:14
#08412:00140000
#0841a:00002424
#08718:14
#08714:00140000
#0871a:0014
#08712:00000014
#08818:14
#08814:00140000
#0881a:00002424
#08512:14
#08518:00140000
#08513:0014
#08519:00000014
#08614:14
#0861a:00140000
#08612:00002424
#08914:14
#08918:00140000
#08912:0024
#0521f:11
#0471a:24
#04714:0024
#04818:24
#04812:0024
#07712:26
#07818:26
#07914:24
#08018:24
#01752:64
#0195a:54
#02154:64
#02358:54
#03254:16
#03152:64
#03352:00000014
#03958:0000001600000000
#0415a:00000014
#04359:0014
#04358:66
#04452:56
#04453:0014
#0455a:0000001400000000
#04558:64
#0585a:0014
#05858:64
#06054:14
#06152:00000014
#0695a:00000014
#07158:66
#0715a:0014
#07157:00250000
#06758:0000001600000000
#07252:5614
#07254:00250000
#07358:0000001400000000
#0735a:64
#07352:54
#07354:0000001400000000
#07954:64
#08058:54
#08954:0000000000000014
#08952:0064
#002320:1424
#004380:1424
#006340:1424
#0083a0:1424
#017320:14
#018340:3424
#0193a0:14
#020380:3424
#021340:14
#022320:3424
#023380:14
#0243a0:3424
#025320:00001424
#0263a0:00001424
#027340:00001424
#028380:00001424
#031320:14
#031350:0000340034343434
#032340:26
#039380:1600002600000000
#043380:16
#043390:0024
#044320:16
#044330:00342400
#045380:14
#0453a0:0000002400000000
#049380:1424
#050340:1424
#051380:1626
#052320:1626
#0533a0:14
#053380:0034
#0543a0:34
#054380:0024
#055320:14
#055340:0034
#056320:34
#056340:0024
#058380:14
#0583a0:0024
#067380:1600002600000000
#071380:16
#071370:00550000
#0713a0:0024
#072320:1624
#072340:00350000
#0733a0:14
#073380:0000002400000000
#073321:14
#073341:0000002400000000
#077321:1626
#078381:1626
#079341:14
#079321:0024
#080381:14
#0803a1:0024
#089321:0014
#089341:0000000000003424
#035940:14
#035920:000000000000000000000000000000000000000000000000000000000000000000000000000000000000000000000000000000000000000000000000000000000000000000000000000000000000000000000000000000000000000000000000000000000000000000000000000000000000000000000000000000000000000000000000000000000000000000000000000000000000000000000000000000000000000000000000000000000000000000000000000000000000000000000000000000000000000000000000000000000000000000000000000000000000000000000000000000000000000000000000000000000000000000000000000000000000000000000000000000000000000000000000000000000000000000000000000000000000000000000000000000000000000000000000000000000000000000000000000000000000000000000000000000000000000000000000000000000000000000000000000000000000000000000000000000000000000000000000000000000000000000000000000000000000000000000000000000000000000000000000000000000000000000000000000000000000000000000000000000000000000000000000000000000000000000000000000000000000000000000054240000000000000000000000000000000000000000000000000000000000000000000000000000000000000000000000000000000000000000000000000000000000000000000000000000000000000000000000000000000000000000000000000000000000000000000000000000000000000000000000000000000000000000000000000000000000000000000000000000000000000000000000000000000000000000000000000000000000000000000000000000000000000000000000000000000000000000000000000000000000000000000000000000000000000000000000000000000000000000000000000000000000000000000000000000000000000000000000000000000000000000000000000000000000000000000000000000000000000000000000000000000000000000000000000000000000000000000000000000000000000000000000000000000000000000000000000000000000000000000000000000000000000000000000000000000000000000000000000000000000000000000000000000000000000000000000000000000000000000000000000000000000000000000000000000000000000000000000000000000000000000000000000000000000000000000000000000000000000000000000000000000000000000000000000000000000000000000000000000000000000000000000000000000000000000000000000000000000000000000000000000000000000000000000000000000000000000000000000000000000000000000000000000000000000000000000000000000000000000000000000000000000000000000000000000000000000000000000000000000000000000000000000000000000000000000000000000000000000000000000000000000000000000000000000000000000000000000000000000000000000000000000000000000000000000000000000000000000000000000000000000000000000000000000000000000000000000000000000000000000000000000000000000000000000000000000000000000000000000000000000000000000000000000000000000000000000000000000000000000000000000000000000000000000000000000000000000000000000000000000000000000000000000000000000000000000000000000000000000000000000000000000000000000000000000000000000000000000000000000000000000000000000000000000000000000000000000000000000000000000000000000000000000000000000000000000000000000000000000000000000000000000000000000000000000000000000000000000000000000000000000000000000000000000000000000000000000000000000000000000000000000000000000000000000000000000000000000000000000000000000000000000000000000000000000000000000000000000000000000000000000000000000000000000000000000000000000000000000000000000000000000000000000000000000000000000000000000000000000000000000000000000000000000000000000000000000000000000000000000000000000000000000000000000000000000000000000000000000000000000000000000000000000000000000000000000000000000000000000000000000000000000000000000000000000000000000000000000000000000000000000000000000000000000000000000000000000000000000000000000000000000000000000000000000000000000000000000000000000000000000000000000000000000000000000000000000000000000000000000000000000000000000000000000000000000000000000000000000000000000000000000000000000000000000000000000000000000000000000000000000000000000000000000000000000000000000000000000000000000000
#063920:14
#063940:000000000000000000000000000000000000000000000000000000000000000000000000000000000000000000000000000000000000000000000000000000000000000000000000000000000000000000000000000000000000000000000000000000000000000000000000000000000000000000000000000000000000000000000000000000000000000000000000000000000000000000000000000000000000000000000000000000000000000000000000000000000000000000000000000000000000000000000000000000000000000000000000000000000000000000000000000000000000000000000000000000000000000000000000000000000000000000000000000000000000000000000000000000000000000000000000000000000000000000000000000000000000000000000000000000000000000000000000000000000000000000000000000000000000000000000000000000000000000000000000000000000000000000000000000000000000000000000000000000000000000000000000000000000000000000000000000000000000000000000000000000000000000000000000000000000000000000000000000000000000000000000000000000000000000000000000000000000000000000000054240000000000000000000000000000000000000000000000000000000000000000000000000000000000000000000000000000000000000000000000000000000000000000000000000000000000000000000000000000000000000000000000000000000000000000000000000000000000000000000000000000000000000000000000000000000000000000000000000000000000000000000000000000000000000000000000000000000000000000000000000000000000000000000000000000000000000000000000000000000000000000000000000000000000000000000000000000000000000000000000000000000000000000000000000000000000000000000000000000000000000000000000000000000000000000000000000000000000000000000000000000000000000000000000000000000000000000000000000000000000000000000000000000000000000000000000000000000000000000000000000000000000000000000000000000000000000000000000000000000000000000000000000000000000000000000000000000000000000000000000000000000000000000000000000000000000000000000000000000000000000000000000000000000000000000000000000000000000000000000000000000000000000000000000000000000000000000000000000000000000000000000000000000000000000000000000000000000000000000000000000000000000000000000000000000000000000000000000000000000000000000000000000000000000000000000000000000000000000000000000000000000000000000000000000000000000000000000000000000000000000000000000000000000000000000000000000000000000000000000000000000000000000000000000000000000000000000000000000000000000000000000000000000000000000000000000000000000000000000000000000000000000000000000000000000000000000000000000000000000000000000000000000000000000000000000000000000000000000000000000000000000000000000000000000000000000000000000000000000000000000000000000000000000000000000000000000000000000000000000000000000000000000000000000000000000000000000000000000000000000000000000000000000000000000000000000000000000000000000000000000000000000000000000000000000000000000000000000000000000000000000000000000000000000000000000000000000000000000000000000000000000000000000000000000000000000000000000000000000000000000000000000000000000000000000000000000000000000000000000000000000000000000000000000000000000000000000000000000000000000000000000000000000000000000000000000000000000000000000000000000000000000000000000000000000000000000000000000000000000000000000000000000000000000000000000000000000000000000000000000000000000000000000000000000000000000000000000000000000000000000000000000000000000000000000000000000000000000000000000000000000000000000000000000000000000000000000000000000000000000000000000000000000000000000000000000000000000000000000000000000000000000000000000000000000000000000000000000000000000000000000000000000000000000000000000000000000000000000000000000000000000000000000000000000000000000000000000000000000000000000000000000000000000000000000000000000000000000000000000000000000000000000000000000000000000000000000000000000000000000000000000000000000000000000000000000000000000000000000000000
