This file was generated by Ched 2.7.0.0.
#TITLE ""
#ARTIST ""
#DESIGNER ""
#DIFFICULTY 0
#PLAYLEVEL
#SONGID ""
#WAVE ""
#WAVEOFFSET 0
#JACKET ""
#REQUEST "ticks_per_beat 480"
#00002: 4
#BPM01: 117
#00008: 01
#TIL00: ""
#VOLUME: ""
#HISPEED 00
#MEASUREHS 00
#00212:1414
#00314:0014
#00318:14
#0091a:14
#0101a:14
#01112:14
#01110:41
#01212:14
#0451a:14
#05412:14
#05518:14
#05614:14
#00512:2414
#00510:41
#0061a:1414
#00718:0014
#00714:14
#0011a:2414
#01318:14
#01414:14
#01518:14
#01614:14
#0171a:14
#01710:41
#01812:14
#0191a:14
#02012:14
#02912:0016
#02918:26
#0291f:21
#03018:16
#03012:0016
#03010:41
#03318:0016
#03312:26
#03412:16
#03418:0016
#03118:16
#03112:0016
#03512:16
#03518:0016
#03718:2616
#03712:00160000
#03812:1616
#03818:00160000
#03918:16
#03912:0016
#04112:2616
#04118:00160000
#04110:41
#04218:1616
#04212:00160000
#04312:16
#04318:0016
#04612:14
#04718:14
#04710:41
#04814:14
#0481a:0014
#0531a:14
#04912:14
#0501a:14
#05114:14
#05218:14
#05212:0014
#0211f:11
#004380:1424
#008340:1424
#021380:14
#022380:24
#023340:14
#024340:24
#0253a0:14
#0263a0:24
#027320:14
#028320:24
#032380:1626
#036320:1626
#040380:1626
#044320:1626
