This file was generated by Ched 2.7.0.0.
#TITLE ""
#ARTIST ""
#DESIGNER ""
#DIFFICULTY 0
#PLAYLEVEL
#SONGID ""
#WAVE ""
#WAVEOFFSET 0
#JACKET ""
#REQUEST "ticks_per_beat 480"
#00002: 4
#BPM01: 117
#00008: 01
#TIL00: ""
#VOLUME: ""
#HISPEED 00
#MEASUREHS 00
#0211f:11
#02112:14000000000000540000000000000000
#0211a:0024002400240024
#02115:00540000
#04014:00140016
#04016:00000014000024000000160000000000
#04018:14000000001400000000000000001600
#04012:0024000016000000
#0401a:00000000000000140000000000000000
#03616:00140016
#03614:1400000000160000
#03612:0000002400000016
#03618:0016
#0361a:0024000000000000
#0321a:00000014001400000000000000001400
#03216:00000014
#03212:0014240000140000
#03218:1414
#03214:00000000000000140000000000000000
#0261a:14000000000000540000000000000000
#02612:0024002400240024
#02616:54540000
#02512:14000000000000540000000000000000
#0251a:0024002400240024
#02516:00540000
#0231a:14000000000000540000000000000000
#02312:5424002400240024
#02317:00540000
#02819:12
#02817:00120000
#02815:12000000000000000000000000130013
#0281a:0000000013130000
#02813:0000000013130000
#02818:0000000000001313
#0271a:00002400000024000014001400001400
#02716:54000000000000140000000014000000
#02712:1400140000240024
#02417:54120012001200000000000000001400
#02415:12120000
#02418:00000014
#02419:0000000000140000
#0241a:0014
#02412:0024002400240024
#01814:14131313
#01818:00140000000000000000000000000000
#01819:00131313
#0181a:0000002400000024
#01812:0024000000240000
#01714:1424000000240000
#01712:00131313
#0171b:00131313
#01718:00140000000024000000000000002400
#01710:41
#01612:00140000000000000000000000000000
#01616:1424000000000000
#01619:0000000000000024
#01618:0000000000240000
#01617:0000002400000000
#0151a:00140000000000000000000000000000
#01516:1424000000000000
#01513:0000000000000024
#01514:0000000000240000
#01515:0000002400000000
#01416:00140000000000000000000000000000
#0141a:1424002400240024
#01316:00140000000000000000000000000000
#01312:1424002400240024
#00412:00000014001400000000000000001400
#00416:00000014
#0041a:0014240000140000
#00414:1414
#00418:00000000000000140000000000000000
#05112:14140000000000001414000000000014
#05118:00000000141400000000000000000000
#05116:00000000000000000000000000140000
#0511a:00000000000000000000001400000000
#0501a:14140000000000001414000000000014
#05014:00000000141400000000000000000000
#05016:00000000000000000000000000140000
#05012:00000000000000000000001400000000
#04414:14000014
#04418:0014
#04412:0000140000000024
#04416:0000000000240000
#0441a:0024002400000000
#04318:00000000001400000000240000000014
#0431a:00140014000000000000000014000000
#04312:0000002400001400
#04314:14000000140000000014000000002400
#04316:00002400000000140000000000000000
#04218:00000000000024000000000000000014
#04216:00000014000000000000240000140000
#04212:26000000000000000000001400002400
#04213:00000000000000000014000000000000
#04217:0014
#04214:00000000000000140000000000000000
#04215:00000000001400000000000000000000
#04219:00140000
#0421a:0024000000000000
#03914:00000000140000000014000000000014
#03912:00002400000000000000001400000000
#0391a:00000000000000140000000000002400
#03918:00000000001400000000240000000000
#03916:14000014000024000000000000000000
#05219:0000000015141312
#05215:0000001600000012
#05214:00000013
#05213:0000000000140000
#05212:14131500
#0521b:00130000
#05216:0014000000000000
#0521a:14
#04912:14140000000000001414000000000014
#04916:00000000000000000000000000140000
#0491a:00000000000000000000001400000000
#04918:00000000141400000000000000000000
#0481a:0000000014000014
#04816:00000014
#04812:13130000000000000000140000000000
#04818:00000013000000000000000000000000
#04817:0000001400000000
#04814:00140000
#0471b:13130000000000000000000000000013
#0471b:13130000000000000000000000000000
#04718:00000000000000001313000000130000
#04715:00000000131300000000001300000000
#04710:41
#04612:13130000000000000000000000000013
#04612:13130000000000000000000000000000
#04615:00000000000000001313000000130000
#04618:00000000131300000000001300000000
#0451b:13130000000000000000000000000013
#0451b:13130000000000000000000000000000
#04518:00000000000000001313000000130000
#04515:00000000131300000000001300000000
#02016:00131313
#02014:14
#0201b:00131313
#02018:00140000000024000000000000002400
#02012:0024000000240000
#01917:00131313
#01912:14131313
#01918:00140000000000000000000000000000
#0191a:0000002400000024
#01914:0024000000240000
#03518:00000000001400000000240000000014
#03516:00000014
#03514:00000000140000000014000000002400
#0351a:00002400000000140000000000000000
#03512:1400002400000000
#03418:00000000001400000000240000140000
#0341a:00002400000000001400000000000014
#03414:00000000140000000000001400002400
#03412:24000000000024000014000000000000
#03312:0000140000240000
#0331a:0024000024001400
#03314:24
#03316:0000002400000024
#03114:00000000001400000000240000000014
#03118:00000000140000000000001400002400
#0311a:14000000000024000014000000000000
#03112:00002400000000140000000000000000
#03014:00000000001400000000240000140000
#03012:00002400000000001400000000000014
#03018:00000000140000000000001400002400
#0301a:24000000000024000014000000000000
#03010:41
#0291a:0000140000240000
#02912:0024000024001400
#0291f:21
#02916:0000002400000024
#02918:24
#01214:0000000000000014
#01212:00130000000000130000000000000000
#0121b:00000013001300000000000000000000
#01215:00130000
#01218:1300000000140000
#01216:00000014
#0121a:0014
#01112:00000000000000001300000000000013
#01115:13000000130000000000000000130000
#01118:00000000001300000000001300000000
#0111b:00130000000000000013000000000000
#01110:41
#0101b:00000000000000001300000000000013
#01018:13000000130000000000000000130000
#01015:00000000001300000000001300000000
#01012:00130000000000000013000000000000
#00912:00000000000000001300000000000013
#00915:13000000130000000000000000130000
#00918:00000000001300000000001300000000
#0091b:00130000000000000013000000000000
#00816:00141414
#00818:14
#0081a:0000002400000024
#00812:0024000000240000
#00714:00000000001400000000240000000014
#00716:00000014
#00718:00000000140000000014000000002400
#00712:00002400000000140000000000000000
#0071a:1400002400000000
#00614:00000000001400000000240000140000
#00612:00002400000000001400000000000014
#00618:00000000140000000000001400002400
#0061a:24000000000024000014000000000000
#0051a:0000140000240000
#00512:0024000024001400
#00516:0000002400000024
#00518:24
#00510:41
#00318:00000000001400000000240000000014
#00314:00000000140000000000001400002400
#00312:14000000000024000014000000000000
#0031a:00002400000000140000000000000000
#00218:00000000001400000000240000140000
#0021a:00002400000000001400000000000014
#00214:00000000140000000000001400002400
#00212:24000000000024000014000000000000
#00112:0000140000240000
#0011a:0024000024001400
#00116:0000002400000024
#00114:24
#03812:00002400000000000000000000000014
#03816:00000014000000000000240000140000
#0381a:00000000000000000000001400002400
#03819:00000000000000000014000000000000
#03815:0014
#03818:26000000000000140000000000000000
#03817:00000000001400000000000000000000
#03813:00140000
#03814:0000002400000000
#04118:00260026
#04112:2626
#04115:0026002600260026
#04110:41
#03712:00260026
#03718:2626
#03715:0026002600260026
#05512:24
#0551a:24
#05419:24
#05413:24
#05616:24
#0221a:0024002400240024
#02215:0000000054000054
#02212:00000054
#05316:24
#04252:16
#04158:00160016
#04152:1616
#03858:16
#03752:00160016
#03758:1616
#03452:14
#0335a:0014
#03354:14
#0305a:14
#02952:0014
#02958:14
#0065a:14
#00552:0014
#00558:14
#00252:14
#0015a:0014
#00154:14
#04054:00000016
#04056:0000000000160000
#04058:0000000000000016
#04052:0016
#03656:00000016
#03654:0000000000160000
#03652:0000000000000016
#03658:0016
#0325a:0000000000000014
#03256:00000014
#03252:0000000000140000
#03258:0014
#00452:0000000000000014
#00456:00000014
#0045a:0000000000140000
#00454:0014
#05259:0000000015141312
#05255:0000000000000012
#05254:00000013
#05253:0000000000140000
#05252:0015
#0485a:0000000014000014
#04856:00000014
#04852:0000000000140000
#021920:14000000005400540000000000000000
#021950:00540000540000005400000000000000
#022950:00000000000000005400000000545400
#022920:000000000000000000000000000000000000000000000000000000000000000000000000000000000000000000000000000000000000000000000000000000000000000000000000000000000000000000000000000000000000000000000000000000000000000000000000000000000000000000000000000000000000000000000000000000000000000000000000000000000000000000000000000000000000000000000000000000000000000000000000000000000000000000000000000000000000000000000000000000000000000000000000000000000000000000000000000000000000000000000000000000000000000000000000000000000000000000000000000000000000000000000000000000000000000000000000000000000000000000000000000000000000000000000000000000000000000000000000000000000000000000000000000000000000000000000000000000000000000000000000000000000000000000000000000000000000000000000000000000000000000000000000000000000000000000000000000000000000000000000000000000000000000000000000000000000000000000000000000000000000000000000000000000000000000000000000000000000000000000000000000000000000000000000000000000000000000000000000000000000000000000000000000000000000000000000000000000000000000000000000000000000000000000000000000000000000000000000000000000000000000000000000000000000000000000000000000000000000000000000000000000000000000000000000000000000000000000000000000000000000000000000000000000000000000000000000000000000000000000000000000000000000000000000000000000000000000000000000000000000000000000000000000000000000000000000000000000000000000000000000000000000000000000000000000000000000000000000000000000000000000000000000000000000000000000000000000000000000000000000000000000000000000000000000000000000000000000000000000000000000000000000000000000000000000000000000000000000000000000000000000000000000000000000000000000000000000000000000000000000000000000000000000000000000000000000000000000000000000000000000000000000000000000000000000000000000000000000000000000000000000000000000000000000000000000000000000000000000000000000000000000000000000000000000000000000000000000000000000000000000000000000000000000000000000000000000000000000000000000000000000000000000000000000000000000000000000000000000000000000000000000000000000000000000000000000000000000000000000000000000540000000000000000000000000000000000000000000000000000000000000000000000000000000000000000000000000000000000000000000000000000000000000000000000000000000000000000000000000000000000000000000000000000000000000000000000000000000000000000000000000000000000000000000000000000000000000000000000000000000000000000000000000000000000000000000000000000000000000000000000000000000000000000000000000000000000000000000000000000000000000000000000000000000000000000000000000000000000000000000000000000000000000000000000000000000000000000000000000000000000000000000000000000000000000000000000000000000000000000000000000000000000000000000000000000000000000000000000000000000000000000000000000000000000000000000000000000000000000000000000540000000000000000000000000000000000000000000000000000000000000000000000000000000000000000000000000000000000000000000000000000000000000000000000000000000000000000000000000000000000000000000000000000000000000000000000000000000000000000000000000000000000000000000000000000000000000000000000000000000000000000000000000000000000000000000000000000000000000000000000000000000000000000000000000000000000000000000000000000000000000000000000000000000000000000000000000000000000000000000000000000000000000000000000000000000000000000000000000000000000000000000000000000000000000000000000000000000000000000000000000000000000000000000000000000000000000000000000000000000000000000000000000000000000000000000000000000000000000000000000540000000000000000000000000000000000000000000000000000000000000000000000000000000000000000000000000000000000000000000000000000000000000000000000000000000000000000000000000000000000000000000000000000000000000000000000000054545454545454545454
#023920:24
#0239a1:14000000005400540000000000000000
#023971:000000000000000000000000000000000000000000000000000000000000000000000000000000000000000000000000000000000000000000000000000000000000000000000000000000000000000000000000000000000000000000000000000000000000000000000000000000000000000000000000540000000000000000000000000000000000000000000000000000000000000000000000000000000000000000000000000000000000000000000000000000000000000000000000000000000000000000000000000000000000000000000000000000000000000000000000000000000000000000000000000000000000000000000000000000000000000000000000000000000000000000000000000000000000000000000000000000000000000000000000000000000000000000000000000000000000000000000000000000000000000000000000000000000000000000000000000000000000000000000000000000000000000000000000000000000000000000000000000000000000000000000000000000000000000000000000000000000000000000000000000000000000000000000000000000000000000000000000000000000000000000000000000000000000000000000000000000000000000000000000540000000000000000000000000000000000000000000000000000000000000000000000000000000000000000000000000000000000000000000000000000000000000000000000000000000000000000000000000000000000000000000000000000000000000000000000000000000000000000000000000000000000000000000000000000000000000000000000000000000000000000000000000000000000000000000000000000000000000000000000000000000000000000000000000000000000000000000000000000000000000000000000000000000000000000000000000000000000000000000000000000000000000000000000000000000000000000000000000000000000000000000000000000000000000000000000000000000000000000000000000000000000000000000000000000000000000000000000000000000000000000000000000000000000000000000000000000000000000000000000000000000000000000000000000000000000000000000000000000000000000000000000000000000000000000000000000000000000000000000000000000000000000000000000000000000000000000000000000000000000000000000000000000000000000000000000000000000000000000000000540000000000000000000000000000000000000000000000000000000000000000000000000000000000000000000000000000000000000000000000000000000000000000000000000000000000000000000000000000000000000000000000000000000000000000000000000000000000000000000000000000000000000000000000000000000000000000000000000000000000000000000000000000000000000000000000000000000000000000000000000000000000000000000000000000000000000000000000000000000000000000000000000000000000000000000000000000000000000000000000000000000000000000000000000000000000000000000000000000000000000000000000000000000000000000000000000000000000000000000000000000000000000000000000000000000000000000000000000000000000000000000000000000000000000000000000000000000000000000000000000000000000000000000000000000000000000000000000000000000000000000000000000000000000000000000000000000000000000000000000000000000000000000000000000000000000000000000000000000000000000000000000000000000000000000000000000000000000000000000000000000000000000000000000000000000000000000000000000000000000000000000000000000000000000000000000000000000000000000000000000000000000000000000000000000000000000000000000000000000000000000000000000000000000000000000000000000000000000000000000000000000000000000000000000000000000000000000000000000000000000000000000000000000000000000000000000000000000000000000000000000000000000000000000000000000000000000000000000000000000000000000000000000000000000000000000000000000000000000000000000000000000000000000000000000000000000000000000000000000000000000000000000000000000000000000000000000000000000000000000000000000000000000000000000000000000000000000000000000000000000000000000000000000000000000000000000000000000000000000000000000000000000000000000000000000000000000000000000000000000000000000000000000000000000000000000000000000000000000000000000000000000000000000000000000000000000000000000000000000000000000000000000000000000000000000000000054545454545454545454
#024971:24
#025921:14000000005400540000000000000000
#025961:000000000000000000000000000000000000000000000000000000000000000000000000000000000000000000000000000000000000000000000000000000000000000000000000000000000000000000000000000000000000000000000000000000000000000000000000000000000000000000000000540000000000000000000000000000000000000000000000000000000000000000000000000000000000000000000000000000000000000000000000000000000000000000000000000000000000000000000000000000000000000000000000000000000000000000000000000000000000000000000000000000000000000000000000000000000000000000000000000000000000000000000000000000000000000000000000000000000000000000000000000000000000000000000000000000000000000000000000000000000000000000000000000000000000000000000000000000000000000000000000000000000000000000000000000000000000000000000000000000000000000000000000000000000000000000000000000000000000000000000000000000000000000000000000000000000000000000000000000000000000000000000000000000000000000000000000000000000000000000000000540000000000000000000000000000000000000000000000000000000000000000000000000000000000000000000000000000000000000000000000000000000000000000000000000000000000000000000000000000000000000000000000000000000000000000000000000000000000000000000000000000000000000000000000000000000000000000000000000000000000000000000000000000000000000000000000000000000000000000000000000000000000000000000000000000000000000000000000000000000000000000000000000000000000000000000000000000000000000000000000000000000000000000000000000000000000000000000000000000000000000000000000000000000000000000000000000000000000000000000000000000000000000000000000000000000000000000000000000000000000000000000000000000000000000000000000000000000000000000000000000000000000000000000000000000000000000000000000000000000000000000000000000000000000000000000000000000000000000000000000000000000000000000000000000000000000000000000000000000000000000000000000000000000000000000000000000000000000000000000000540000000000000000000000000000000000000000000000000000000000000000000000000000000000000000000000000000000000000000000000000000000000000000000000000000000000000000000000000000000000000000000000000000000000000000000000000000000000000000000000000000000000000000000000000000000000000000000000000000000000000000000000000000000000000000000000000000000000000000000000000000000000000000000000000000000000000000000000000000000000000000000000000000000000000000000000000000000000000000000000000000000000000000000000000000000000000000000000000000000000000000000000000000000000000000000000000000000000000000000000000000000000000000000000000000000000000000000000000000000000000000000000000000000000000000000000000000000000000000000000000000000000000000000000000000000000000000000000000000000000000000000000000000000000000000000000000000000000000000000000000000000000000000000000000000000000000000000000000000000000000000000000000000000000000000000000000000000000000000000000000000000000000000000000000000000000000000000000000000000000000000000000000000000000000000000000000000000000000000000000000000000000000000000000000000000000000000000000000000000000000000000000000000000000000000000000000000000000000000000000000000000000000000000000000000000000000000000000000000000000000000000000000000000000000000000000000000000000000000000000000000000000000000000000000000000000000000000000000000000000000000000000000000000000000000000000000000000000000000000000000000000000000000000000000000000000000000000000000000000000000000000000000000000000000000000000000000000000000000000000000000000000000000000000000000000000000000000000000000000000000000000000000000000000000000000000000000000000000000000000000000000000000000000000000000000000000000000000000000000000000000000000000000000000000000000000000000000000000000000000000000000000000000000000000000000000000000000000000000000000000000000000000000000000000000000000000054545454545454545454
#026961:24
#0269a0:14000000005400540000000000000000
#026960:000000000000000000000000000000000000000000000000000000000000000000000000000000000000000000000000000000000000000000000000000000000000000000000000000000000000000000000000000000000000000000000000000000000000000000000000000000000000000000000000540000000000000000000000000000000000000000000000000000000000000000000000000000000000000000000000000000000000000000000000000000000000000000000000000000000000000000000000000000000000000000000000000000000000000000000000000000000000000000000000000000000000000000000000000000000000000000000000000000000000000000000000000000000000000000000000000000000000000000000000000000000000000000000000000000000000000000000000000000000000000000000000000000000000000000000000000000000000000000000000000000000000000000000000000000000000000000000000000000000000000000000000000000000000000000000000000000000000000000000000000000000000000000000000000000000000000000000000000000000000000000000000000000000000000000000000000000000000000000000000540000000000000000000000000000000000000000000000000000000000000000000000000000000000000000000000000000000000000000000000000000000000000000000000000000000000000000000000000000000000000000000000000000000000000000000000000000000000000000000000000000000000000000000000000000000000000000000000000000000000000000000000000000000000000000000000000000000000000000000000000000000000000000000000000000000000000000000000000000000000000000000000000000000000000000000000000000000000000000000000000000000000000000000000000000000000000000000000000000000000000000000000000000000000000000000000000000000000000000000000000000000000000000000000000000000000000000000000000000000000000000000000000000000000000000000000000000000000000000000000000000000000000000000000000000000000000000000000000000000000000000000000000000000000000000000000000000000000000000000000000000000000000000000000000000000000000000000000000000000000000000000000000000000000000000000000000000000000000000000000540000000000000000000000000000000000000000000000000000000000000000000000000000000000000000000000000000000000000000000000000000000000000000000000000000000000000000000000000000000000000000000000000000000000000000000000000000000000000000000000000000000000000000000000000000000000000000000000000000000000000000000000000000000000000000000000000000000000000000000000000000000000000000000000000000000000000000000000000000000000000000000000000000000000000000000000000000000000000000000000000000000000000000000000000000000000000000000000000000000000000000000000000000000000000000000000000000000000000000000000000000000000000000000000000000000000000000000000000000000000000000000000000000000000000000000000000000000000000000000000000000000000000000000000000000000000000000000000000000000000000000000000000000000000000000000000000000000000000000000000000000000000000000000000000000000000000000000000000000000000000000000000000000000000000000000000000000000000000000000000000000000000000000000000000000000000000000000000000000000000000000000000000000000000000000000000000000000000000000000000000000000000000000000000000000000000000000000000000000000000000000000000000000000000000000000000000000000000000000000000000000000000000000000000000000000000000000000000000000000000000000000000000000000000000000000000000000000000000000000000000000000000000000000000000000000000000000000000000000000000000000000000000000000000000000000000000000000000000000000000000000000000000000000000000000000000000000000000000000000000000000000000000000000000000000000000000000000000000000000000000000000000000000000000000000000000000000000000000000000000000000000000000000000000000000000000000000000000000000000000000000000000000000000000000000000000000000000000000000000000000000000000000000000000000000000000000000000000000000000000000000000000000000000000000000000000000000000000000000000000000000000000000000000000000000000000000054545454545454545454
#027960:24
