This file was generated by Ched 2.7.0.0.
#TITLE ""
#ARTIST ""
#DESIGNER ""
#DIFFICULTY 0
#PLAYLEVEL
#SONGID ""
#WAVE ""
#WAVEOFFSET 0
#JACKET ""
#REQUEST "ticks_per_beat 480"
#00002: 4
#BPM01: 117
#00008: 01
#TIL00: ""
#VOLUME: ""
#HISPEED 00
#MEASUREHS 00
#00118:00001313
#0011b:23130000
#00112:0023002300000000
#00115:0000000000230023
#0381a:0000140000240000
#03814:00000000000024001400000000000014
#03812:0024000000001400
#03818:26000000000000140000000000002400
#03918:14
#03916:00141414
#03912:00002400000000000000240000000014
#0391a:0000002400000024
#00918:13130000
#00915:00001313
#01715:00131313
#01710:41
#03716:00140014
#03718:26
#03712:0024000026000024
#0371a:0000002400240000
#0401a:1400002400000024
#04014:0024140000000000
#04018:00000014000000000000000000000000
#04015:0000000000240000
#04017:00000024
#04012:0024
#0021b:1300000000000023
#00215:0000130000230000
#00218:0023000013001300
#00212:0000002300000000
#00312:13000013
#00318:0023000013000023
#00315:0000130000230000
#0031b:0000002300000000
#00415:1300130000230000
#00412:0023
#0041b:0000000000000023
#00418:0023002300002300
#00515:00001313
#00512:23130000
#0051b:0023002300000000
#00518:0000000000230023
#00510:41
#00612:1300000000000023
#00618:0000130000230000
#00615:0023000013001300
#0061b:0000002300000000
#0071b:13000013
#00715:0023000013000023
#00718:0000130000230000
#00712:0000002300000000
#00818:1300130000230000
#0081b:0013
#00815:0023002300001300
#00812:0000000000000023
#0101b:13130000
#01012:00001313
#01118:13130000
#01115:00001313
#01110:41
#0121b:13
#01212:00130000
#01218:00001313
#01215:0000000000130013
#01818:00131313
#01912:00131313
#0191b:0033000000000000
#0191a:0000003300000000
#01919:0000000000330000
#01918:0000000000000033
#0201b:00131313
#02012:0033000000000000
#02013:0000003300000000
#02014:0000000000330000
#02015:0000000000000033
#0211b:13
#0211f:11
#02115:0023000000230000
#02118:0000002300000023
#02212:13
#02218:0023000000230000
#02215:0000002300000023
#0251b:1300000000000023
#02512:0023000000000000
#02515:0000002300000000
#02518:0000000000230000
#02612:1300000000000023
#0261b:0023000000000000
#02618:0000002300000000
#02615:0000000000230000
#0231b:13
#02315:0023000000230000
#02318:0000002300000023
#02412:1300000000000023
#0241b:0013
#02415:0000002300001300
#02418:0023000000230000
#0271b:1300000000000023
#02712:0023000000000000
#02715:0000002300000000
#02718:0000000000230000
#02816:14140000
#02818:00001313
#02815:0000000000130013
#0291b:2313
#02918:0000002300001300
#02915:0000130000230000
#02912:0023000000000023
#0291f:21
#03015:1300000013000023
#0301b:00130000
#03018:0023002300001300
#03012:0000000000230000
#03010:41
#0311b:13
#03118:0023000013001300
#03115:0000130000230023
#03112:0000002300000000
#0321b:13001323
#03215:0000130000230000
#03212:13002313
#03218:0023002300000023
#03312:2313
#03315:0000002300001300
#03318:0000130000230000
#0331b:0023000000000023
#03418:1300000013000023
#03412:00130000
#03415:0023002300001300
#0341b:0000000000230000
#03512:13
#03515:0023000013001300
#03518:0000130000230023
#0351b:0000002300000000
#03612:13001323
#03618:0000130000230000
#0361b:13002313
#03615:0023002300000023
#04212:2600140000240000
#04218:00000000000024001400000000000014
#0421a:0024000000001400
#04214:00000000000000140000000000002400
#04116:00140014
#04112:2600002400240000
#0411a:0024000000000024
#04118:0026
#04110:41
#04314:14
#04316:00141414
#0431a:00002400000000000000240000000014
#04312:0000002400000024
#04412:14001414
#0441a:00141400
#04416:0024002400240024
#04812:1413
#04815:0000001300130000
#04818:00130013
#0481b:0000000000000013
#05218:1400140000140000
#05214:0014001400000014
#0521a:0014
#05216:00000014
#0461b:0023000000000000
#0461a:0000002300000000
#04619:0000000000230000
#04618:0000000000000023
#04515:0000000000000023
#04514:0000000000230000
#04513:0000002300000000
#04512:0023000000000000
#04712:0023000000000000
#04713:0000002300000000
#04714:0000000000230000
#04715:0000000000000023
#04710:41
#05312:24
#05612:24
#0561a:24
#0541a:24
#05512:24
#0491b:0000002300000023
#04918:0023000000230000
#05012:0000002300000023
#05015:0023000000230000
#0511b:0000002300000023
#05118:0023000000230000
#01518:0033000000000000
#01519:0000003300000000
#0151a:0000000000330000
#0151b:0000000000000033
#01615:0033000000000000
#01614:0000003300000000
#01613:0000000000330000
#01612:0000000000000033
#0015b:13
#03758:16
#03752:0016
#00552:13
#0295b:13
#03352:13
#04152:16
#04158:0016
#04252:16
#03858:16
#013380:1333003300330033
#014380:23
#014351:1333003300330033
#015351:23
#015380:1333000000000000
#015390:0000003300000000
#0153a0:0000000000330000
#0153b0:0000000000000033
#0163b0:23
#016351:1333000000000000
#016341:0000003300000000
#016331:0000000000330000
#016321:0000000000000033
#017321:23
#0173b0:1333003300330033
#0183b0:23
#018321:1333003300330033
#019321:23
#0193b0:1333000000000000
#0193a0:0000003300000000
#019390:0000000000330000
#019380:0000000000000033
#020380:23
#020321:1333000000000000
#020331:0000003300000000
#020341:0000000000330000
#020351:0000000000000033
#021351:23
#0453a1:14000000340000003400003400340034
#0463a1:24
#046320:14000000340000003400003400340034
#047320:24
#0473a1:14000000340000003400003400340034
#0483a1:24
#049341:14000000340000003400003400340034
#050341:24
#050380:14000000340000003400003400340034
#051380:24
#051341:14000000340000003400003400340034
#052341:24
