This file was generated by Ched 2.7.0.0.
#TITLE ""
#ARTIST ""
#DESIGNER ""
#DIFFICULTY 0
#PLAYLEVEL
#SONGID ""
#WAVE ""
#WAVEOFFSET 0
#JACKET ""
#REQUEST "ticks_per_beat 480"
#00002: 4
#BPM01: 117
#00008: 01
#TIL00: ""
#VOLUME: ""
#HISPEED 00
#MEASUREHS 00
#0401a:00140000
#04016:14
#0011a:2414
#00112:00140014
#00218:1414
#00214:00140014
#00512:2414
#0051a:00140014
#00510:41
#00614:1414
#00618:00140014
#00914:0014
#0091a:24
#0101a:14
#01014:0014
#01118:14
#01112:0014
#01110:41
#01218:14
#01212:0014
#0121a:00000014
#02918:0014
#02914:00000014
#02912:00140000
#0291a:24
#0291f:21
#0301a:14
#03012:00140000
#03018:0014
#03014:00000014
#03010:41
#03314:0014
#03318:00000014
#0331a:00140000
#03312:24
#03412:14
#0341a:00140000
#03414:0014
#03418:00000014
#03716:0014
#0371a:24000014
#03712:00140000
#03814:14
#03818:00140014
#03812:0014
#03914:14
#0391a:00140000
#03916:0014
#03912:00000014
#04412:00140014
#04416:14
#0441a:0014
#04116:0014
#04112:24000014
#0411a:00140000
#04110:41
#04218:14
#04214:00140014
#0421a:0014
#04318:14
#04312:00140000
#04316:0014
#0431a:00000014
#04812:14
#0481a:00140000
#04814:0014
#04818:00000014
#0521a:14
#05212:00140000
#05218:00001414
#05214:0000000000140014
#05318:14
#05414:14
#0551a:14
#05612:14
#0211f:11
#00413:0000000000003434
#00414:0000000000340000
#0201a:0034
#02019:00340000
#01912:0034
#01913:00340000
#01818:0034
#01819:00340000
#01714:0034
#01713:00340000
#01710:41
#04710:41
#0295a:14
#0015a:14
#00552:14
#0095a:14
#03352:14
#0375a:14
#04152:14
#0033a0:14000024
#003380:00343400
#004320:14
#004340:0000340034340000
#004330:0000000000003434
#005320:24
#007320:14000024
#007340:00343400
#0083a0:14000034
#008380:00343400
#0093a0:24
#013340:14000024
#014380:14000024
#015320:14000024
#0163a0:14000024
#017320:14
#017330:00340000
#017340:00003424
#0183a0:14
#018390:00340000
#018380:00003424
#019340:14
#019330:00340000
#019320:00003424
#020380:14
#020390:00340000
#0203a0:00003424
#021320:1434
#021340:00340000
#022340:3434
#022320:00340024
#0233a0:1434
#023380:00340000
#024380:3434
#0243a0:00340024
#025340:1434
#025320:00340000
#026320:3434
#026340:00340024
#027380:1434
#0273a0:00340000
#0283a0:3400340034343434
#0293a0:24
#0313a0:1434
#031380:00340024
#032320:14003434
#032340:00340000
#032330:0000000000340034
#033320:24
#035320:1434
#035340:00340024
#0363a0:14003434
#036380:00340000
#036390:0000000000340034
#0373a0:24
#040320:00001434
#040330:0000000000340034
#041320:24
#0453a0:14000024
#045380:00343400
#046320:14000024
#046340:00343400
#0473a0:14000024
#047380:00343400
#049340:14000024
#049320:00343400
#050380:14000024
#0503a0:00343400
#051340:14000024
#051320:00343400
