This file was generated by Ched 2.7.0.0.
#TITLE ""
#ARTIST ""
#DESIGNER ""
#DIFFICULTY 0
#PLAYLEVEL
#SONGID ""
#WAVE ""
#WAVEOFFSET 0
#JACKET ""
#REQUEST "ticks_per_beat 480"
#00002: 4
#BPM01: 165
#BPM02: 205
#00008: 01
#09908: 01
#00308: 02
#TIL00: ""
#VOLUME: ""
#HISPEED 00
#MEASUREHS 00
#00414:14
#0051a:14
#00614:14
#00718:14
#00812:14
#00918:14
#01012:14
#0121a:14
#01314:14
#01414:14
#01518:14
#01618:14
#01712:14
#01812:14
#02514:14
#02718:2616
#02812:1616
#02918:16
#02912:0016
#03112:2616
#03218:1616
#03312:16
#03318:0016
#03512:0016
#03518:26
#03510:41
#03618:16
#03612:0016
#03718:1616
#03812:16
#03818:0016
#03918:0016
#03912:26
#04012:16
#04018:0016
#04112:1616
#04218:16
#04212:0016
#0431a:1414
#04414:1414
#04518:1414
#04510:41
#04612:1414
#0471a:14
#04714:0014
#0481a:14
#04814:0014
#04918:14
#04912:0014
#05018:14
#05012:0014
#0601a:14
#06112:14
#06212:14
#06318:14
#06418:14
#06514:14
#06614:14
#06610:41
#06814:14
#06918:14
#07012:14
#0711a:1414
#07212:1414
#07318:1414
#07414:1414
#07812:16
#08118:16
#08012:16
#08212:16
#07918:16
#08412:2616
#08518:16
#08512:0016
#08712:2616
#08818:2616
#08912:16
#08918:0016
#08318:2616
#0911a:2414
#09214:1414
#09318:2414
#09412:1414
#09614:1414
#0951a:2414
#09712:0014
#09718:24
#0981a:14
#09814:0014
#0671f:11
#0671a:24
#00014:24
#0031a:24
#0111a:24
#0591a:24
#0771f:21
#07710:0041
#05510:41
#01910:41
#09918:0054
#02554:54
#000340:14540000
#000320:00000058
#001320:0000000000380000
#002340:0024
#019380:14
#019370:0036
#020360:38
#020370:0036
#021380:34
#021370:0036
#022360:28
#023340:14
#023330:0036
#024320:38
#024330:0036
#025340:34
#026320:28
#030380:1626
#034320:1626
#051380:14
#051360:0058
#052380:54
#052360:0058
#053380:54
#053360:0058
#054380:24
#055340:14
#055320:0058
#056340:54
#056320:0058
#057340:54
#057320:0058
#058340:24
#075390:1454
#075380:00560056
#076390:5454
#076380:00560056
#077380:26
#086380:1626
#090320:1626
#099380:14342400
