This file was generated by Ched 2.7.0.0.
#TITLE ""
#ARTIST ""
#DESIGNER ""
#DIFFICULTY 0
#PLAYLEVEL
#SONGID ""
#WAVE ""
#WAVEOFFSET 0
#JACKET ""
#REQUEST "ticks_per_beat 480"
#00002: 4
#BPM01: 165
#BPM02: 205
#00008: 01
#09908: 01
#00308: 02
#TIL00: ""
#VOLUME: ""
#HISPEED 00
#MEASUREHS 00
#0991b:0013
#09912:0013
#09913:00130000
#09918:1212000000000000
#09916:00120000000000000000000000000000
#0991a:00130000
#08312:00131300
#08316:00000013
#08318:26
#08319:00252525
#08415:0000000013130000
#08419:25252525
#08414:0000000000000024
#08418:00000000000000000000000000000024
#01516:0000130013130013
#0151b:0000001300000000
#01519:00000000000000000013000013000000
#01517:13
#01512:23
#01718:0000001300000013
#01715:0013000000001300
#0171a:24242400
#01712:24242400
#01912:2313
#01914:00130013
#01916:1514
#0191a:00140014
#01910:41
#02012:13
#02013:00130000
#02014:0013
#02015:00000013
#02612:2c000014
#02616:0000000000002414
#0261a:0000000024000014
#02818:0000000000130000
#0281b:0000000013000013
#02815:00000013
#02812:0000000000000013
#03518:0000000013130000
#03515:00130013
#0351b:00130000
#03510:41
#03513:000000000000000000000000000000000000000000000000005300000000000000000000000000000000000000000000000000000000000000000000000000000000000000000000005300000000000000000000000000000000000000000000
#0351a:64
#03618:0000001300130000
#03615:00130013
#0361b:23
#03613:000000000000000000000000000000000000000000000000005300000000000000000000000000000000000000000000000000000000000000000000000000000000000000000000005300000000000000000000000000000000000000000000
#03712:0000000023130000
#03715:0000130000000013
#03718:0000001300001300
#0371b:2313000000000000
#03713:000000000000000000000000000000000000000000000000005300000000000000000000000000000000000000000000000000000000000000000000000000000000000000000000000000000000000000000000000000000000000000000000
#0371a:000000000000000000000000000000000000000000000000000000000000000000000000000000000000000000000000000000000000000000000000000000000000000000000000005300000000000000000000000000000000000000000000
#03818:0000001300130000
#03815:00130013
#0381b:23
#03813:000000000000000000000000000000000000000000000000005300000000000000000000000000000000000000000000000000000000000000000000000000000000000000000000005300000000000000000000000000000000000000000000
#04316:1353000053001400
#04318:0000000000140000
#04314:00000053000000530000000000001400
#04312:0000535300000000
#05915:0000000000130000
#0591b:00130000
#05918:26000000000000120000000013000000
#05912:26232300
#06118:2300000000130000
#06112:13130000
#06116:00000000000000120000000000000000
#0611b:00232300
#08712:0000150015151515
#08718:26
#08719:0000250025252525
#08812:15000000150000000026002600260026
#08819:25250000
#08818:0000000026262626
#09014:0000000000000000140000000000000000000000143434340000000000000000
#09018:2600000000000000240000000000000024000000143434340000000000000000
#09012:14
#09112:14000014
#09114:0000140000140014
#09116:00001424
#0911a:24242400
#09118:0000000000240024
#09216:14242400
#09212:00000000140000000025002600270028
#0921a:24
#09217:0000000000240000
#09218:00000024
#09219:0000000000000024
#09312:00141400
#09314:0000000000000000000000000000000000000000000000001434343434343434
#09313:0000000000140000
#0931a:24242400
#09319:0000000000240000
#09318:0000000000000000000000000000000000000000000000002434343434343434
#09412:00000000140000001400000000000026
#0941a:00242400
#09418:0000000000232425
#09414:00000000000000000000002400000000
#09413:00000000000000000000000000250000
#09818:0000001600000000
#09819:00150000
#0981a:0014000000000000
#09812:0024252600000000
#00017:227200000000000000000000000000000000000000000000000000000000000000000000000000000000000000000000000000000000000000000000000000000000000000000000000000000000000000000000000000000000000000000000000000000000000000000000000000000000000000000000000000000000000000000000000000000000000000000000000000000000000000000000000000000000000000000000000000000000000000000000000000000000000000000000000000000000000000000000000000000000000000000000000000000000000000000000000000000000000000000000000000000000000000000000000000000000000000000000000000000000000000000000000000000000000000000000000000000000000000000000000000000000000000000000000000000000000000000000000000000000000000000000000000000000000000000000000000000000000000000000000000000000000000000000000000000000000000000000000000000000000000000000000000000000000000000000000000000000000000000000000000000000000000000000000000000000000000000000000000000000000000000000000000000000000000000000000000000000000000000000120000000000000000000000000000000000000000000000000000000000000000000000000000000000000000000000000000000000000000000000000000000000000000000000000000000000000000000000000000000000000000000000000000000000000000000000000000000000000000000000000000000000000000000000000000000000000000000000000000000000000000000000000000000000000000000000000000000000000000000000000000000000000000000000000000000000000000000000000000000000000000000000000000000000000000000000000000000000000000000000000000000000000000000000000000000000000000000000000000000000000000000000000000000000000000000000000000000000000000000000000000000000000000000000000000000000000000000000000000000000000000000000000000000000000000000000000000000000000000000000000000000000000000000000000000000000000000000000000000000000000000000000000000000000000000000000000000000000000000000000000000000000000000000000000000000000000000000000000000000000000000000000000000000000000000000000000000000000000000000000000000000000000000000000000000000000000000000000000000000000000000000000000000000000000000000000000000000000000000000000000000000000000000000000000000000000000000000000000000000000000000000000000000000000000000000000000000000000000000000000000000000000000000000000000000000000000000000000000000000000000000000000000000000000000000000000000000000000000000000000000000000000000000000000000000000000000000000000000000000000000000000000000000000000000000000000000000000000000000000000000000000000000000000000000000000000000000000000000000000000000000000000000000000000000000000000000000000000000000000000000000000000000000000000000000000000000000000000000000000000000000000000000000000000000000000000000000000000000000000000000000000000000000000000000000000000000000000000000000000000000000000000000000000000000000000000000000000000000000000000000000000000000000000000000000000000000000000000000000000000000000000000000000000000000000000000000000000000000000000000000000000000000000000000000000000000000000000000000000000000000000000000000000000000000000000000000000000000000000000000000000000000000000000000000000000000000000000000000000000000000000000000000000000000000000000000000000000000000000000000000000000000000000000000000000000000000000000000000000000000000000000000000000000000000000000000000000000000000000000000000000000000000000000000000000000000000000000000000000000000000000000000000000000000000000000000000000000000000000000000000000000000000000000000000000000000000000000000000000000000000000000000000000000000000000000000000000000000000000000000000000000000000000000000000000000000000000000000000000000000000000000000000000000000000000000000000000000000000000000000000000000000000000000000000000000000000000000000000000000000000000000000000000000000000000000000000000000000000000000000000000000000000000000000000000000000000000000000000000000000000000000000000000000000000000000000000000000000000000000000
#00114:00000018
#00215:16
#00217:0052
#00918:00000013
#00912:0000000000000013
#00916:0013
#0091b:0000000000000023
#01012:00131300
#01015:0013000000000000
#01018:0023000000000000
#0101b:00232300
#01616:13
#01617:0000130013130013
#01612:0000001300000000
#01614:00000000000000000013000013000000
#0161b:23
#01815:13
#01817:0000002323232323
#00316:00140000
#00317:00000014
#00312:2525000000000000
#00313:0000000025250000
#00418:00140000
#00416:00000014
#00414:2525000000000000
#00412:0000000025250000
#00516:00140000
#00515:00000014
#00519:2525000000000000
#00518:0000000025250000
#00614:0000140000000063
#00617:2525000000000000
#00619:0000000025250000
#00615:00000000000000000000000000630000
#00616:00000063
#00613:00000000000000000000000000000063
#00714:00140000
#00716:00000014
#00717:2525000000000000
#00719:0000000025250000
#00712:63
#00818:0000000000000000140000000000000000000000000000000015001500150015
#00819:00000000000000000000000023131313
#00814:2525000000000000
#00812:0000000025250000
#01117:0000001300000000
#01119:0000000000130000
#0111b:1300000000000013
#01112:23232323
#01217:00000013000000000000000013000000
#01212:23232323
#01316:0000001300001300
#01312:13
#0131b:23232323
#01416:13000013
#0141b:23232323
#0211b:1313
#02119:00130013
#02115:15
#02116:0014
#02112:00140014
#0221b:13
#0221a:00130000
#02219:0013
#02218:00000013
#02417:00001424
#02415:14240000
#0241a:2424002400000000
#02412:0000000024240024
#02315:13230000
#02318:00001323
#0231b:2323002300000000
#02312:0000000023230023
#0271a:00000014
#02716:0000000000002414
#02712:0000000024000014
#02918:00130013
#0291b:0013000000000013
#02915:0000001300130013
#02912:0013000013000000
#0301a:00000014
#03016:0000000000002414
#03012:0000000000000014
#03112:00000014
#03116:0000000000002414
#0311a:0000000024000014
#03215:0000000000130000
#03212:0000000013000013
#03218:00000013
#0321b:0000000000000013
#03315:00130013
#03312:0013000000000013
#03318:0000001300130013
#0331b:0013000013000000
#03915:0000000013130000
#03912:24130000
#03918:00130013
#0391a:240000000000000000000000000000000000000000000000005300000000000000000000000000000000000000000000000000000000000000000000000000000000000000000000005300000000000000000000000000000000000000000000
#04015:0000001300130000
#04018:00130013
#04012:23
#0401a:000000000000000000000000000000000000000000000000005300000000000000000000000000000000000000000000000000000000000000000000000000000000000000000000005300000000000000000000000000000000000000000000
#0411b:0000000023130000
#04118:0000130000000013
#04115:0000001300001300
#04112:2313000000000000
#0411a:000000000000000000000000000000000000000000000000005300000000000000000000000000000000000000000000000000000000000000000000000000000000000000000000000000000000000000000000000000000000000000000000
#04113:000000000000000000000000000000000000000000000000000000000000000000000000000000000000000000000000000000000000000000000000000000000000000000000000005300000000000000000000000000000000000000000000
#04412:1414
#0441a:24140014
#04417:0013000000130000
#04414:00000013000000000000001300000000
#04416:0000001300000000
#04419:00000000000000130000000000000000
#04715:0014000000140000
#04719:00000014000000000000001400000000
#04717:0000001400000014
#04713:00000000000000140000000000000014
#0471a:2424
#04712:00240024
#04816:0014001400140014
#04818:00000014000000000000001400000000
#04814:00000000000000140000000000000014
#04812:00240024
#0481a:2424
#05012:0000241400000000
#0501a:0000001400000000
#05016:24
#05014:0024000000000000
#0511b:0013
#05118:0000000000001313
#05112:00000013
#05115:14
#05315:0000130000001313
#05312:0013
#0531b:00130000
#05218:0013
#05512:0013
#05515:0000000000001313
#0551b:00000013
#05517:14
#05510:41
#05618:0000000000000013
#05612:00000000000000000000001300000000
#05615:0000000013000013
#05718:0000000000001313
#05712:0000001300000000
#05815:0013
#0581b:00000013000000000000000000000000
#05818:0013
#04218:0000000000130000
#04215:0000230000130000
#04212:23
#06017:0013001300000000
#0601b:00535313
#06015:00000013
#06012:2323
#06014:00230000
#06019:00000053000000530000000000000000
#06215:0013001300000000
#0621b:23
#06219:0000230000000063
#06217:00002363
#06218:00000000000000000000000000630000
#0621a:00000000000000000000000000000063
#06318:0000000000130000
#06312:23130000
#06316:00000000000000120000000000000000
#06315:00000013
#0631b:63232300
#06416:0013001300000000
#06412:00535313
#06418:00000013
#0641b:2323
#06419:00230000
#06414:00000053000000530000000000000000
#06515:2300000000130000
#0651b:13130000
#06518:00000000000000120000000000000000
#06512:00232300
#06618:0013000000000000
#0661b:00130000
#06612:23000023
#06614:00230000
#06616:0023
#06610:41
#0671b:2313
#06718:00130013
#06715:15
#06716:0014
#06712:00140000
#0671f:11
#0681b:1313
#06818:00130013
#06816:1414
#06812:00140013
#06912:2313
#06915:00130013
#06916:1514
#0691a:00140000
#07012:1313
#07015:0000000000000000130000000000000000000000000000000000000000630000
#07016:14000000000000001400000023636300
#0701a:00140000
#0701b:00000013
#07014:00000000000000000000000000000063
#07013:0000000000000000000000000000000000000000000000000000000000000063
#0721a:0000000014140000
#07212:1414000000000000
#07217:2424002400000000
#07215:0000240024240000
#07218:00000024
#07214:0000000000000024
#0711b:0000000013130000
#07112:6313000000000000
#07118:2323002300002300
#07115:0000230023230023
#07312:00140014000000000014001400000000
#07314:00000000001400140000000000140014
#0731a:2414000024140000
#07318:0000241400002414
#07415:0000000000130000
#07418:00000000000000000034133400000000
#0741a:0014
#07412:0024
#07417:22220000
#07414:00000000000000000034003400000000
#07519:1212121200000000
#07515:0000000012121212
#07618:12001200120012000000000024545454
#07616:0000000012120000
#07617:0000000000000000000000000000000000000000000000000066006600660066
#07714:0000140000000013
#07712:0013000000000000
#07717:0000001400000000
#0771a:0013
#07715:0000000000140000
#07718:54000014
#0771b:0000000000000013
#07713:0013
#0771f:21
#07710:0041
#07816:0000000000001414
#07812:0000000000000014
#07817:00000013000000000000000000000000
#0781a:00000024
#08018:0000000000130000
#0801b:0000000013000013
#08015:0000001300001300
#08012:0013
#08118:00140000
#0811b:0013000000000000
#08115:0000001400000000
#08113:0013
#08117:0000000000140000
#08119:0000000000000013
#0811a:0013
#08112:0000000000000013
#08114:00000014
#07916:0000140000001414
#0791a:0000000000000014
#0791b:00130000
#07912:00002424
#08218:0000141400002626
#08212:00000000000000002600000000260026
#08517:0013001300130000
#08519:00000013
#0851b:0000000000000013
#08512:25252525
#08617:0013
#08612:25000000250000002500000000260026
#08618:0000000000002626
#0891a:00140014
#08915:0000000000150000
#08912:00261426
#08916:0000000000000015
#08918:2626
#09518:26140000
#09516:0000000014142414
#0951a:00000014
#09512:0000240024240024
#09616:14000000240000002400000000000028
#0961a:00140000
#09612:24
#09615:0000000000240000
#09614:00000024
#09613:0000000000000024
#09619:00000000000000000025000000000000
#09618:00000000000000000000002600000000
#09617:00000000000000000000000000270000
#09718:00000000006400640000140000000000
#09712:2400000000000000640000000000000024000000000000002434343400343434
#09714:00640064000000000000240000000000
#0971a:0000000000000000240000000000000064000000000000000034343400343434
#09716:0064006400000000
#02512:00140014000000000014001400000000
#02514:00000000001400140000000000140014
#0251a:2414000024140000
#02518:0000241400002414
#04517:1353000053000000
#04518:0000000000000014
#04516:00000014
#04514:0000000000140000
#04510:41
#04519:00000053000000530000000000000000
#0451b:0000535300000000
#0461a:1414
#04612:24140014
#04616:0013000000130000
#04619:00000013000000000000001300000000
#04617:0000001300000000
#04614:00000000000000130000000000000000
#05412:0013
#0541a:0014
#03416:00000024
#03415:0024
#0341a:0024
#03417:00000000000000000000000000640000
#03418:0000000000000064
#03419:00000000000000000000000000000064
#04916:0024
#04918:0000000000240000
#0491a:2400000000002424
#04912:00240000
#01758:0000000000000063
#02059:00000015
#01956:5554
#01952:13
#0195a:00540054
#0355a:14
#03552:14
#07452:00005435
#07455:0000000000230000
#07458:0000000000230000
#0745a:0064
#07459:00000045
#09052:00000036
#09058:1600000000244600
#09054:0000000000240000
#0945a:14
#09452:14
#09358:00000054
#09354:00000054
#0935a:14
#09852:0000006600000000
#09858:0000006600001200
#09856:00000012
#09952:0013
#0995b:0013
#00057:00520000
#00154:00000058
#00255:56
#01055:00000013
#01058:00000013
#01052:0053
#0105b:0053
#01557:63
#01656:53
#01855:53
#0115b:6300000000000063
#01257:00000023000000000000000000000000
#01352:53
#01456:53
#02155:65
#02156:0064
#02152:00640064
#02252:00000015
#02652:1c000054
#02656:0000000000005424
#0265a:0000000000000024
#02756:3400000000006424
#02752:3400000000000024
#0275a:00000064
#0285a:44
#02856:44
#0305a:00000064
#03056:0000000000006424
#03052:0000000000000024
#03152:00000054
#03156:4400000000005424
#0315a:4400000000000024
#03252:34
#03256:34
#03352:0000000000000013
#03358:0000000000000013
#0295b:0000000000000013
#02955:0000000000000063
#04252:00000016
#04258:0000000000231600
#04255:0000000000230000
#05056:00000012
#05058:00000012
#05052:0000005400000000
#0505a:0000006400000000
#05952:16
#05958:16000053
#0535b:00230000
#05355:0000000000000063
#05152:00000023
#05155:54
#05258:0053
#0555b:00000023
#05557:64
#05652:00000000000000000000002300000000
#05655:0000000063000063
#05855:0053
#0585b:00000023000000000000000000000000
#05858:0053
#03952:14
#0395a:14
#05752:0000002300000000
#05758:0000000000000053
#06252:00000013
#0665b:00000013
#06652:00000013
#06755:65
#06756:0064
#06752:00640000
#06956:5554
#0695a:00540000
#00858:0000000000000000000000000000000000000000000000000025002500250025
#00859:00000000000000000000000053535353
#00956:0053
#07754:0000000000000013
#0775b:0000000000000053
#07758:14
#07856:0000000000006424
#07852:0000000000000024
#0785a:00000064
#07857:00000023000000000000000000000000
#07956:4400000000005424
#0795a:4400000000000024
#07952:00000054
#08159:0000000000000013
#08152:0000000000000013
#08056:34
#08052:34
#08358:16
#08352:0053
#08356:00000053
#08452:13
#08758:16
#08852:15
#08859:15
#08958:1616
#08952:00160016
#09558:16
#0445a:00000014
#04652:00000014
#05452:0023
#06856:1414
#06852:00140000
#07056:1414
#0705a:00140000
#0855b:0000000000000013
#06355:00000063
#000370:001200000000000000000000000000000000000000000000000000000000000000000000000000000000000000000000000000000000000000000000000000000000000000000000000000000000000000000000000000000000000000000000000000000000000000000000000000000000000000000000000000000000000000000000000000000000000000000000000000000000000000000000000000000000000000000000000000000000000000000000000000000000000000000000000000000000000000000000000000000000000000000000000000000000000000000000000000000000000000000000000000000000000000000000000000000000000000000000000000000000000000000000000000000000000000000000000000000000000000000000000000000000000000000000000000000000000000000000000000000000000000000000000000000000000000000000000000000000000000000000000000000000000000000000000000000000000000000000000000000000000000000000000000000000000000000000000000000000000000000000000000000000000000000000000000000000000000000000000000000000000000000000000000000000000000000000000000000000000000000000320000000000000000000000000000000000000000000000000000000000000000000000000000000000000000000000000000000000000000000000000000000000000000000000000000000000000000000000000000000000000000000000000000000000000000000000000000000000000000000000000000000000000000000000000000000000000000000000000000000000000000000000000000000000000000000000000000000000000000000000000000000000000000000000000000000000000000000000000000000000000000000000000000000000000000000000000000000000000000000000000000000000000000000000000000000000000000000000000000000000000000000000000000000000000000000000000000000000000000000000000000000000000000000000000000000000000000000000000000000000000000000000000000000000000000000000000000000000000000000000000000000000000000000000000000000000000000000000000000000000000000000000000000000000000000000000000000000000000000000000000000000000000000000000000000000000000000000000000000000000000000000000000000000000000000000000000000000000000000000000000000000000000000000000000000000000000000000000000000000000000000000000000000000000000000000000000000000000000000000000000000000000000000000000000000000000000000000000000000000000000000000000000000000000000000000000000000000000000000000000000000000000000000000000000000000000000000000000000000000000000000000000000000000000000000000000000000000000000000000000000000000000000000000000000000000000000000000000000000000000000000000000000000000000000000000000000000000000000000000000000000000000000000000000000000000000000000000000000000000000000000000000000000000000000000000000000000000000000000000000000000000000000000000000000000000000000000000000000000000000000000000000000000000000000000000000000000000000000000000000000000000000000000000000000000000000000000000000000000000000000000000000000000000000000000000000000000000000000000000000000000000000000000000000000000000000000000000000000000000000000000000000000000000000000000000000000000000000000000000000000000000000000000000000000000000000000000000000000000000000000000000000000000000000000000000000000000000000000000000000000000000000000000000000000000000000000000000000000000000000000000000000000000000000000000000000000000000000000000000000000000000000000000000000000000000000000000000000000000000000000000000000000000000000000000000000000000000000000000000000000000000000000000000000000000000000000000000000000000000000000000000000000000000000000000000000000000000000000000000000000000000000000000000000000000000000000000000000000000000000000000000000000000000000000000000000000000000000000000000000000000000000000000000000000000000000000000000000000000000000000000000000000000000000000000000000000000000000000000000000000000000000000000000000000000000000000000000000000000000000000000000000000000000000000000000000000000000000000000000000000000000000000000000000000000000000000000000000000000000000000000000000000000000000000000000000000000000000000000000000
#000340:0000000000580000
#001340:00000000000000000000003858000000
#001320:000000000000000000000000000000000000000000000000000000000000000000000000000000000000000000000000000000000000000000000000000000000000005c005c005c000000000000000000000000000000000000000000000000
#001350:000000000000000000000000000000000000000000000000000000000000000000005656000000000000000000000000
#002350:56
#002370:0022
#008390:00000000000000000000000013535353
#008380:0000000000000000000000000000000000000000000000000055005500550055
#009390:23
#009321:13
#009351:00530000230000000000000000000000
#009380:00130000
#0093b0:00000000005300002300000000000000
#009361:0013
#009321:00000023
#010321:0013
#010351:00000023
#0103b0:0013
#010380:00000023
#0113b0:13
#011370:00230000
#0113b0:0000000000000013
#012370:00000053000000000000000000000000
#0123b0:0023
#013320:13
#013360:00230000
#014360:13
#014320:0023
#015370:13
#0153b0:00230000
#016360:13
#016320:00230000
#017380:0000000000000013
#0183b0:00230000
#018351:13
#018321:00530000
#019321:23
#019360:1534
#0193a0:00340034
#020360:34
#020390:00000025
#021350:15
#021320:00340034
#021360:0034
#022360:34
#022320:00000025
#026320:00001434
#026360:0000000000000054
#027320:24
#026361:00000014
#0263a1:0000000000000054
#027361:24
#0273a1:00001434
#027361:0000000000000054
#0283a1:24
#027360:00000014
#027320:0000000000000054
#028360:24
#029350:0000000000000013
#030320:0023
#0303a1:00001434
#030361:0000000000000054
#0313a1:24
#030360:00000014
#030320:0000000000000054
#031360:24
#031320:00001434
#031360:0000000000000054
#032320:24
#031361:00000014
#0313a1:0000000000000054
#032361:24
#034351:0014
#034321:0000000000540000
#035321:24
#042321:1323000000000000
#0423b0:0013230000000000
#042351:0000130000530000
#042321:00000026
#042380:0000001300532600
#0433a0:1424
#045320:1424
#0493a0:14240000
#049380:00340034000000000000000000000000
#049360:0034000000000000
#049321:0000140034000024
#049341:00000000003400340000000000000000
#049361:0000003400000000
#0493a0:0000000000000014
#0503a0:0000003400000000
#050380:00000022
#050321:0000001400000000
#050361:00000022
#051351:14
#051321:00000053
#052351:0023
#052380:0013
#0533b0:00530000
#053380:0000000000000023
#053351:0000000000000013
#054321:0053
#055341:23
#055370:14
#0553b0:00000053
#056380:0023
#056351:0000000013000033
#056321:00000000000000000000005300000000
#057321:0000005300000000
#057351:0000000000000023
#057380:0000000000000013
#0583b0:00000053000000000000000000000000
#058380:0033
#059380:26
#058351:0013
#059321:26
#059381:00000013
#060371:23
#061351:00000013
#062351:23
#062321:00001323
#063351:00000013
#064361:23
#065381:00000013
#066381:23
#0663b1:00001323
#067351:15
#067321:00340024
#067361:0034
#069361:1534
#0693a1:00340024
#074321:00001425
#074341:00000000000000000034003400000000
#074351:0000000000330000
#0743a0:0014
#074380:00000000000000000034333400000000
#074390:00000025
#0773b0:0000000000000013
#078370:00000053000000000000000000000000
#0783b0:0023
#078361:00001434
#078321:0000000000000054
#079361:24
#0783a0:00000014
#078360:0000000000000054
#0793a0:24
#079360:00001434
#0793a0:0000000000000054
#080360:24
#079321:00000014
#079361:0000000000000054
#080321:24
#080321:0000000000000013
#081321:0023000000000000
#083321:0013
#083361:00000033
#084321:23
#090341:0000000000000000000000000000000014000000343434340000000000000000
#090321:00000026
#090380:0000000000000000000000000000000014000000343434342600000000000000
#093380:0000000000000000000000000000000000000000000000001434343434343434
#0943a0:24
#093341:0000000000000000000000000000000000000000000000001434343434343434
#094321:24
#0973a1:0000000000000000000000000000000000000000000000001434343400343434
#097381:0000000000000034
#0983a1:24
#097320:0000000000000000000000000000000000000000000000001434343400343434
#097340:0000000000000034
#098320:24
#098320:0000001600000000
#098360:00000022
#098381:0000001600002200
#002970:00001222
#006960:00000013
#007920:23
#034960:00000014
#0359a0:24
#035950:00130000
#035930:000000000000000000000000000000000000000000000000002300000000000000000000000000000000000000000000000000000000000000000000000000000000000000000000000000000000000000000000000000000000000000000000
#035950:00000013
#035930:000000000000000000000000000000000000000000000000000000000000000000000000000000000000000000000000000000000000000000000000000000000000000000000000002300000000000000000000000000000000000000000000
#036950:00130000
#036930:000000000000000000000000000000000000000000000000002300000000000000000000000000000000000000000000000000000000000000000000000000000000000000000000000000000000000000000000000000000000000000000000
#036950:00000013
#036930:000000000000000000000000000000000000000000000000000000000000000000000000000000000000000000000000000000000000000000000000000000000000000000000000002300000000000000000000000000000000000000000000
#037950:00130000
#037930:000000000000000000000000000000000000000000000000002300000000000000000000000000000000000000000000000000000000000000000000000000000000000000000000000000000000000000000000000000000000000000000000
#037980:00000013
#0379a0:000000000000000000000000000000000000000000000000000000000000000000000000000000000000000000000000000000000000000000000000000000000000000000000000002300000000000000000000000000000000000000000000
#038950:00130000
#038930:000000000000000000000000000000000000000000000000002300000000000000000000000000000000000000000000000000000000000000000000000000000000000000000000000000000000000000000000000000000000000000000000
#038950:00000013
#038930:000000000000000000000000000000000000000000000000000000000000000000000000000000000000000000000000000000000000000000000000000000000000000000000000002300000000000000000000000000000000000000000000
#039980:00130000
#0399a0:000000000000000000000000000000000000000000000000002300000000000000000000000000000000000000000000000000000000000000000000000000000000000000000000000000000000000000000000000000000000000000000000
#039980:00000013
#0399a0:000000000000000000000000000000000000000000000000000000000000000000000000000000000000000000000000000000000000000000000000000000000000000000000000002300000000000000000000000000000000000000000000
#040980:00130000
#0409a0:000000000000000000000000000000000000000000000000002300000000000000000000000000000000000000000000000000000000000000000000000000000000000000000000000000000000000000000000000000000000000000000000
#040980:00000013
#0409a0:000000000000000000000000000000000000000000000000000000000000000000000000000000000000000000000000000000000000000000000000000000000000000000000000002300000000000000000000000000000000000000000000
#041980:00130000
#0419a0:000000000000000000000000000000000000000000000000002300000000000000000000000000000000000000000000000000000000000000000000000000000000000000000000000000000000000000000000000000000000000000000000
#041950:00000013
#041930:000000000000000000000000000000000000000000000000000000000000000000000000000000000000000000000000000000000000000000000000000000000000000000000000002300000000000000000000000000000000000000000000
#043960:1353000023000000
#043920:0000535300000000
#045970:1353000023000000
#0459b0:0000535300000000
#060970:0013000000000000
#0609b0:00230000
#060970:0000001300000000
#0609b0:0023
#062970:00000013
#0639b0:23
#064960:0013000000000000
#064920:00230000
#064960:0000001300000000
#064920:0023
#070960:0000000000001353
#071920:23
#076980:00000014
#077980:24
#097920:14240000
#097960:0054000000000000
#0979a1:00142400
#097961:0000005400000000
