This file was generated by Ched 2.7.0.0.
#TITLE ""
#ARTIST ""
#DESIGNER ""
#DIFFICULTY 0
#PLAYLEVEL
#SONGID ""
#WAVE ""
#WAVEOFFSET 0
#JACKET ""
#REQUEST "ticks_per_beat 480"
#00002: 4
#BPM01: 165
#BPM02: 205
#00008: 01
#09908: 01
#00308: 02
#TIL00: ""
#VOLUME: ""
#HISPEED 00
#MEASUREHS 00
#00016:24140000
#00312:0014
#00418:1414
#0051a:0014
#00512:24
#00614:1414
#00712:0014
#0071a:24
#00818:1414
#0091a:0014
#00912:24
#01119:14
#01114:00140000
#01118:0014
#01113:00000014
#01217:14
#01218:00540000
#01219:0054
#0121a:00000054
#01313:14
#01318:00140000
#01314:0014
#01319:00000014
#01415:14
#01414:00540000
#01413:0054
#01412:00000054
#0151a:14
#01514:00140000
#01518:0014
#01512:00000014
#01618:14
#01614:00140000
#0161a:0014
#01612:00000024
#01912:00140000
#01918:0014
#01913:00000014
#01910:41
#02019:14
#02014:00140000
#0201a:0014
#02015:00000014
#0211a:14
#02115:00140000
#02119:0014
#02114:00000014
#02218:14
#02217:0014
#02213:00140000
#02212:00000014
#02812:0014
#0281a:00000014
#02914:1400000000340000
#02918:00140000
#02912:0014
#02915:00000034
#0321a:0014
#03212:00000014
#03318:1400000000340000
#03314:00140000
#0331a:0014
#03317:00000034
#03713:14
#03718:00140000
#03714:0014
#03712:0000000000343400
#03612:0014
#0361a:00000014
#03619:25
#04119:14
#04114:00140000
#04118:0014
#0411a:0000000000343400
#0401a:0014
#04012:25000014
#04214:0014
#05012:14
#05014:0034340000000000
#05912:0014
#0591a:24
#06018:1414
#06014:00140000
#0611a:0014
#06112:24
#06214:1414
#06218:00140000
#06312:0014
#0631a:24
#06418:1414
#06414:00140000
#0651a:0014
#06512:24
#0671a:1414
#06714:00140014
#0671f:11
#0681a:14
#06819:00540000
#06818:0054
#06817:00000054
#06912:1414
#06918:00140014
#07012:14
#07013:00540000
#07014:0054
#07015:00000054
#07413:1a
#07512:14
#0761a:14
#07712:14
#07716:0014
#0771f:21
#07710:0041
#0781a:14
#07812:0025
#07817:00000025
#0811a:14
#08114:0014
#08118:00000014
#08012:0014
#08019:25
#0821a:0014
#08212:00000014
#08214:14
#09015:0000000000160000
#09018:26
#09016:00360000
#09017:0036000000000000
#09212:14000014
#09216:00140000
#0921a:0014
#0941a:14000014
#09416:00140000
#09412:0014
#09612:14000014
#09616:00140000
#0961a:0014
#0981a:14
#09818:00340000
#09819:0034000000000000
#09912:14
#0991a:00140000
#09914:0014
#01014:2424
#01718:24
#01714:00240024
#0171a:0024
#01818:24
#01812:00240000
#0231a:24
#02412:25
#02518:26
#02515:0036363636363636
#02612:0025
#02719:0025
#03412:0025
#03417:00000025
#03512:25
#03519:0025
#03514:00000025
#03510:41
#03019:0025
#03112:0025
#03819:0025
#03814:00000025
#03919:25
#03912:0025
#03917:00000025
#04312:00240000
#04318:24
#0431a:0024
#04314:00000024
#0451a:00240000
#04514:24
#04512:0024
#04518:00000024
#04510:41
#04714:00240000
#0471a:24
#04718:0024
#04712:00000024
#04918:00240000
#04912:24
#04914:0024
#0491a:00000024
#06614:2424
#06618:00240000
#06610:41
#0711a:24
#07212:25
#0731a:24
#07317:0034343434343434
#07912:25
#07919:0025
#07914:00000025
#08318:26262626
#08418:26262626
#08512:26262626
#08612:26262626
#08718:26262626
#08812:26262626
#08918:26260000
#08912:00002626
#09112:26260000
#09118:00002626
#09318:26260000
#09312:00002626
#09512:26260000
#09518:00002626
#09718:26260000
#09712:00002626
#05510:41
#00056:00540000
#00356:14
#00552:14
#0075a:14
#00952:14
#01959:15
#02558:56
#02655:16
#02952:0054
#0335a:0064
#03552:15
#03659:15
#02859:15
#02752:15
#03159:15
#03252:15
#03754:0064
#03752:0000000000000014
#04158:0054
#0415a:0000000000000014
#03959:15
#04052:15
#05052:54
#05054:0000001400000000
#0595a:14
#0735a:54
#07455:00000016
#07453:5a
#07952:15
#08059:15
#09054:00000018
#09058:56
#09055:0000000000260000
#0985a:54
#09954:0014
#000360:14540000
#000330:0000005a
#001330:00000000003a0000
#003360:24
#018390:0000000015353535
#019390:25
#0233a0:14
#023390:00340000
#023380:0034
#023370:00000024
#024320:15
#024330:00350000
#024340:0035
#024350:00000025
#025380:16
#025350:0036363636363636
#026350:26
#026320:0015
#026350:00000035
#027320:25
#027390:0015
#027360:00000035
#028390:25
#029320:0014
#029340:0000000000340000
#029350:0000000000003434
#030350:00240000
#030390:0015
#030360:00000035
#031390:25
#031320:0015
#031350:00000035
#032320:25
#0333a0:0014
#033380:0000000000340000
#033370:0000000000003434
#034370:00240000
#037340:0014
#037320:0000000000343424
#041380:0014
#0413a0:0000000000343424
#044380:1434
#0443a0:00340024
#046340:1434
#046320:00340024
#0483a0:1434
#048380:00340024
#050320:14
#050340:0034342400000000
#051390:15
#051360:0035
#052360:55
#052390:0035
#053390:55
#053360:0035
#054360:55
#054390:0025
#055320:15
#055350:0035
#056350:55
#056320:0035
#057320:55
#057350:0035
#058350:55
#058320:0025
#0713a0:14
#071390:00340000
#071380:0034
#071370:00000024
#072320:15
#072330:00350000
#072340:0035
#072350:00000025
#0733a0:14
#073370:0034343434343434
#074330:3a
#074350:00000026
#090380:16
#090370:0036000000000000
#090360:00360000
#090350:0000003600560000
#090340:00000028
#0983a0:14
#098390:0034000000000000
#098380:00340000
#098370:0000003400002400
#012970:14
#0129a0:00000024
#014950:14
#014920:00000024
#0689a0:14
#068970:00000024
#070920:14
#070950:00000024
