This file was generated by Ched 2.7.0.0.
#TITLE ""
#ARTIST ""
#DESIGNER ""
#DIFFICULTY 0
#PLAYLEVEL
#SONGID ""
#WAVE ""
#WAVEOFFSET 0
#JACKET ""
#REQUEST "ticks_per_beat 480"
#00002: 4
#BPM01: 100
#BPM02: 135
#00008: 01
#00608: 0000000000020000
#TIL00: ""
#VOLUME: ""
#HISPEED 00
#MEASUREHS 00
#0391f:0000000000110000
#03916:240000000000000000000000003400000000000000130000
#03915:0000000034260000
#03917:000000000000003400000000
#03914:000000000000000000000034000000000000000000000000
#03913:000000000034000000000000
#03918:000000000000003232000000000000000000000000000000
#03919:00320000
#0391a:000000000032000000000000000000000000000000000000
#0391b:003200000000
#02212:0000000013131300
#02213:0000000000000000000000000000000000000000001300130013001300000000
#02214:000000000000000000000000000000000000000000000000000000000000000000000000000000000000000000000000000000000000000000000000000000000000000000000000000000000000000000000000000000000000000000000000000000000000000000000000000000000000000000000000000000000000000000000000000000000000000000000000000000000000000000000000000000000000000000000000000000000000000000000000000000000000000000000000000000000000000000000000000000000000000000000000000000000000000000000000000000000000000000000000000000000000000000000000000000000000000000000000000000000000000000000000000000000000000000000000000000000000000000000000000000000000000000000000000000000000000000000000000000000000000000000000000000000000000000000000000000000000000000000000000000000000000000000000000000000000000000000000000000000000000000000000000000000000000000000000000000000000000000000000000000000000000000000000000000000000000000000000000000000000000000000000000000000000000000000000000000000000000000000000000000000000000000000000000000000000000000000000000000000000000000000000000000000000000000000000000000000000000000000000000000000000000000000000000000000000000000000000000000000000000000000000000000000000000000000000000000000000000000000000000000000000000000000000000000000000000000000000000000000000000000000000000000000000000000000000000000000000000000000000000000000000000000000000000000000000000000000000000000000000000000000000000000000000000000000000000000000000000000000000000000000000000000000000000000000000000000000000000000000000000000000000000000000000000000000000000000000000000000000000000000000000000000000000000000000000000000000000000000000000000000000000000000000000000000000000000000000000000000000000000000000000000000000000000000000000000000000000000000000000000000000000000000000000000000000000000000000000000000000000000000000000000000000000000000000000000000000000000000000000000000000000000000000000000000000000000000000000000000000000000000000000000000000000000000000000000000000000000000000000000000000000000000000000000000000000000000000000000000000000000000000000000000000000000000000000000000000000000000000000000000000000000000000000000000000000000000000000000000000000000000000000000000000000000000000000000000000000000000000000000000000000000000000000000000000000000000000000000000000000000000000000000000000000000000000000000000000000000000000000000000000000000000000000000000000000000000000000000000000000000000000000000000000000000000000000000000000000000000000000000000000000000000000000000000000000000000000000000000000000000000000000000000000000000000000000000000000000000000000000000000000000000000000000000000000000000000000000000000000000001300000000000000000000000000000000000000000000000000000000000000000000000000000000000000000000000000000000000000000000000000000000000000000000000000000000000000000000000000000000000000000000000000000000000000000000000000000000000000000000000000000000000000000000000000000000000000000000000000000000000000000000000000000000000000000000000000000000000000000000000000000000000000000000000000000000000000000000000000000000000000000000000000000000000000000000000000000000000000000000001300000000000000000000000000000000000000000000000000000000000000000000000000000000000000000000000000000000000000000000000000000000000000000000000000000000000000000000000000000000000000000000000000000000000000000000000000000000000000000000000000000000000000000000000000000000000000000000000000000000000000000000000000000000000000000000000000000000000000000000000000000000000000000000000000000000000000000000000000000000000000000000000000000000000000000000000000000000000000000000000000000000000000000000000000000000000000000000000000000000000000000000000000000000000000000000000000000000000000000000000000000000000000000000000000000000000000000000000000000000000000000000000000000000000000000000000000000000000000000000
#02216:00000000000000000000001300130000
#02217:0000000000000000000000000000000000000000001300130013001300000000
#02218:0000130000131300
#02215:0000001300000000
#0221b:0013000000000000
#02210:0000000000410000
#06814:00001400000000140000000014000000
#06818:00000000000000000000000000000014
#06812:00000000000000000000140000000014
#0681a:00140000000000000000000014000000
#00318:12
#00316:0012
#00312:52
#0031c:0052
#03816:1313000000000000
#0381b:00001300000000000000000000000013
#03819:00000013
#03812:0000001300240000
#03817:0013
#03814:00000000000000000000000000240000
#03417:13001300000000000000000000130000
#0341b:0000001300000000
#03412:0013000000001300
#03415:0000000000130000
#03418:0013
#00612:1c00000000131300
#00618:0000000000000013
#00616:0000000000240000
#00610:0000000000410000
#02918:00000000001300000000000000000000
#02912:0013000000000000
#02915:0000000013000012
#02917:0000000000120000
#02919:0000000000000012
#0291a:00000012
#0291b:0000000000120000
#02816:0000000000000014
#0281a:0000000000140000
#02814:13
#02819:13
#02812:0000000000240000
#01018:00130000000013000000160000000000
#0101b:0013
#01015:0000130000000023
#01012:0013000000260000
#0691a:00000000001400000000000000000000
#06912:0014000025000000
#06919:0025
#06916:00002400002400000000000000000000
#06718:0000000014000014
#06712:0000000000140000
#0671a:0000000000140000
#0661a:0000000000140000
#06614:0014
#06612:0000000000140000
#06416:00000000001400001400000014000014
#06412:0026000000160000
#06418:0026000000260000
#06512:00000016001500140013000000000000
#0651b:0013
#06519:00150000
#0651c:0000000000220000
#06518:0026000000000000
#0651a:0000002400000000
#06318:0000000000160000
#06312:0024001400260000
#0631a:0014002400000000
#06316:00000000000000000000000014000014
#06117:00000000000000000000000000000000000000000000000000000014000000000000000000000000000000000000000000000000000000000000000000000000000000000000000000000000000000000000000000000000000000000000000000000000000000000000000000000000000000000000000000000000000000000000000000000000000000000000000000000000000000000000000000000000000000000000000000000000000000000000000000000000000000000000000000000000000000000000000000000000000000000000000000000000000000000000000000000000000000000000000000000000000000000000000000000000000000000000000000000000000000000000000000000000000000000000000000000000000000000000000000000000000000000000000000000000000000000000000000000000000000000000000000000000000000000000000000000000000000000000000000000000000000000000000000000000000000000000000000000000000000000000000000000000000000000000000000000000000000000000000000000000000000000000000000000000000000000000000000000000000000000000000000000000000000000000000000000000000000000000000000000000000000000000000000000000000000000000000000000000000000000000000000000000000000000000000000000000000000000000000000000000000000000000000000000000000000000000000000000000000000000000000000000000000000000000000000000000000000000000000000000000000000000000000000000000000000000000000000000000000000000000000000000000
#06115:001400000000000000000000000000000000000000000000
#06118:0014000000000000
#06114:0014000000000000
#06110:0000000000410000
#06017:000000000000000000000000000000000000000000000000000000000000000000000000000000000000000000000000000000000000000000000000000000000000000000000000000000000000000000000000000000000000000000000000000000000000000000000000000000000000000000000000000000000000000000000000000000000000000000000000000000000000000000000000000000000000000000000000000000000000000000000000000000000000000000000000000000000000000000000000000000000000000000000000000000000000000000000000000000000000000000000000000000000000000000000000000000000000000000000000000000000000000000000000000000000000000000000000000000000000000000000000000000000000000000000000000000000000000000000000000000000000000000000000000000000000000000000000000000000000000000000000000000000000000000000000000000000000000000000000000000000000000000000000000000000000000000000000000000000000000000000000000000000000000000000000000000000000000000000000000000000000000000000000000000000000000000000000000000000000000000000000000000000000000000000000000000000000000000000000000000000000000000000000000000000000000000000000000000000000000000000000000000000000000000000000000000000000000000000000000000000000000000000000000000000000000000000000000000000000000000000000000000000000000000000000000000000000000000000000000000000000000000000000000000000000000000000000000000000000000000000000000000000000000000000000000000000000000000000000000000000000000000000000000000000000000000000000000000000000000000000000000000000000000000000000000000000000000000000000000000000000000000000000000000000000000000000000000000000000000000000000000000000000000000000000000000000000000000000000000000000000000000000000000000000000000000000000000000000000000000000000000000000000000000000000000000000000000000000000000000000000000000000000000000000000000000000000000000000000000000000000000000000000000000000000000000000000000000000000000000000000000000000000000000000000000000000000000000000000000000000000000000000000000000000000000000000000000000000000000000000000000000000000000000000000000000000000000000000000000000000000000000000000000000000000000000000000000000000000000000000000000000000000000000000000000000000000000000000000000000000000000000000000000000000000000000000000000000000000000000000000000000000000000000000000000000000000000000000000000000000000000000000000000000000000000000000000000000000000000000000000000000000000000000000000000000000000000000000000000000000000000000000000000000000000000000000000000000000000000000000000000000000000000000000000000000000000000000000000000000000000000000000000000000000000000000000000000000000000000000000000000000000000000000000000000000000000000000000000000000000000000000000000000000000000000000000000000000000000000000000000000000000000000000000014000000000000000000000000000000000000000000000000000000000000000000000000000000000000000000000000000000000000000000000000000000000000000000000000000000000000000000000000000000000000000000000000000000000000000000000000000000000000000000000000000000000000000000000000000000000000000000000000000000000000000000000000000000000000000000000000000000000000000000000000000000000000000000000000000000000000000000000000000000000000000000000000000000000000000000000000000000000000000000000000000000000000000000000000000000000000000000000000000000000000000000000000000000000000000000000000000000000000000000000000000000000000000000000000000000000000001400000000000000000000000000000000000000000000000000000000000000000000000000000000000000000000000000000000000000000000000000000000000000000000000000000000000000000000000000000000000000000000000000000000000000000000000000000000000000000000000000000000000000000000000000000000000000000000000000000000000000000000000000000000000000000000000000000000000000000000000000000000000000000000000000000000000000000000000000000000000000000000000000000000000000000000000000000000000000000000
#06015:000000000000000000000000000000000014000000140000
#06013:000000000000000000000000000000000000001400000014
#06019:000000000000000000000000000000000000001400000014
#06012:0024000000140000
#06016:0000001400000000
#0601a:0000001400240000
#05912:0015150000140014
#0591a:0000000000140000
#05916:1400000000000014
#05913:0000000000150015001500150000000000000000000000000000000000000000
#05914:000000000000000000000000000000000000000000000000000000000000000000000000000000000000000000000000000000000000000000000000000000000000000000000000000000000000000000000000000000000000000000000000000000000000000000000000000000000000000000000000000000000000000000000000000000000000000000000000000000000000000000000000000000000000000000000000000000000000000000000000000000000000000000000000000000000000000000000000000000000000000000000000000000000000000000000000000000000000000000000000000000000000000000000000000000000000000000000000000000000000000000000000000000000000000000000000000000000000000000000000000000000000000000000000000000000000000000000000000000000000000000000000000000000000000000000000000000000000000000000000001500000000000000000000000000000000000000000000000000000000000000000000000000000000000000000000000000000000000000000000000000000000000000000000000000000000000000000000000000000000000000000000000000000000000000000000000000000000000000000000000000000000000000000000000000000000000000000000000000000000000000000000000000000000000000000000000000000000000000000000000000000000000000000000000000000000000000000000000000000000000000000000000000000000000000000000000000000000000000000000001500000000000000000000000000000000000000000000000000000000000000000000000000000000000000000000000000000000000000000000000000000000000000000000000000000000000000000000000000000000000000000000000000000000000000000000000000000000000000000000000000000000000000000000000000000000000000000000000000000000000000000000000000000000000000000000000000000000000000000000000000000000000000000000000000000000000000000000000000000000000000000000000000000000000000000000000000000000000000000000000000000000000000000000000000000000000000000000000000000000000000000000000000000000000000000000000000000000000000000000000000000000000000000000000000000000000000000000000000000000000000000000000000000000000000000000000000000000000000000000000000000000000000000000000000000000000000000000000000000000000000000000000000000000000000000000000000000000000000000000000000000000000000000000000000000000000000000000000000000000000000000000000000000000000000000000000000000000000000000000000000000000000000000000000000000000000000000000000000000000000000000000000000000000000000000000000000000000000000000000000000000000000000000000000000000000000000000000000000000000000000000000000000000000000000000000000000000000000000000000000000000000000000000000000000000000000000000000000000000000000000000000000000000000000000000000000000000000000000000000000000000000000000000000000000000000000000000000000000000000000000000000000000000000000000000000000000000000000000000000000000000000000000000000000000000000000000000000000000000000000000000000000000000000000000000000000000000000000000000000000000000000000000000000000000000000000000000000000000000000000000000000000000000000000000000000000000000000000000000000000000000000000000000000000000000000000000000000000000000000000000000000000000000000000000000000000000000000000000000000000000000000000000000000000000000000000000000000000000000000000000000000000000000000000000000000000000000000000000000000000000000000000000000000000000000000000000000000000000000000000000000000000000000000000000000000000000000000000000000000000000000000000000000000000000000000000000000000000000000000000000000000000000000000000000000000000000000000000000000000000000000000000000000000000000000000000000000000000000000000000000000000000000000000000000000000000000000000000000000000000000000000000000000000000000000000000000000000000000000000000000000000000000000000000000000000000000000000000000000000000000000000000000000000000000000000000000000000000000000000000000000000000000000000000000000000000000000000000000000000000000000000000000000000000000000000000000000000000000000000000000000000000000000000000000000000000000000000000000000000
#05917:00000015001500000000000000000000
#05918:0000000000150015001500150000000000000000000000000000000000000000
#05919:0015150000000000
#05816:0014000000140024
#05812:00000000000000000000000000140000
#0581a:0014002400140000
#05814:14
#05516:140000000000000000000000000000240000000000000014
#05518:00000014
#0551a:00001400000000000014000000000000
#05514:00000000000000001400000000240000
#05512:0014002400000000
#0561a:0000000000140000
#05612:2400000000000024
#05614:000000000000000000000035000000260000000000000000
#05615:000000000000000000000000353535000000000000000000
#05613:000000000035000000000000
#05617:000000000000343434000000000000000000000000000000
#05618:000000000034000000000000000000000000000000000000
#05619:003400000000
#05712:00140000000000000000140000002400
#0571a:0000142400140000
#05716:1400001400000014
#05718:00000014
#05714:0014
#05416:14000000000000000000140000140000
#05412:0014000000000024
#05418:0014000000000000
#0541a:0000002400140000
#05313:0000000000140000
#05318:0000001400000000
#05316:00140000140000000000000000000000
#0531a:1400000000000024
#05314:0000000000000014
#05317:00000014
#05319:0000000000140000
#05315:0014
#05312:0000002400000000
#0521a:0000002400000014
#05212:0014000000260024
#05216:1414002400000000
#05218:0000000000260000
#05116:14000000000000001400000000140000
#0511a:0014002400141400
#05112:0014000000140000
#05016:14000000000000000000140000140000
#0501a:0014000000000024
#05014:0014000000000000
#05012:0000002400140000
#04919:0000000000140000
#04914:0000001400000000
#04916:00140000140000000000000000000000
#04912:1400000000000024
#04918:0000000000000014
#04915:00000014
#04913:0000000000140000
#04917:0014
#0491a:0000002400000000
#04910:0000000000410000
#04812:2600001600260014
#04818:0000001600260000
#04816:000000000000000000000000000000000000000000000000000000000000000000000000000000000000000000000000000000000000000000000000000000000000000000000000000000000000000000000000000000000000000000000000000000000000000000000000000000000000000000000000000000000000000000000000000000000000000000000000000000000000000000000000000000000000000000000000000000000000000000000000000000000000000000000000000000000000000000000000000000000000000000000000000000000000000000000000000000000000000000000000000000000000000000000000000000000000000000000000000000000000000000000000000000000000000000000000000000000000000000000000000000000000000000000000000000000000000000000000000000000000000000000000000000000000000000000000000000000000000000000000000000000000000000000000000000000000000000000000000000000000000000000000000000000000000000000000000000000000000000000000000000000000000000000000000000000000000000000000000000000000000000000000000000000000000000000000000000000000000000000000000000000000000000000000000000000000000000000000000000000000000000000000000000000000000000000000000000000000000000000000000000000000000000000000000000000000000000000000000000000000000000000000000000000000000000000000000000000000000000000000000000000000000000000000000000000000000000000000000000000000000000000000000000000000000000000000000000000000000000000000000000000000000000000000000000000000000000000000000000000000000000000000000000000000000000000000000000000000000000000000000000000000000000000000000000000000000000000000000000000000000000000000000000000000000000000000000000000000000000000000000000000000000000000000000000000000000000000000000000000000000000000000000000000000000000000000000000000000000000000000000000000000000000000000000000000000000000000000000000000000000000000000000000000000000000000000000000000000000000000000000000000000000000000000000000000000000000000000000000000000000000000000000000000000000000000000000000000000000000000000001600000000000000000000000000000000000000000000000000000000000000000000000000000000000000000000000000000000000000000000000000000000000000000000000000000000000000000000000000000000000000000000000000000000000000000000000000000000000000000000000000000000000000000000000000000000000000000000000000000000000000000000000000000000000000000000000000000000000000000000000000000000000000000000000000000000000000000000000000000000000000000000000000000000000000000000000000000000000000000000000000000000000000000000000000000000000000000000000000000000000000000000000000000000000000000000000000000000000000000000000000000000000000000000000000000000000000000000000000000000000000000000000000000000000000000000000000000000000000000000000000000000000000000000000000000000000000000000000000000000000000000000000000000000000000000000000000000000000000000000000000000000000000000000000000000000000000000000000000000000000000000000000000000000000000000000000000000000000000000000000000000000000000000000000000000000000000000000000000000000000000000000000000000000000000000000000000000000000000000000000000000000000000000000000000000000000000000000000000000000000000000000000000000000000000000000000000000000000000000000000000000000000000000000000000000000000000000000000000000000000000000000000000000000000000000000000000000000000000000000000000000000000000000000000000000000000000000000000000000000000000000000000000000000000000000000000000000000000000000000000000000000000000000000000000000000000000000000000000000000000000000000000000000000000000000000000000000000000000000000000000000000000000000000000000000000000000000000000000000000000000000000000000000000000000000000000000000000000000000000000000000000000000000000000000000000000000000000000000000000000000000000000000000000000000000000000000000000000000000000000000000000000000000000000000000000000000000000000000000000000000000000000000000000000000000000000000000000000000000000
#04814:0016
#0481f:0000000000210000
#0481a:0000000000000024
#04517:00000000000000130000000000000000
#04512:0000001300000000
#04514:0013
#0451a:0000000000240000
#04416:0013
#04414:00000013
#04318:00000000140000000014000000000000
#04314:00000000001400001400000000000000
#0431a:0000001400000000
#04312:0016000000240000
#04017:0000001300000000
#04015:0000000000000014
#04012:0000000000230000
#04117:0000001400000000
#04114:0000000000000015
#04112:0000000000240000
#04217:0000001500000000
#04212:0000000000250016
#03718:00000000000000000000000000130000
#03712:0000000000130000
#03717:0000000000130000
#03716:0013000000000000
#0371b:0013000000000000
#03719:13
#03617:0000000000000013
#0361b:00130000000000000000130000000000
#03616:1300000000130000
#03612:0000130000000013
#03614:00000013
#03618:0013
#03615:0000001300000000
#03512:0000002300130000
#0351b:0013000000000013
#03516:1313000000000000
#03517:0000002300230000
#03315:00000000000000000000000000130000
#0331b:0000000000130000
#03316:0000000000130000
#03317:0013000000000000
#03312:0013000000000000
#03314:13
#03216:0000000000000013
#03212:00130000000000000000130000000000
#03217:1300000000130000
#0321b:0000130000000013
#03219:00000013
#03215:0013
#03218:0000001300000000
#0311b:0000000000130000
#03112:0000000000000013
#03115:0000000000260000
#03110:0000000000410000
#0301a:0000001200000000
#03016:0012
#03015:0000001200000000
#03019:00120000
#03018:0012000000000000
#03013:0012000000000000
#03014:12
#0301b:0000000000220000
#0271b:0013000000130013
#02712:0000000000000013
#02714:00000013
#02716:0000000000130000
#02719:0013
#02717:0000001300000000
#02616:0000000000000013
#02612:0000000000130000
#02615:0000002300000000
#02618:0000002300000000
#02512:0013000000000013
#0251b:0013001300000013
#02519:13
#02514:0013
#02318:00000000000000000000000000130000
#0231a:0000000000130013001300130000000000000000000000000000000000000000
#0231b:0013130000000000
#02319:130000000000000000000000000000000000000000000000000000000000000000000000000000000000000000000000000000000000000000000000000000000000000000000000000000000000000000000000000000000000000000000000000000000000000000000000000000000000000000000000000000000000000000000000000000000000000000000000000000000000000000000000000000000000000000000000000000000000000000000000000000000000000000000000000000000000000000000000000000000000000000000000000000000000000000000000000000000000000000000000000000000000000000000000000000000000000000000000000000000000000000000000000000000000000000000000000000000000000000000000000000000000000000000000000000000000000000000000000000000000000000000000000000000000000000000000000000000000000000000000001300000000000000000000000000000000000000000000000000000000000000000000000000000000000000000000000000000000000000000000000000000000000000000000000000000000000000000000000000000000000000000000000000000000000000000000000000000000000000000000000000000000000000000000000000000000000000000000000000000000000000000000000000000000000000000000000000000000000000000000000000000000000000000000000000000000000000000000000000000000000000000000000000000000000000000000000000000000000000000000001300000000000000000000000000000000000000000000000000000000000000000000000000000000000000000000000000000000000000000000000000000000000000000000000000000000000000000000000000000000000000000000000000000000000000000000000000000000000000000000000000000000000000000000000000000000000000000000000000000000000000000000000000000000000000000000000000000000000000000000000000000000000000000000000000000000000000000000000000000000000000000000000000000000000000000000000000000000000000000000000000000000000000000000000000000000000000000000000000000000000000000000000000000000000000000000000000000000000000000000000000000000000000000000000000000000000000000000000000000000000000000000000000000000000000000000000000000000000000000000130000000000000000000000000000000000000000000000000000000000000000000000000000000000000000000000000000000000000000000000000000000000000000000000000000000000000000000000000000000000000000000000000000000000000000000000000000000000000000000000000000000000000000000000000000000000000000000000000000000000000000000000000000000000000000000000000000000000000000000000000000000000000000000000000000000000000000000000000000000000000000000000000000000000000000000000000000000000000000000000000000000000000000000000000000000000000000000000000000000000000000000000000000000000000000000000000000000000000000000000000000000000000000000000000000000000000000000000000000000000000000000000000000000000000000000000000000000000000000000000000000000000000000000000000000000000000000000000000000000000000000000000000000000000000000000000000000000000000000000000000000000000000000000000000000000000000000000000000000000000000000000000000000000000000000000000000000000000000000000000000000000000000000000000000000000000000000000000000000000000000000000000000000000000000000000000000000000000000000000000000000000000000000000000000000000000000000000000000000000000000000000000000000000000000000000000000000000000000000000000000000000000000000000000000000000000000000000000000000000000000000000000000000000000000000000000000000000000000000000000000000000000000000000000000000000000000000000000000000000000000000000000000000000000000000000000000000000000000000000000000000000000000000000000000000000000000000000000000000000000000000000000000000000000000000000000000000000000000000000000000000000000000000000000000000000000000000000000000000000000000000000000000000000000000000000000000000000000000000000000000000000000000000000000000000000000000000000000000000000000000000000000000000000000000000000000000000000000000000000000000000000000000000000000000000000000000000000000000000000000000000000000000000000000000000000000000000000000000000000000
#02317:00000013001300000000000000000000
#02316:0000000000130013001300130000000000000000000000000000000000000000
#02315:0013130000001300
#02314:1313
#02312:0000000000130000
#02412:0000000000130013
#0241b:0000000000130000
#02118:0000000000130000
#02116:0000000000000013
#02112:0013000013130000
#0211b:00000000001300000000000000000000
#01912:0013000000000000
#01915:13000000000000000000000000130000
#01918:00001313
#0191b:0013000000000000
#0181b:0000001300130000
#01812:0000000000130000
#01815:0013000000000000
#01818:13
#02015:0000000000130000
#02018:1313000013000013
#02012:0013000000000000
#01618:0000000000130000
#01615:1313000013000013
#0161b:0013000000000000
#01718:0013000000130000
#01712:0000000013130000
#0171b:00000000001300000000000000001300
#01715:00130000
#01518:00000000000000000000000000130000
#01515:13001313
#0151b:0013001300000000
#01512:0013001300000000
#01418:0000000000000013
#01412:0000000000140000
#0141a:000000000000000000000033343434240000000000000000
#01416:24
#01419:000000000033000000000000
#01415:000000000000323333000000000000000000000000000000
#01414:000000000032000000000000000000000000000000000000
#01413:003200000000
#01410:0000000000410000
#01313:00000000000000000000000000000013
#01318:00130000000023000000000000240000
#01315:00000000130000130013000000000000
#01312:0013000000000000
#01314:00000013
#0131a:0000000000240000
#01218:00000000001300000000000013000013
#0121b:1300000000130000
#01215:0000002300000023
#01115:00001313
#01118:1300002300000023
#01112:0000000000130000
#0111b:00130000
#00918:00130000000000000000000000001300
#00915:00000000000013000013000013000000
#0091b:00130000
#00818:0000000000000013
#00812:00000013
#00815:00130000000013000013000000000000
#0081b:00130000
#00718:00130000000013000013000000000000
#00712:00130000
#00715:0000000000000013
#0071b:00000013
#04612:1300000000260000
#04616:00000000000000000000000000240000
#06214:0000000000240000
#06218:0000000000240000
#06213:0024000000000000
#06219:0024000000000000
#04716:00000000000000000000000000240000
#04718:2600000000260000
#00412:52
#00218:0052
#00216:52
#0011c:0052
#0615a:0000000000140000
#06152:0000000000140000
#06157:00000000000000000000000000000000000000000000000000000054000000000000000000000000000000000000000000000000000000000000000000000000000000000000000000000000000000000000000000000000000000000000000000000000000000000000000000000000000000000000000000000000000000000000000000000000000000000000000000000000000000000000000000000000000000000000000000000000000000000000000000000000000000000000000000000000000000000000000000000000000000000000000000000000000000000000000000000000000000000000000000000000000000000000000000000000000000000000000000000000000000000000000000000000000000000000000000000000000000000000000000000000000000000000000000000000000000000000000000000000000000000000000000000000000000000000000000000000000000000000000000000000000000000000000000000000000000000000000000000000000000000000000000000000000000000000000000000000000000000000000000000000000000000000000000000000000000000000000000000000000000000000000000000000000000000000000000000000000000000000000000000000000000000000000000000000000000000000000000000000000000000000000000000000000000000000000000000000000000000000000000000000000000000000000000000000000000000000000000000000000000000000000000000000000000000000000000000000000000000000000000000000000000000000000000000000000000000000000000000000000000000000000000000000
#06155:006400000000000000000000000000000000000000000000
#06158:0054000000000000
#06154:0064000000000000
#05952:0025251500000000
#05959:0025251500000000
#0595a:0000000000640000
#05956:0000000000000024
#05953:0000000000550065005500650000000000000000000000000000000000000000
#05954:000000000000000000000000000000000000000000000000000000000000000000000000000000000000000000000000000000000000000000000000000000000000000000000000000000000000000000000000000000000000000000000000000000000000000000000000000000000000000000000000000000000000000000000000000000000000000000000000000000000000000000000000000000000000000000000000000000000000000000000000000000000000000000000000000000000000000000000000000000000000000000000000000000000000000000000000000000000000000000000000000000000000000000000000000000000000000000000000000000000000000000000000000000000000000000000000000000000000000000000000000000000000000000000000000000000000000000000000000000000000000000000000000000000000000000000000000000000000000000000000002500000000000000000000000000000000000000000000000000000000000000000000000000000000000000000000000000000000000000000000000000000000000000000000000000000000000000000000000000000000000000000000000000000000000000000000000000000000000000000000000000000000000000000000000000000000000000000000000000000000000000000000000000000000000000000000000000000000000000000000000000000000000000000000000000000000000000000000000000000000000000000000000000000000000000000000000000000000000000000000002500000000000000000000000000000000000000000000000000000000000000000000000000000000000000000000000000000000000000000000000000000000000000000000000000000000000000000000000000000000000000000000000000000000000000000000000000000000000000000000000000000000000000000000000000000000000000000000000000000000000000000000000000000000000000000000000000000000000000000000000000000000000000000000000000000000000000000000000000000000000000000000000000000000000000000000000000000000000000000000000000000000000000000000000000000000000000000000000000000000000000000000000000000000000000000000000000000000000000000000000000000000000000000000000000000000000000000000000000000000000000000000000000000000000000000000000000000000000000000000000000000000000000000000000000000000000000000000000000000000000000000000000000000000000000000000000000000000000000000000000000000000000000000000000000000000000000000000000000000000000000000000000000000000000000000000000000000000000000000000000000000000000000000000000000000000000000000000000000000000000000000000000000000000000000000000000000000000000000000000000000000000000000000000000000000000000000000000000000000000000000000000000000000000000000000000000000000000000000000000000000000000000000000000000000000000000000000000000000000000000000000000000000000000000000000000000000000000000000000000000000000000000000000000000000000000000000000000000000000000000000000000000000000000000000000000000000000000000000000000000000000000000000000000000000000000000000000000000000000000000000000000000000000000000000000000000000000000000000000000000000000000000000000000000000000000000000000000000000000000000000000000000000000000000000000000000000000000000000000000000000000000000000000000000000000000000000000000000000000000000000000000000000000000000000000000000000000000000000000000000000000000000000000000000000000000000000000000000000000000000000000000000000000000000000000000000000000000000000000000000000000000000000000000000000000000000000000000000000000000000000000000000000000000000000000000000000000000000000000000000000000000000000000000000000000000000000000000000000000000000000000000000000000000000000000000000000000000000000000000000000000000000000000000000000000000000000000000000000000000000000000000000000000000000000000000000000000000000000000000000000000000000000000000000000000000000000000000000000000000000000000000000000000000000000000000000000000000000000000000000000000000000000000000000000000000000000000000000000000000000000000000000000000000000000000000000000000000000000000000000000000000000000000000000000000000000000000000000000000000000000000000000000000000000000000000000000000000000000000000
#05957:00000025002500000000000000000000
#05958:0000000000650055006500550000000000000000000000000000000000000000
#05852:0000001400000000
#0585a:0000000000640000
#05856:0064000000000000
#05456:0000001400640000
#05452:0054000000000000
#05056:0000001400540000
#0505a:0064000000000000
#03752:0000001300530000
#03757:0000001300000000
#03758:00000000000000000000000000530000
#03756:0063000000000000
#0375b:0063000000000000
#0335b:0000001300630000
#03356:0000001300000000
#03355:00000000000000000000000000630000
#03357:0053000000000000
#03352:0053000000000000
#02856:0000001400000024
#02852:0000000000340000
#0285a:0000000000640000
#0245b:0000004300630000
#02452:0000003300000000
#04252:0000000000150000
#04052:0000000000130000
#04152:0000000000140000
#06452:0016000000000000
#06458:0016000000160000
#00656:0000000000140000
#00652:6c
#06959:0015
#06952:0015
#06956:00001400001400000000000000000000
#06352:0014000000160000
#0635a:0000001400000000
#06254:0000000000140000
#06258:0000000000140000
#06253:0014000000000000
#06259:0014000000000000
#0605a:0000000000640000
#06052:0054000000540000
#06057:000000000000000000000000000000000000000000000000000000000000000000000000000000000000000000000000000000000000000000000000000000000000000000000000000000000000000000000000000000000000000000000000000000000000000000000000000000000000000000000000000000000000000000000000000000000000000000000000000000000000000000000000000000000000000000000000000000000000000000000000000000000000000000000000000000000000000000000000000000000000000000000000000000000000000000000000000000000000000000000000000000000000000000000000000000000000000000000000000000000000000000000000000000000000000000000000000000000000000000000000000000000000000000000000000000000000000000000000000000000000000000000000000000000000000000000000000000000000000000000000000000000000000000000000000000000000000000000000000000000000000000000000000000000000000000000000000000000000000000000000000000000000000000000000000000000000000000000000000000000000000000000000000000000000000000000000000000000000000000000000000000000000000000000000000000000000000000000000000000000000000000000000000000000000000000000000000000000000000000000000000000000000000000000000000000000000000000000000000000000000000000000000000000000000000000000000000000000000000000000000000000000000000000000000000000000000000000000000000000000000000000000000000000000000000000000000000000000000000000000000000000000000000000000000000000000000000000000000000000000000000000000000000000000000000000000000000000000000000000000000000000000000000000000000000000000000000000000000000000000000000000000000000000000000000000000000000000000000000000000000000000000000000000000000000000000000000000000000000000000000000000000000000000000000000000000000000000000000000000000000000000000000000000000000000000000000000000000000000000000000000000000000000000000000000000000000000000000000000000000000000000000000000000000000000000000000000000000000000000000000000000000000000000000000000000000000000000000000000000000000000000000000000000000000000000000000000000000000000000000000000000000000000000000000000000000000000000000000000000000000000000000000000000000000000000000000000000000000000000000000000000000000000000000000000000000000000000000000000000000000000000000000000000000000000000000000000000000000000000000000000000000000000000000000000000000000000000000000000000000000000000000000000000000000000000000000000000000000000000000000000000000000000000000000000000000000000000000000000000000000000000000000000000000000000000000000000000000000000000000000000000000000000000000000000000000000000000000000000000000000000000000000000000000000000000000000000000000000000000000000000000000000000000000000000000000000000000000000000000000000000000000000000000000000000000000000000000000000000000000000000000000000000000000054000000000000000000000000000000000000000000000000000000000000000000000000000000000000000000000000000000000000000000000000000000000000000000000000000000000000000000000000000000000000000000000000000000000000000000000000000000000000000000000000000000000000000000000000000000000000000000000000000000000000000000000000000000000000000000000000000000000000000000000000000000000000000000000000000000000000000000000000000000000000000000000000000000000000000000000000000000000000000000000000000000000000000000000000000000000000000000000000000000000000000000000000000000000000000000000000000000000000000000000000000000000000000000000000000000000000005400000000000000000000000000000000000000000000000000000000000000000000000000000000000000000000000000000000000000000000000000000000000000000000000000000000000000000000000000000000000000000000000000000000000000000000000000000000000000000000000000000000000000000000000000000000000000000000000000000000000000000000000000000000000000000000000000000000000000000000000000000000000000000000000000000000000000000000000000000000000000000000000000000000000000000000000000000000000000000000
#06055:000000000000000000000000000000000064000000640000
#06053:000000000000000000000000000000000000005400000054
#06059:000000000000000000000000000000000000006400000064
#06056:0000002400000000
#05654:0000000000160000
#05652:14
#0565a:0000000000640000
#05554:00000000000000000000000000140000
#05556:000000000000000000000000000000140000000000000054
#0555a:0064000000000000
#0525a:0000001400000000
#05256:0054001400000000
#05258:0000000000460000
#05252:0054000000360000
#04852:1600005600360000
#04858:0000006600460000
#04856:000000000000000000000000000000000000000000000000000000000000000000000000000000000000000000000000000000000000000000000000000000000000000000000000000000000000000000000000000000000000000000000000000000000000000000000000000000000000000000000000000000000000000000000000000000000000000000000000000000000000000000000000000000000000000000000000000000000000000000000000000000000000000000000000000000000000000000000000000000000000000000000000000000000000000000000000000000000000000000000000000000000000000000000000000000000000000000000000000000000000000000000000000000000000000000000000000000000000000000000000000000000000000000000000000000000000000000000000000000000000000000000000000000000000000000000000000000000000000000000000000000000000000000000000000000000000000000000000000000000000000000000000000000000000000000000000000000000000000000000000000000000000000000000000000000000000000000000000000000000000000000000000000000000000000000000000000000000000000000000000000000000000000000000000000000000000000000000000000000000000000000000000000000000000000000000000000000000000000000000000000000000000000000000000000000000000000000000000000000000000000000000000000000000000000000000000000000000000000000000000000000000000000000000000000000000000000000000000000000000000000000000000000000000000000000000000000000000000000000000000000000000000000000000000000000000000000000000000000000000000000000000000000000000000000000000000000000000000000000000000000000000000000000000000000000000000000000000000000000000000000000000000000000000000000000000000000000000000000000000000000000000000000000000000000000000000000000000000000000000000000000000000000000000000000000000000000000000000000000000000000000000000000000000000000000000000000000000000000000000000000000000000000000000000000000000000000000000000000000000000000000000000000000000000000000000000000000000000000000000000000000000000000000000000000000000000000000000000000000000000002600000000000000000000000000000000000000000000000000000000000000000000000000000000000000000000000000000000000000000000000000000000000000000000000000000000000000000000000000000000000000000000000000000000000000000000000000000000000000000000000000000000000000000000000000000000000000000000000000000000000000000000000000000000000000000000000000000000000000000000000000000000000000000000000000000000000000000000000000000000000000000000000000000000000000000000000000000000000000000000000000000000000000000000000000000000000000000000000000000000000000000000000000000000000000000000000000000000000000000000000000000000000000000000000000000000000000000000000000000000000000000000000000000000000000000000000000000000000000000000000000000000000000000000000000000000000000000000000000000000000000000000000000000000000000000000000000000000000000000000000000000000000000000000000000000000000000000000000000000000000000000000000000000000000000000000000000000000000000000000000000000000000000000000000000000000000000000000000000000000000000000000000000000000000000000000000000000000000000000000000000000000000000000000000000000000000000000000000000000000000000000000000000000000000000000000000000000000000000000000000000000000000000000000000000000000000000000000000000000000000000000000000000000000000000000000000000000000000000000000000000000000000000000000000000000000000000000000000000000000000000000000000000000000000000000000000000000000000000000000000000000000000000000000000000000000000000000000000000000000000000000000000000000000000000000000000000000000000000000000000000000000000000000000000000000000000000000000000000000000000000000000000000000000000000000000000000000000000000000000000000000000000000000000000000000000000000000000000000000000000000000000000000000000000000000000000000000000000000000000000000000000000000000000000000000000000000000000000000000000000000000000000000000000000000000000000000000000000000000000
#04854:0026
#04758:1600000000160000
#04652:0000000000160000
#03955:0000000000160000
#03956:14
#03854:00000000000000000000000000140000
#03852:0000000000140000
#0385b:00006300000000000000000000000053
#03552:0000001300530000
#03557:0000001300000000
#0355b:0063000000000000
#03556:0063000000000000
#03155:0000000000160000
#0315b:0000000000630000
#0305b:0000000000120000
#02655:0000001300000000
#02658:0000001300000000
#0145a:0000000000140000
#01456:14
#01452:0000000000540000
#01358:00000000000000000000000000140000
#0135a:0000000000140000
#01353:00000000000000000000000000000063
#0455a:0000000000140000
#04352:0000000000140000
#01052:0000000000160000
#01058:0000000000560000
#06854:0054000000000000
#06852:00000000000000000000000000000014
#0685a:00000014
#00358:52
#00356:0062
#02958:00000000005300000000000000000000
#02952:0053000000000000
#05752:00540000000000000000000000000000
#05356:00640000000000000000000000000000
#05156:00000000000000000000000000640000
#05152:0054000000000000
#0365b:00630000000000000000000000000000
#03457:00000000000000000000000000530000
#03452:0053000000000000
#02552:0053000000000053
#0255b:0000000000000063
#02358:00000000000000000000000000530000
#0235a:0000000000630053006300530000000000000000000000000000000000000000
#0235b:0023230000000000
#02359:000000000000000000000000000000000000000000000000000000000000000000000000000000000000000000000000000000000000000000000000000000000000000000000000000000000000000000000000000000000000000000000000000000000000000000000000000000000000000000000000000000000000000000000000000000000000000000000000000000000000000000000000000000000000000000000000000000000000000000000000000000000000000000000000000000000000000000000000000000000000000000000000000000000000000000000000000000000000000000000000000000000000000000000000000000000000000000000000000000000000000000000000000000000000000000000000000000000000000000000000000000000000000000000000000000000000000000000000000000000000000000000000000000000000000000000000000000000000000000000000002300000000000000000000000000000000000000000000000000000000000000000000000000000000000000000000000000000000000000000000000000000000000000000000000000000000000000000000000000000000000000000000000000000000000000000000000000000000000000000000000000000000000000000000000000000000000000000000000000000000000000000000000000000000000000000000000000000000000000000000000000000000000000000000000000000000000000000000000000000000000000000000000000000000000000000000000000000000000000000000002300000000000000000000000000000000000000000000000000000000000000000000000000000000000000000000000000000000000000000000000000000000000000000000000000000000000000000000000000000000000000000000000000000000000000000000000000000000000000000000000000000000000000000000000000000000000000000000000000000000000000000000000000000000000000000000000000000000000000000000000000000000000000000000000000000000000000000000000000000000000000000000000000000000000000000000000000000000000000000000000000000000000000000000000000000000000000000000000000000000000000000000000000000000000000000000000000000000000000000000000000000000000000000000000000000000000000000000000000000000000000000000000000000000000000000000000000000000000000000000000000000000000000000000000000000000000000000000000000000000000000000000000000000000000000000000000000000000000000000000000000000000000000000000000000000000000000000000000000000000000000000000000000000000000000000000000000000000000000000000000000000000000000000000000000000000000000000000000000000000000000000000000000000000000000000000000000000000000000000000000000000000000000000000000000000000000000000000000000000000000000000000000000000000000000000000000000000000000000000000000000000000000000000000000000000000000000000000000000000000000000000000000000000000000000000000000000000000000000000000000000000000000000000000000000000000000000000000000000000000000000000000000000000000000000000000000000000000000000000000000000000000000000000000000000000000000000000000000000000000000000000000000000000000000000000000000000000000000000000000000000000000000000000000000000000000000000000000000000000000000000000000000000000000000000000000000000000000000000000000000000000000000000000000000000000000000000000000000000000000000000000000000000000000000000000000000000000000000000000000000000000000000000000000000000000000000000000000000000000000000000000000000000000000000000000000000000000000000000000000000000000000000000000000000000000000000000000000000000000000000000000000000000000000000000000000000000000000000000000000000000000000000000000000000000000000000000000000000000000000000000000000000000000000000000000000000000000000000000000000000000000000000000000000000000000000000000000000000000000000000000000000000000000000000000000000000000000000000000000000000000000000000000000000000000000000000000000000000000000000000000000000000000000000000000000000000000000000000000000000000000000000000000000000000000000000000000000000000000000000000000000000000000000000000000000000000000000000000000000000000000000000000000000000000000000000000000000000000000000000000000000000000000000000000000000000000000000000000000000000
#02357:00000023002300000000000000000000
#02356:0000000000530063005300630000000000000000000000000000000000000000
#02355:0023230000000000
#02253:0000000000000000000000000000000000000000005300630053006300000000
#02252:0000000000232300
#02254:000000000000000000000000000000000000000000000000000000000000000000000000000000000000000000000000000000000000000000000000000000000000000000000000000000000000000000000000000000000000000000000000000000000000000000000000000000000000000000000000000000000000000000000000000000000000000000000000000000000000000000000000000000000000000000000000000000000000000000000000000000000000000000000000000000000000000000000000000000000000000000000000000000000000000000000000000000000000000000000000000000000000000000000000000000000000000000000000000000000000000000000000000000000000000000000000000000000000000000000000000000000000000000000000000000000000000000000000000000000000000000000000000000000000000000000000000000000000000000000000000000000000000000000000000000000000000000000000000000000000000000000000000000000000000000000000000000000000000000000000000000000000000000000000000000000000000000000000000000000000000000000000000000000000000000000000000000000000000000000000000000000000000000000000000000000000000000000000000000000000000000000000000000000000000000000000000000000000000000000000000000000000000000000000000000000000000000000000000000000000000000000000000000000000000000000000000000000000000000000000000000000000000000000000000000000000000000000000000000000000000000000000000000000000000000000000000000000000000000000000000000000000000000000000000000000000000000000000000000000000000000000000000000000000000000000000000000000000000000000000000000000000000000000000000000000000000000000000000000000000000000000000000000000000000000000000000000000000000000000000000000000000000000000000000000000000000000000000000000000000000000000000000000000000000000000000000000000000000000000000000000000000000000000000000000000000000000000000000000000000000000000000000000000000000000000000000000000000000000000000000000000000000000000000000000000000000000000000000000000000000000000000000000000000000000000000000000000000000000000000000000000000000000000000000000000000000000000000000000000000000000000000000000000000000000000000000000000000000000000000000000000000000000000000000000000000000000000000000000000000000000000000000000000000000000000000000000000000000000000000000000000000000000000000000000000000000000000000000000000000000000000000000000000000000000000000000000000000000000000000000000000000000000000000000000000000000000000000000000000000000000000000000000000000000000000000000000000000000000000000000000000000000000000000000000000000000000000000000000000000000000000000000000000000000000000000000000000000000000000000000000000000000000000000000000000000000000000000000000000000000000000000000000000000000000000000000000000000000000000000002300000000000000000000000000000000000000000000000000000000000000000000000000000000000000000000000000000000000000000000000000000000000000000000000000000000000000000000000000000000000000000000000000000000000000000000000000000000000000000000000000000000000000000000000000000000000000000000000000000000000000000000000000000000000000000000000000000000000000000000000000000000000000000000000000000000000000000000000000000000000000000000000000000000000000000000000000000000000000000000002300000000000000000000000000000000000000000000000000000000000000000000000000000000000000000000000000000000000000000000000000000000000000000000000000000000000000000000000000000000000000000000000000000000000000000000000000000000000000000000000000000000000000000000000000000000000000000000000000000000000000000000000000000000000000000000000000000000000000000000000000000000000000000000000000000000000000000000000000000000000000000000000000000000000000000000000000000000000000000000000000000000000000000000000000000000000000000000000000000000000000000000000000000000000000000000000000000000000000000000000000000000000000000000000000000000000000000000000000000000000000000000000000000000000000000000000000000000000000000000
#02256:00000000000000000000002300230000
#02257:0000000000000000000000000000000000000000006300530063005300000000
#02258:0000000000232300
#02156:0000000000000023
#02152:0053000000530000
#0215b:00000000006300000000000000000000
#01952:0053000000000000
#01955:00000000000000000000000000630000
#0185b:0000000000630000
#01855:0063000000000000
#02055:0000000000630000
#02058:0053000000000053
#02052:0053000000000000
#01658:0000000000530000
#01655:0063000000000063
#0165b:0063000000000000
#01558:00000000000000000000000000530000
#04956:00540000000000000000000000000000
#03252:00530000000000000000000000000000
#0175b:00000000006300000000000000000000
#01752:0000000000530000
#0013c0:1222
#001361:0012
#002361:22
#002380:1222
#002321:0012
#003321:22
#003380:12
#0033c0:0022
#003361:0012
#004321:22
#004370:12
#006320:5c
#006360:0000000000240000
#006320:00000000000000000000000000000013
#007320:00230000000000000000000000000000
#007320:00000000000000130023000000000000
#0073b0:00000000000000000000000000000013
#0083b0:00230000000000000000000000000000
#0083b0:00000000000000130023000000000000
#008320:00000000000000000000000000000013
#009320:00230000000000000000000000000000
#0093b0:00000000000000130023000000000000
#009350:00000000000000000000000000000013
#010350:00230000000000000000000000000000
#010380:0000000000160000
#0103b0:0000000000000023
#011350:00130000230000000000000000000000
#012350:00001300002300000000000000000000
#013330:00000000000000000000000000000013
#014320:0032000000000000
#014330:003200000000
#014340:000000000032000000000000000000000000000000000000
#014350:000000000000323333230000000000000000000000000000
#014381:0000001300000000
#014391:000000000033000000000000
#0143a1:000000000000000000000033343434240000000000000000
#014320:0000000000140000
#014350:0000000000000023
#015380:0000000000132300
#015380:00000000000000000000000000130000
#0163b0:3333000000000000
#016380:0000002300000000
#016351:0013000000000000
#016321:0000002300000000
#016381:0000000000130000
#0163b1:0000000000000023
#016350:0000000000000013
#017320:0023000000000000
#0173b0:00000000001300000000000000000000
#017380:0023
#017320:0000000000130000
#017350:0000000000000023
#018350:0013000000000000
#018320:0000002300000000
#0183b0:0000000000130000
#019380:23
#019320:0013000000000000
#019350:0023
#019350:0000000000132300
#019350:00000000000000000000000000130000
#020320:3333000000000000
#020350:0000002300000000
#020381:0013000000000000
#0203b1:0000002300000000
#020351:0000000000130000
#020321:0000000000000023
#020380:0000000000000013
#0213b0:0023000000000000
#021321:0013000000000000
#021351:00000000002300000000000000000000
#0213b0:00000000001300000000000000000000
#021380:0023
#021320:0000000000130000
#021360:0000000000000053
#022320:0023000000000000
#022320:0000000000135323
#022330:0000000000000000000000000000000000000000005300530053005300000000
#022340:000000000000000000000000000000000000000000000000000000000000000000000000000000000000000000000000000000000000000000000000000000000000000000000000000000000000000000000000000000000000000000000000000000000000000000000000000000000000000000000000000000000000000000000000000000000000000000000000000000000000000000000000000000000000000000000000000000000000000000000000000000000000000000000000000000000000000000000000000000000000000000000000000000000000000000000000000000000000000000000000000000000000000000000000000000000000000000000000000000000000000000000000000000000000000000000000000000000000000000000000000000000000000000000000000000000000000000000000000000000000000000000000000000000000000000000000000000000000000000000000000000000000000000000000000000000000000000000000000000000000000000000000000000000000000000000000000000000000000000000000000000000000000000000000000000000000000000000000000000000000000000000000000000000000000000000000000000000000000000000000000000000000000000000000000000000000000000000000000000000000000000000000000000000000000000000000000000000000000000000000000000000000000000000000000000000000000000000000000000000000000000000000000000000000000000000000000000000000000000000000000000000000000000000000000000000000000000000000000000000000000000000000000000000000000000000000000000000000000000000000000000000000000000000000000000000000000000000000000000000000000000000000000000000000000000000000000000000000000000000000000000000000000000000000000000000000000000000000000000000000000000000000000000000000000000000000000000000000000000000000000000000000000000000000000000000000000000000000000000000000000000000000000000000000000000000000000000000000000000000000000000000000000000000000000000000000000000000000000000000000000000000000000000000000000000000000000000000000000000000000000000000000000000000000000000000000000000000000000000000000000000000000000000000000000000000000000000000000000000000000000000000000000000000000000000000000000000000000000000000000000000000000000000000000000000000000000000000000000000000000000000000000000000000000000000000000000000000000000000000000000000000000000000000000000000000000000000000000000000000000000000000000000000000000000000000000000000000000000000000000000000000000000000000000000000000000000000000000000000000000000000000000000000000000000000000000000000000000000000000000000000000000000000000000000000000000000000000000000000000000000000000000000000000000000000000000000000000000000000000000000000000000000000000000000000000000000000000000000000000000000000000000000000000000000000000000000000000000000000000000000000000000000000000000000000000000000000000000000000000000005300000000000000000000000000000000000000000000000000000000000000000000000000000000000000000000000000000000000000000000000000000000000000000000000000000000000000000000000000000000000000000000000000000000000000000000000000000000000000000000000000000000000000000000000000000000000000000000000000000000000000000000000000000000000000000000000000000000000000000000000000000000000000000000000000000000000000000000000000000000000000000000000000000000000000000000000000000000000000000000005300000000000000000000000000000000000000000000000000000000000000000000000000000000000000000000000000000000000000000000000000000000000000000000000000000000000000000000000000000000000000000000000000000000000000000000000000000000000000000000000000000000000000000000000000000000000000000000000000000000000000000000000000000000000000000000000000000000000000000000000000000000000000000000000000000000000000000000000000000000000000000000000000000000000000000000000000000000000000000000000000000000000000000000000000000000000000000000000000000000000000000000000000000000000000000000000000000000000000000000000000000000000000000000000000000000000000000000000000000000000000000000000000000000000000000000000000000000000000000000
#022381:0000000000135323
#022371:0000000000000000000000000000000000000000005300530053005300000000
#022361:00000000000000000000005300530000
#0233b1:0013532300000000
#0233a1:0000000000530053005300530000000000000000000000000000000000000000
#023391:000000000000000000000000000000000000000000000000000000000000000000000000000000000000000000000000000000000000000000000000000000000000000000000000000000000000000000000000000000000000000000000000000000000000000000000000000000000000000000000000000000000000000000000000000000000000000000000000000000000000000000000000000000000000000000000000000000000000000000000000000000000000000000000000000000000000000000000000000000000000000000000000000000000000000000000000000000000000000000000000000000000000000000000000000000000000000000000000000000000000000000000000000000000000000000000000000000000000000000000000000000000000000000000000000000000000000000000000000000000000000000000000000000000000000000000000000000000000000000000000005300000000000000000000000000000000000000000000000000000000000000000000000000000000000000000000000000000000000000000000000000000000000000000000000000000000000000000000000000000000000000000000000000000000000000000000000000000000000000000000000000000000000000000000000000000000000000000000000000000000000000000000000000000000000000000000000000000000000000000000000000000000000000000000000000000000000000000000000000000000000000000000000000000000000000000000000000000000000000000000005300000000000000000000000000000000000000000000000000000000000000000000000000000000000000000000000000000000000000000000000000000000000000000000000000000000000000000000000000000000000000000000000000000000000000000000000000000000000000000000000000000000000000000000000000000000000000000000000000000000000000000000000000000000000000000000000000000000000000000000000000000000000000000000000000000000000000000000000000000000000000000000000000000000000000000000000000000000000000000000000000000000000000000000000000000000000000000000000000000000000000000000000000000000000000000000000000000000000000000000000000000000000000000000000000000000000000000000000000000000000000000000000000000000000000000000000000000000000000000000000000000000000000000000000000000000000000000000000000000000000000000000000000000000000000000000000000000000000000000000000000000000000000000000000000000000000000000000000000000000000000000000000000000000000000000000000000000000000000000000000000000000000000000000000000000000000000000000000000000000000000000000000000000000000000000000000000000000000000000000000000000000000000000000000000000000000000000000000000000000000000000000000000000000000000000000000000000000000000000000000000000000000000000000000000000000000000000000000000000000000000000000000000000000000000000000000000000000000000000000000000000000000000000000000000000000000000000000000000000000000000000000000000000000000000000000000000000000000000000000000000000000000000000000000000000000000000000000000000000000000000000000000000000000000000000000000000000000000000000000000000000000000000000000000000000000000000000000000000000000000000000000000000000000000000000000000000000000000000000000000000000000000000000000000000000000000000000000000000000000000000000000000000000000000000000000000000000000000000000000000000000000000000000000000000000000000000000000000000000000000000000000000000000000000000000000000000000000000000000000000000000000000000000000000000000000000000000000000000000000000000000000000000000000000000000000000000000000000000000000000000000000000000000000000000000000000000000000000000000000000000000000000000000000000000000000000000000000000000000000000000000000000000000000000000000000000000000000000000000000000000000000000000000000000000000000000000000000000000000000000000000000000000000000000000000000000000000000000000000000000000000000000000000000000000000000000000000000000000000000000000000000000000000000000000000000000000000000000000000000000000000000000000000000000000000000000000000000000000000000000000000000000000000000000000000000000000000000000000000000000000000000000000000000000000000000000000000000000000000000
#023350:0013532300000000
#023360:0000000000530053005300530000000000000000000000000000000000000000
#023370:00000053005300000000000000000000
#023380:0000000000132300
#023380:00000000000000000000000000130000
#0243b0:23
#024321:1333002300000000
#024361:00530000
#0243b0:0013002300000000
#024370:000000000000000000000000000000000000000000000000000000000000000000000000000000000000000000000000000000000000000000000000000000000000000000000000000000000000000000000000000000000000000000000000000000000000000000000000000000000000000000000000000000000000000000000000000000000000000000000000000000000000000000000000000000000000000000000000000000000000000000000000000000000000000000000000000000000000000000000000000000000000000000000000000000000000000000000000000000000000000000000000000000000000000000000000000000000000000000000000000000000000000000000000000000000000000000000000000000000000000000000000000000000000000000000000000000000000000000000000000000000000000000000000000000000000000000000000000000000000000000000000000000000000000000000000000000000000000000000000000000000000000000000000000000000000000000000000000000000000000000000000000000000000000000000000000000000000000000000000000000000000000000000000000000000000000000000000000000000000000000000000005300000000000000000000000000000000000000000000000000000000000000000000000000000000000000000000000000000000000000000000000000000000000000000000000000000000000000000000000000000000000000000000000000000000000000000000000000000000000000000000000000000000000000000000000000000000000000000000000000000000000000000000000000000000000000000000000000000000000000000000000000000000000000000000000000000000000000000000000000000000000000000000000000000000000000000000000000000000000000000000000000000000000000000000000000000000000000000000000000000000000000000000000000000000000000000000000000000000000000000000000000000000000000000000000000000000000000000000000000000000000000000000000000000000000000000000000000000000000000000000000000000000000000000000000000000000000000000000000000000000000000000000000000000000000000000000000000000000000000000000000000000000000000000000000000000000000000000000000000000000000000000000000000000000000000000000000000000000000000000000000000000000000000000000000000000000000000000000000000000000000000000000000000000000000000000000000000000000000000000000000000000000000000000000000000000000000000000000000000000000000000000000000000000000000000000000000000000000000000000000000000000000000000000000000000000000000000000000000000000000000000000000000000000000000000000000000000000000000000000000000000000000000000000000000000000000000000000000000000000000000000000000000000000000000000000000000000000000000000000000000000000000000000000000000000000000000000000000000000000000000000000000000000000000000000000000000000000000000000000000000000000000000000000000000000000000000000000000000000000000000000000000000000000000000000000000000000000000000000000000000000000000000000000000000000000000000000000000000000000000000000000000000000000000000000000000000000000000000000000000000000000000000000000000000000000000000000000000000000000000000000000000000000000000000000000000000000000000000000000000000000000000000000000000000000000000000000000000000000000000000000000000000000000000000000000000000000000000000000000000000000000000000000000000000000000000000000000000000000000000000000000000000000000000000000000000000000000000000000000000000000000000000000000000000000000000000000000000000000000000000000000000000000000000000000000000000000000000000000000000000000000000000000000000000000000000000000000000000000000000000000000000000000000000000000000000000000000000000000000000000000000000000000000000000000000000000000000000000000000000000000000000000000000000000000000000000000000000000000000000000000000000000000000000000000000000000000000000000000000000000000000000000000000000000000000000000000000000000000000000000000000000000000000000000000000000000000000000000000000000000000000000000000000000000000000000000000000000000000000000000000000000000000000000000000000000000000000000000000000000000000000000000000000000000000000000000000000000000000000000
#0243b0:0000000000130000
#024370:0000000000000023
#025320:0013000000000000
#025360:0000002300000000
#025320:0000000000130033
#026350:0000002300000000
#0253b1:0000000000130033
#026381:0000002300000000
#0263b1:0000000000130023
#027321:0013002300000000
#028371:0012000000000000
#028321:0000000000000000005c00000000000000000000000000000000000000000000
#028361:0000002400000000
#0283a1:0000000000140000
#028361:0000000000000054
#0293a1:0024000000000000
#029320:0013000000000000
#029350:00000000002300000000000000000000
#029381:00000000001300000000000000000000
#0293b1:0023
#030371:0000000000120000
#031371:0052000000000000
#031351:0000000000260000
#0313b0:0000000000130000
#031370:0000000000000023
#032320:00130000000000000000000000000000
#032360:00230000
#033370:0013000000000000
#0333b0:00000000003323000000000000000000
#033321:0013000000000000
#033361:00000000003323000000000000000000
#0333b1:0000000000130000
#033381:00000000000000000000000000230000
#033350:00000000000000000000000000130000
#034320:23
#034320:0013000000000000
#034360:0000002300000000
#034370:00000000000000000000000000130000
#0353b0:5333000000000000
#035370:0000002300000000
#035361:0013000000000000
#035321:0000002300000000
#035321:0000000000130000
#035361:0000000000000023
#0363b1:00130000000000000000000000000000
#036371:00230000
#037361:0013000000000000
#037321:00000000003323000000000000000000
#0373b0:0013000000000000
#037370:00000000003323000000000000000000
#037320:0000000000130000
#037350:00000000000000000000000000230000
#037381:00000000000000000000000000130000
#0383b1:23
#0383b1:0013000000000000
#038371:0000002300000000
#0383b1:00000000000000000000000000000013
#0393c1:0032000000000000
#0393b1:003200000000
#0393a1:000000000032000000000000000000000000000000000000
#039391:00320000
#039381:000000000000003232000000000000000000000000000000
#039361:0000002400000000
#039320:0000001400000000
#039330:000000000034000000000000
#039340:000000000000000000000034000000000000000000000000
#039350:0000000034260000
#039360:000000000000000000000000003400000000000000000000
#039370:000000000000003400000000
#0393b1:0000000000133333
#0393a1:00000000000000000000003300330033
#0403b1:3323000000000000
#0403a1:00330000000000000000000000000000
#040320:0013333333230000
#040330:00000033003300330033000000000000
#0403a1:0000000000143434
#040391:00000000000000000000003400340034
#0413a1:3424000000000000
#041391:00340000000000000000000000000000
#041320:0014343434240000
#041330:00000034003400340034000000000000
#041391:0000000000153535
#041381:00000000000000000000003500350035
#042391:3525000000000000
#042381:00350000000000000000000000000000
#042320:0015353535250000
#042330:00000035003500350035000000000000
#042381:0000000000163636
#042371:00000000000000000000003600360036
#043381:3626000000000000
#043371:00360000000000000000000000000000
#0443b1:1323000000000000
#044360:0000000014545454545454542400000000000000000000000000000000000000
#044350:00000000000000000054005400540054005400540054005400000000000000000000000000000000000000000000000000000000000000000000000000000000
#0443b1:0000001323000000
#044391:0000000000132300
#044391:00000000000000000000000000130000
#045391:23
#045320:1454545454545454240000000000000000000000000000000000000000000000
#045330:00540054005400540054005400540054000000000000000000000000000000000000000000000000000000000000000000000000000000000000000000000000
#045371:0000132300000000
#045361:0000000000130000
#045321:00000000000000000000000000230000
#0453b0:00000000000000000000000000130000
#046370:23
#046370:00130000000000000000000000000000
#0463b0:00230000
#046321:0000133435260000
#046331:00000000003400350036000000000000
#0463a0:0000000000000000000000000000000000000000145454545454240000000000
#046390:00000000000000000000000000000000000000000000000000000000000000000000000000000000005400540054005400540054000000000000000000000000
#047320:1656565656565656260000000000000000000000000000000000000000000000
#047330:00560056005600560056005600560056000000000000000000000000000000000000000000000000000000000000000000000000000000000000000000000000
#0473b1:00130000
#047391:00000000003400003500000000000000
#0473a1:0000003400000000
#047381:00000000000000350000260000000000
#047371:00000000000000000036000000000000
#047320:0000000000000000000000000000000000000000145454545454240000000000
#047330:00000000000000000000000000000000000000000000000000000000000000000000000000000000005400540054005400540054000000000000000000000000
#048380:1656565656565656565656563600000000000000260000000000000000000000
#048370:00560056005600560056005600560056005600560056005600000000000000000000000000000000000000000000000000000000000000000000000000000000
#048360:000000000000000000000000000000000000000000000000000000000000000000000000000000000000000000000000000000000000000000000000000000000000000000000000000000000000000000000000000000000000000000000000000000000000000000000000000000000000000000000000000000000000000000000000000000000000000000000000000000000000000000000000000000000000000000000000000000000000000000000000000000000000000000000000000000000000000000000000000000000000000000000000000000000000000000000000000000000000000000000000000000000000000000000000000000000000000000000000000000000000000000000000000000000000000000000000000000000000000000000000000000000000000000000000000000000000000000000000000000000000000000000000000000000000000000000000000000000000000000000000000000000000000000000000000000000000000000000000000000000000000000000000000000000000000000000000000000000000000000000000000000000000000000000000000000000000000000000000000000000000000000000000000000000000000000000000000000000000000000000000000000000000000000000000000000000000000000000000000000000000000000000000000000000000000000000000000000000000000000000000000000000000000000000000000000000000000000000000000000000000000000000000000000000000000000000000000000000000000000000000000000000000000000000000000000000000000000000000000000000000000000000000000000000000000000000000000000000000000000000000000000000000000000000000000000000000000000000000000000000000000000000000000000000000000000000000000000000000000000000000000000000000000000000000000000000000000000000000000000000000000000000000000000000000000000000000000000000000000000000000000000000000000000000000000000000000000000000000000000000000000000000000000000000000000000000000000000000000000000000000000000000000000000000000000000000000000000000000000000000000000000000000000000000000000000000000000000000000000000000000000000000000000000000000000000000000000000000000000000000000000000000000000000000000000000000000000000000000000000000000005600000000000000000000000000000000000000000000000000000000000000000000000000000000000000000000000000000000000000000000000000000000000000000000000000000000000000000000000000000000000000000000000000000000000000000000000000000000000000000000000000000000000000000000000000000000000000000000000000000000000000000000000000000000000000000000000000000000000000000000000000000000000000000000000000000000000000000000000000000000000000000000000000000000000000000000000000000000000000000000000000000000000000000000000000000000000000000000000000000000000000000000000000000000000000000000000000000000000000000000000000000000000000000000000000000000000000000000000000000000000000000000000000000000000000000000000000000000000000000000000000000000000000000000000000000000000000000000000000000000000000000000000000000000000000000000000000000000000000000000000000000000000000000000000000000000000000000000000000000000000000000000000000000000000000000000000000000000000000000000000000000000000000000000000000000000000000000000000000000000000000000000000000000000000000000000000000000000000000000000000000000000000000000000000000000000000000000000000000000000000000000000000000000000000000000000000000000000000000000000000000000000000000000000000000000000000000000000000000000000000000000000000000000000000000000000000000000000000000000000000000000000000000000000000000000000000000000000000000000000000000000000000000000000000000000000000000000000000000000000000000000000000000000000000000000000000000000000000000000000000000000000000000000000000000000000000000000000000000000000000000000000000000000000000000000000000000000000000000000000000000000000000000000000000000000000000000000000000000000000000000000000000000000000000000000000000000000000000000000000000000000000000000000000000000000000000000000000000000000000000000000000000000000000000000000000000000000000000000000000000000000000000000000000000000000000000000000000000000000000
#048321:0000001600260000
#048341:0056
#049361:00140000000000000000000000000000
#0493a1:00240000
#0503a1:0014000000000000
#050361:00000000003424000000000000000000
#050361:0000000000140000
#0503a1:00000000000000000000000000240000
#051321:0014000000000000
#051361:0000002400000000
#051361:00000000000000000000000000140000
#052321:5434000000000000
#052361:0000002400000000
#052360:0014000000000000
#0523a0:0000002400000000
#053360:00140000000000000000000000000000
#053320:00240000
#054320:0014000000000000
#054360:00000000003424000000000000000000
#054360:0000000000140000
#054320:00000000000000000000000000240000
#0553a0:0014000000000000
#055360:0000002400000000
#055360:000000000000000000000000000000000000000000000014
#0563a0:0034000000000000
#056390:003400000000
#056380:000000000034000000000000000000000000000000000000
#056370:000000000000343434250000000000000000000000000000
#056321:0000001500000000
#056331:000000000035000000000000
#056341:000000000000000000000035000000260000000000000000
#056351:000000000000000000000000353535000000000000000000
#0563a0:0000000000140000
#056360:0000000000000024
#057320:00140000000000000000000000000000
#057360:00240000
#058360:0014000000000000
#058320:00000000003424000000000000000000
#0583a0:0000000000140000
#058360:00000000000000000000000000240000
#059320:0015552500000000
#059330:0000000000550055005500550000000000000000000000000000000000000000
#059340:000000000000000000000000000000000000000000000000000000000000000000000000000000000000000000000000000000000000000000000000000000000000000000000000000000000000000000000000000000000000000000000000000000000000000000000000000000000000000000000000000000000000000000000000000000000000000000000000000000000000000000000000000000000000000000000000000000000000000000000000000000000000000000000000000000000000000000000000000000000000000000000000000000000000000000000000000000000000000000000000000000000000000000000000000000000000000000000000000000000000000000000000000000000000000000000000000000000000000000000000000000000000000000000000000000000000000000000000000000000000000000000000000000000000000000000000000000000000000000000000005500000000000000000000000000000000000000000000000000000000000000000000000000000000000000000000000000000000000000000000000000000000000000000000000000000000000000000000000000000000000000000000000000000000000000000000000000000000000000000000000000000000000000000000000000000000000000000000000000000000000000000000000000000000000000000000000000000000000000000000000000000000000000000000000000000000000000000000000000000000000000000000000000000000000000000000000000000000000000000000005500000000000000000000000000000000000000000000000000000000000000000000000000000000000000000000000000000000000000000000000000000000000000000000000000000000000000000000000000000000000000000000000000000000000000000000000000000000000000000000000000000000000000000000000000000000000000000000000000000000000000000000000000000000000000000000000000000000000000000000000000000000000000000000000000000000000000000000000000000000000000000000000000000000000000000000000000000000000000000000000000000000000000000000000000000000000000000000000000000000000000000000000000000000000000000000000000000000000000000000000000000000000000000000000000000000000000000000000000000000000000000000000000000000000000000000000000000000000000000000000000000000000000000000000000000000000000000000000000000000000000000000000000000000000000000000000000000000000000000000000000000000000000000000000000000000000000000000000000000000000000000000000000000000000000000000000000000000000000000000000000000000000000000000000000000000000000000000000000000000000000000000000000000000000000000000000000000000000000000000000000000000000000000000000000000000000000000000000000000000000000000000000000000000000000000000000000000000000000000000000000000000000000000000000000000000000000000000000000000000000000000000000000000000000000000000000000000000000000000000000000000000000000000000000000000000000000000000000000000000000000000000000000000000000000000000000000000000000000000000000000000000000000000000000000000000000000000000000000000000000000000000000000000000000000000000000000000000000000000000000000000000000000000000000000000000000000000000000000000000000000000000000000000000000000000000000000000000000000000000000000000000000000000000000000000000000000000000000000000000000000000000000000000000000000000000000000000000000000000000000000000000000000000000000000000000000000000000000000000000000000000000000000000000000000000000000000000000000000000000000000000000000000000000000000000000000000000000000000000000000000000000000000000000000000000000000000000000000000000000000000000000000000000000000000000000000000000000000000000000000000000000000000000000000000000000000000000000000000000000000000000000000000000000000000000000000000000000000000000000000000000000000000000000000000000000000000000000000000000000000000000000000000000000000000000000000000000000000000000000000000000000000000000000000000000000000000000000000000000000000000000000000000000000000000000000000000000000000000000000000000000000000000000000000000000000000000000000000000000000000000000000000000000000000000000000000000000000000000000000000000000000000000000000000000000000000000000000000000000000
#059391:0015552500000000
#059381:0000000000550055005500550000000000000000000000000000000000000000
#059371:00000055005500000000000000000000
#0593a1:0000000000140000
#059361:0000000000000054
#0603a1:0024000000000000
#060320:0014000000340000
#060360:0000005400000000
#060350:000000000000000000000000000000000054000000540000
#060330:000000000000000000000000000000000000005400000054
#061350:005400000000000000000000000000000000000000000000
#061340:0034000000000000
#061320:0000000000240000
#0603a1:0000000000140000
#060371:000000000000000000000000000000000000000000000000000000000000000000000000000000000000000000000000000000000000000000000000000000000000000000000000000000000000000000000000000000000000000000000000000000000000000000000000000000000000000000000000000000000000000000000000000000000000000000000000000000000000000000000000000000000000000000000000000000000000000000000000000000000000000000000000000000000000000000000000000000000000000000000000000000000000000000000000000000000000000000000000000000000000000000000000000000000000000000000000000000000000000000000000000000000000000000000000000000000000000000000000000000000000000000000000000000000000000000000000000000000000000000000000000000000000000000000000000000000000000000000000000000000000000000000000000000000000000000000000000000000000000000000000000000000000000000000000000000000000000000000000000000000000000000000000000000000000000000000000000000000000000000000000000000000000000000000000000000000000000000000000000000000000000000000000000000000000000000000000000000000000000000000000000000000000000000000000000000000000000000000000000000000000000000000000000000000000000000000000000000000000000000000000000000000000000000000000000000000000000000000000000000000000000000000000000000000000000000000000000000000000000000000000000000000000000000000000000000000000000000000000000000000000000000000000000000000000000000000000000000000000000000000000000000000000000000000000000000000000000000000000000000000000000000000000000000000000000000000000000000000000000000000000000000000000000000000000000000000000000000000000000000000000000000000000000000000000000000000000000000000000000000000000000000000000000000000000000000000000000000000000000000000000000000000000000000000000000000000000000000000000000000000000000000000000000000000000000000000000000000000000000000000000000000000000000000000000000000000000000000000000000000000000000000000000000000000000000000000000000000000000000000000000000000000000000000000000000000000000000000000000000000000000000000000000000000000000000000000000000000000000000000000000000000000000000000000000000000000000000000000000000000000000000000000000000000000000000000000000000000000000000000000000000000000000000000000000000000000000000000000000000000000000000000000000000000000000000000000000000000000000000000000000000000000000000000000000000000000000000000000000000000000000000000000000000000000000000000000000000000000000000000000000000000000000000000000000000000000000000000000000000000000000000000000000000000000000000000000000000000000000000000000000000000000000000000000000000000000000000000000000000000000000000000000000000000000000000000000000000000000000000000000000000000000000000000000000000000000000000000000000000000000000000000000054000000000000000000000000000000000000000000000000000000000000000000000000000000000000000000000000000000000000000000000000000000000000000000000000000000000000000000000000000000000000000000000000000000000000000000000000000000000000000000000000000000000000000000000000000000000000000000000000000000000000000000000000000000000000000000000000000000000000000000000000000000000000000000000000000000000000000000000000000000000000000000000000000000000000000000000000000000000000000000000000000000000000000000000000000000000000000000000000000000000000000000000000000000000000000000000000000000000000000000000000000000000000000000000000000000000000005400000000000000000000000000000000000000000000000000000000000000000000000000000000000000000000000000000000000000000000000000000000000000000000000000000000000000000000000000000000000000000000000000000000000000000000000000000000000000000000000000000000000000000000000000000000000000000000000000000000000000000000000000000000000000000000000000000000000000000000000000000000000000000000000000000000000000000000000000000000000000000000000000000000000000000000000000000000000000000000
#060391:000000000000000000000000000000000000005400000054
#061371:00000000000000000000000000000000000000000000000000000054000000000000000000000000000000000000000000000000000000000000000000000000000000000000000000000000000000000000000000000000000000000000000000000000000000000000000000000000000000000000000000000000000000000000000000000000000000000000000000000000000000000000000000000000000000000000000000000000000000000000000000000000000000000000000000000000000000000000000000000000000000000000000000000000000000000000000000000000000000000000000000000000000000000000000000000000000000000000000000000000000000000000000000000000000000000000000000000000000000000000000000000000000000000000000000000000000000000000000000000000000000000000000000000000000000000000000000000000000000000000000000000000000000000000000000000000000000000000000000000000000000000000000000000000000000000000000000000000000000000000000000000000000000000000000000000000000000000000000000000000000000000000000000000000000000000000000000000000000000000000000000000000000000000000000000000000000000000000000000000000000000000000000000000000000000000000000000000000000000000000000000000000000000000000000000000000000000000000000000000000000000000000000000000000000000000000000000000000000000000000000000000000000000000000000000000000000000000000000000000000000000000000000000000000
#061381:0034000000000000
#0613a1:0000000000240000
#065321:0000000000000000000000000000000000000000000000001454545454542400
#065331:00000000000000000000000000000000000000000000000000000000000000000000000000000000000000000000000000540054005400540054005400000000
#0653a0:0000000000000000000000000000000000000000000000000000000000001454
#065390:00000000000000000000000000000000000000000000000000000000000000000000000000000000000000000000000000000000000000000000000000540054
#0663a0:5454545424000000000000000000000000000000000000000000000000000000
#066390:00540054005400540000000000000000000000000000000000000000000000000000000000000000000000000000000000000000000000000000000000000000
#066341:0000000014545454545424000000000000000000000000000000000000000000
#066331:00000000000000000054005400540054005400540000000000000000000000000000000000000000000000000000000000000000000000000000000000000000
#066380:0000000000000000000014545454545424000000000000000000000000000000
#066390:00000000000000000000000000000000000000000054005400540054005400540000000000000000000000000000000000000000000000000000000000000000
#0663a0:0000000000000000000000000000000000000000000000001454545454542400
#066390:00000000000000000000000000000000000000000000000000000000000000000000000000000000000000000000000000540054005400540054005400000000
#066321:0000000000000000000000000000000000000000000000000000000000001454
#066331:00000000000000000000000000000000000000000000000000000000000000000000000000000000000000000000000000000000000000000000000000540054
#067321:5454545424000000000000000000000000000000000000000000000000000000
#067331:00540054005400540000000000000000000000000000000000000000000000000000000000000000000000000000000000000000000000000000000000000000
#067380:0000000014545454545424000000000000000000000000000000000000000000
#067390:00000000000000000054005400540054005400540000000000000000000000000000000000000000000000000000000000000000000000000000000000000000
#067341:0000000000000000000014545454545424000000000000000000000000000000
#067331:00000000000000000000000000000000000000000054005400540054005400540000000000000000000000000000000000000000000000000000000000000000
#067321:0000000000000000000000000000000000000000000000001454545424000000
#067331:00000000000000000000000000000000000000000000000000000000000000000000000000000000000000000000000000540054005400540000000000000000
#067341:0000000000000000000000000000000000000000000000000000000000001454
#067351:00000000000000000000000000000000000000000000000000000000000000000000000000000000000000000000000000000000000000000000000000540054
#068341:5454240000000000000000000000000000000000000000000000000000000000
#068351:00540054000000000000000000000000000000000000000000000000000000000000000000000000000000000000000000000000000000000000000000000000
#068341:0014000000000000
#068361:00000000002400000000000000000000
#0683a0:0000000000000000000014545454240000000000000000000000000000000000
#068390:00000000000000000000000000000000000000000054005400540054000000000000000000000000000000000000000000000000000000000000000000000000
#068380:0000000000000000000000000000000014545454240000000000000000000000
#068370:00000000000000000000000000000000000000000000000000000000000000000054005400540054000000000000000000000000000000000000000000000000
