This file was generated by Ched 2.7.0.0.
#TITLE ""
#ARTIST ""
#DESIGNER ""
#DIFFICULTY 0
#PLAYLEVEL
#SONGID ""
#WAVE ""
#WAVEOFFSET 0
#JACKET ""
#REQUEST "ticks_per_beat 480"
#00002: 4
#BPM01: 100
#BPM02: 135
#00008: 01
#00608: 0000000000020000
#TIL00: ""
#VOLUME: ""
#HISPEED 00
#MEASUREHS 00
#01112:00000013
#01118:0000000000130000
#01115:00130000000000001300000000000000
#0111b:0000001300000013
#01215:1300000000130000
#01218:00000013
#01212:0000000000000023
#0121b:0000000000000023
#0151b:0000000000130000
#01518:1300001300000000
#01512:0013
#01515:00001300000000000000000013330000
#01715:00130000
#0171b:0013000000130000
#01712:0013
#01718:00000000001300000000000000000000
#03212:0000000000130000
#03218:13001313
#03215:00130000000013000000000000001300
#0321b:00130000
#0331b:13
#03318:0000000000140000
#03314:00000000000000000000000000140000
#03315:0013000000000000
#03112:0000000000000013
#03115:0000000000290000
#03110:0000000000410000
#03415:00000013
#0341b:0000001300130000
#03412:0013000013000000
#03418:14000000000000000000000000130000
#05714:1414
#0571a:0000000000140000
#05718:00140000000014000000000014000000
#05716:0000000000000014
#05712:00140000
#05814:14
#05812:0014000000000000
#0581a:0000000000140000
#05816:00000000000000000000000000140000
#04918:1300001300001300
#04915:00130000000000001300000000001300
#0491b:00130000
#04912:0000000000130000
#04910:0000000000410000
#0501b:13
#05012:0013000000000000
#0501a:0000000000140000
#05016:00000000000000000000000000140000
#00618:0000000000230013
#00614:00000000001300000000000000000000
#00619:00000000001300000000000000000000
#00615:0000000000230000
#00610:0000000000410000
#01918:13000000000000000000000013330000
#01912:0013000000130000
#0191b:0013
#02112:0013000000000000
#02118:0000000000130000
#02115:0000000000130000
#02114:00000000003300000000000000000000
#02315:13000013
#02312:0013
#0231b:0000000000130000
#02318:00000000000000000000000000130000
#02418:0013000000000000
#02412:13
#0261b:0000000000130000
#02618:0000002300000013
#02615:0000002300000000
#02715:0013000000130013
#02712:0000001300000000
#0271b:0013
#02718:00000013
#02818:1300001300000000
#02815:0013001300000000
#02812:0000000000230000
#0281b:0000000000230000
#03512:1300000000260000
#0351b:0013000000000013
#03518:0000002300000000
#03819:00000013
#03818:00000000000000000000000000000013
#03812:0000001300000000
#0381b:0013000013000000
#03814:1400000000240000
#03813:00000000000000000000000000240000
#04812:0016000000000013
#0481b:0000000000000013
#04818:26
#04815:0000000000260000
#0481f:0000000000210000
#05112:1400000000130000
#0511b:0000000000130000
#0511a:0014000000000000
#05115:0000001300001300
#05118:00000000000000001300000000130000
#0601b:0000001300000013
#06018:0024000000140000
#06012:0000000000000013
#06014:0000000000240000
#02912:0013000000000000
#0291b:0013000000000000
#02918:00000000003300000000130000001400
#02915:00000000003300000000000013000000
#0051b:00000013
#00512:00000013
#00712:0013000000240000
#00715:0000001300000000
#0071a:0000000000140000
#00717:0000000000000014
#0071b:0023000000000000
#00812:0014000000250000
#00815:0000001400000000
#00819:0000000000150000
#00816:0000000000000015
#0081a:0024000000000000
#00912:0015000000260000
#00915:0000001500000016
#00918:0000000000160000
#00919:0025000000000000
#01012:0000160016000013
#01018:0026001600260000
#01318:00001300000000000000240000240000
#01315:00000000130000000000000013000013
#0131b:0000002300000000
#01312:0000002300000000
#01415:0000000000000013
#01418:240000003434000000000000000000000000000000000000
#0141a:000000000000003434343434343434240000000000000000
#01419:00340000
#01410:0000000000410000
#01612:0013000000000000
#01618:0013
#01615:0000000000130000
#01818:0013000000000000
#01815:0000000000130000
#02015:0013
#02018:0000000000130000
#0201b:0013000000000000
#02218:0013001300000000
#02215:00131300
#02210:0000000000410000
#02518:13
#0251b:0013
#03014:14
#03018:0015001600160000
#03013:00150000
#03012:0016
#0361b:0000000000130000
#03615:13001313
#03618:00130000000013000000000000001300
#03612:00130000
#03712:13
#03714:0000000000140000
#03718:00001300000000000000000000140000
#04418:13
#0441b:0013
#04512:0013
#04515:0000001300000000
#04518:00130000
#0461b:0013
#04618:0000001300000000
#04615:00130000
#04612:0000000000240000
#0461a:00000000000000000000000000240000
#04712:24000000000000001400000000260000
#04716:0000001400000000
#0471a:00140000
#04718:0000000000260000
#0521b:0013000000000013
#05212:1300000000260013
#05218:0000002300000000
#05315:1300001300001300
#05318:00130000000000001300000000001300
#05312:00130000
#0531b:0000000000130000
#05412:1300000000140000
#0541b:0013000000000000
#05416:00000000000000000000000000140000
#0551a:1400000000240000
#05512:00001400000000000000000000000014
#05518:00000000000013000000000000240000
#05515:0013
#05514:00000014
#05612:0000000000000014
#0561a:000000000000003434343434343434000000000000140000
#05616:24
#05617:003400000000
#05618:000000000034000000000000000000000000000000000000
#05619:00340000
#05912:1400000000000013
#0591a:0014000000000000
#05914:0000001400140000
#05918:0014
#06918:00001400002500002600000000000000
#06913:00000000001500000000000000000000
#06914:0024000000000000
#06912:0026
#06812:00000014
#0681a:00000000000000000000000000000014
#0391f:0000000000110000
#03912:24
#03913:003400000000
#03914:000000000034000000000000000000000000000000000000
#03915:00340000
#03916:000000000000003434343434343434000000000000000000
#06218:0024000000000000
#0621a:0000000000240000
#06212:0000000000240000
#06312:0000000000260000
#06318:0000002400260000
#06314:0024000000000000
#04312:0000000000260000
#06414:0024000000000000
#06412:0000000000240000
#0641a:0000000000240000
#06514:0000002400000000
#06518:0024000000000000
#06110:0000000000410000
#00218:53
#00318:0053
#00315:53
#01555:00000063
#02152:0053000000000013
#02158:0000000000530000
#02155:0000000000630000
#0215b:0000000000000013
#02458:0053000000000000
#0605b:0000002300000023
#06058:0054000000540000
#06052:0000000000000023
#06054:0000000000640000
#02952:0053000000000000
#0295b:0063000000000000
#0055b:00000023
#00552:00000023
#00654:00000000005300000000000000000000
#00659:00000000006300000000000000000000
#00658:0000000000130000
#00655:0000000000130000
#01652:0053000000000000
#01655:0000000000630000
#0175b:0000000000630000
#01858:0053000000000000
#01855:0000000000630000
#02058:0000000000530000
#0205b:0063000000000000
#01952:0053000000000000
#01958:00000053
#0255b:0063
#02855:0000006300000000
#02858:0000005300000000
#02852:0000000000130000
#0285b:0000000000130000
#03058:0000000000660000
#03355:0063000000000000
#03352:0000001300000000
#0355b:0063000000000000
#03558:0000001300000000
#03552:0000000000160000
#03758:0053000000000000
#0375b:0000001300000000
#04852:0056000000000000
#04858:16
#04855:0000000000160000
#05052:0053000000000000
#05055:0000001300000000
#0525b:0063000000000000
#05258:0000001300000000
#05252:0000000000160000
#0545b:0063000000000000
#05458:0000001300000000
#05852:0054000000000000
#05856:0000001400000000
#05954:0000000000640000
#05952:0000000000000023
#01052:0000000000000053
#01058:0000000000160000
#01155:00630000000000000000000000000000
#0145a:0000000000140000
#02658:0000001300000000
#02655:0000001300000000
#03155:0000000000190000
#04652:0000000000140000
#0465a:00000000000000000000000000140000
#04658:13
#04758:0000000000160000
#04752:14000000000000000000000000160000
#06352:0000000000160000
#06358:0000000000160000
#04352:0000000000160000
#06958:0016
#06952:0016
#04555:13
#06158:0000000000160000
#06152:0000000000160000
#01258:0000001300000000
#05658:0000000000160000
#0665a:0014
#06752:0015
#06858:0016
#001380:13
#0013a0:0033
#002380:23
#002351:13
#002331:0033
#003351:23
#003380:1323
#003351:0013
#004351:53
#005321:00000053
#006341:00000000005300000000000000000000
#006351:0000000000230000
#004380:13
#0053b0:00000053
#006390:00000000005300000000000000000000
#006380:0000000000230000
#010320:0000000000000013
#011350:33330000000000000000000000000000
#011320:00230000
#012380:0013002300000000
#014380:140000343434000000000000000000000000000000000000
#014390:00340000
#0143a0:000000000000003434343434343434240000000000000000
#015350:00000000000000000000000013330000
#016320:3333000000000000
#016350:0000002300000000
#016350:0000000000130000
#016320:0000000000000023
#0173b0:0000000000130000
#018380:3333000000000000
#0183b0:0000002300000000
#018350:0000000000130000
#018320:0000000000000023
#019320:0013000000000000
#019350:0000002300000000
#019380:00000000000000000000000013330000
#0203b0:3333000000000000
#020380:0000002300000000
#020380:0000000000130000
#0203b0:0000000000000023
#021320:0013000000000023
#021340:00000000003300000000000000000000
#021350:0000000033330000
#021381:0000000000130000
#0213b1:0000000000000023
#0223b1:0000000000130023
#023381:0013002300000000
#024381:0013000000000000
#0243b1:0000002300000000
#024321:0000000000130023
#025351:0013002300000000
#0253b1:0013
#025381:0000000000000033
#026381:0000002300000000
#025350:0000000000000013
#026350:0000002300000000
#028350:0000001300000000
#028320:0000000000230000
#028381:0000001300000000
#0283b1:0000000000230000
#029321:0013000000000000
#029351:00000000003300002300000000000000
#0293b0:0013000000000000
#029380:00000000003300002300000000000000
#030380:0000000000160000
#031380:0053000000000000
#031350:0000000000290000
#033350:0013000000000000
#033320:0000002300000000
#0353b0:0013000000000000
#035380:0000002300000000
#037380:0013000000000000
#0373b0:0000002300000000
#039320:1434000000000000
#039330:003400000000
#039340:000000000034000000000000000000000000000000000000
#039350:0000340000260000
#039360:000000000000003434343434343434000000000000000000
#0393b1:0000000000133333
#0393a1:00000000000000000000003300330033
#0403b1:3333333333230000
#0403a1:00330033003300330033000000000000
#040320:0000000000143434
#040330:00000000000000000000003400340034
#041320:3434343434240000
#041330:00340034003400340034000000000000
#041391:0000000000153535
#041381:00000000000000000000003500350035
#042391:3535353535250000
#042381:00350035003500350035000000000000
#042320:0000000000163636
#042330:00000000000000000000003600360036
#043320:3636363636260000
#043330:00360036003600360036000000000000
#044320:00001353535323000000000000000000
#044330:0000000000530053005300530000000000000000000000000000000000000000
#044350:0000000000130000
#044320:00000000000000000000000000330000
#045350:23
#045380:0000000000130000
#0453b0:00000000000000000000000000330000
#046380:23
#048320:0016000000000000
#048350:0000000000260000
#050320:0013000000000000
#050350:0000002300000000
#0523b0:0013000000000000
#052380:0000002300000000
#0543b0:0013000000000000
#054380:0000002300000000
#056360:1434000000000000
#056370:003400000000
#056380:000000000034000000000000000000260000000000000000
#056390:00340000
#0563a0:000000000000003434343434343434000000000000000000
#058320:0014000000000000
#058360:0000002400000000
#059340:0000000000140000
#059320:0000000000000053
#060340:0024000000000000
#060381:0014000000340000
#0603b1:0000005300000053
#061381:0034000000260000
#060340:0000000000140000
#060320:0000000000000053
#061340:0034000000000000
#061320:0000000000260000
#0653a0:0000000000143400
#065380:00000000000000000000000000000034
#0663a0:0034000024000000
#066380:00000000003400000000000000000000
#066320:00000015
#066340:00000000000000000000000000000035
#067320:0035000025000000
#067340:00000000003500000000000000000000
#067380:00000016
#067360:00000000000000000000000000000036
#068380:0036000026000000
#068360:00000000003600000000000000000000
