This file was generated by Ched 2.7.0.0.
#TITLE ""
#ARTIST ""
#DESIGNER ""
#DIFFICULTY 0
#PLAYLEVEL
#SONGID ""
#WAVE ""
#WAVEOFFSET 0
#JACKET ""
#REQUEST "ticks_per_beat 480"
#00002: 4
#BPM01: 100
#BPM02: 135
#00008: 01
#00608: 0000000000020000
#TIL00: ""
#VOLUME: ""
#HISPEED 00
#MEASUREHS 00
#0571a:0014001400000000
#05716:0000000000140000
#05712:0000000000000014
#05714:00140000
#03318:0000000000140000
#03314:0000000000000014
#03312:0014000000000000
#00714:0014000000000014
#00718:0000000000140000
#00818:0014000000000000
#00813:0000000000140000
#00819:0000000000000014
#00913:0014000000000000
#0091a:0000000000140000
#00912:0000000000000014
#02318:0000000000140000
#02314:0000000000000014
#02818:0000001400000000
#02814:0014000000000000
#02812:0000000000000014
#0281a:0000000000240000
#03018:0014000000140000
#03014:0000001400000000
#0521a:0014000000000014
#05212:0000000000260000
#05612:0000000000000014
#05618:0000000000260000
#05918:0000001400140000
#05914:3414
#00512:0000001400000000
#00613:14
#00618:0000000000000014
#00614:0000000000240000
#00610:0000000000410000
#01012:0000000000000014
#01018:0000000000260000
#0101a:0000003400000000
#01118:0014000000000000
#0111a:0000000000140000
#01112:0000000000000014
#01114:0000001400000000
#01218:0014000000000000
#01214:0000001400000000
#01412:0000000000000014
#01418:14
#01410:0000000000410000
#0151a:0014000000000000
#01512:0000001400000000
#01518:0000000000140000
#01514:0000000000000014
#01618:0014000000000000
#01612:0000000000140000
#0161a:0000000000000014
#0181a:0000000000140000
#01814:0014000000000014
#01918:0014000000140000
#01912:0000001400000000
#01914:0000000000000014
#0201a:0014000000000000
#02012:0000000000140000
#02018:0000000000000014
#02114:0014000000140000
#0211a:0000001400000000
#01712:0014000000000000
#0171a:0000001400000000
#01714:0000000000140000
#01718:0000000000000014
#02218:0014000000000000
#02214:0000001400000000
#02210:0000000000410000
#02418:0014000000000000
#02514:0000000000000014
#0261a:0000000000140000
#02616:0000000000000014
#02612:0000002400000000
#02712:0014000000000000
#02718:0000001400000014
#02714:0000000000140000
#0291a:0014000000000000
#02912:0000001400000000
#02918:0000000000140000
#02914:0000000000000014
#03116:0014000000000000
#03114:0000000000000014
#03118:0000000000260000
#03110:0000000000410000
#03218:0014000000000000
#03212:0000001400000000
#0321a:0000000000140000
#03216:0000000000000014
#0341a:0014000000000000
#03412:0000001400000000
#03418:0000000000140000
#03414:0000000000000014
#03518:0014000000000014
#03512:0000000000260000
#03714:0000000000140000
#03718:0000000000000014
#0371a:0014000000000000
#03614:0014000000000000
#0361a:0000001400000000
#03612:0000000000140000
#03616:0000000000000014
#03812:0014000000000000
#0381a:0000001400000000
#0431a:0000000000000014
#04312:0000000000260000
#04412:0000000000140000
#04416:0000000000000014
#04414:0014000000000000
#04418:0000001400000000
#0451a:0014000000000000
#04512:0000001400000000
#04518:0000000000140000
#04514:0000000000000014
#0461a:0014000000000000
#04616:0000001400000000
#04612:0000000000240000
#04716:0000001400000000
#0471a:0000000000240000
#04719:00000000000000000000000000340000
#04812:0000000000000014
#0481f:0000000000210000
#04818:34
#04916:0014000000000000
#0491a:0000001400000014
#04914:0000000000140000
#04910:0000000000410000
#05016:0014000000000000
#05012:0000001400000000
#05018:0000000000140000
#05014:0000000000000014
#0511a:0014000000000000
#05112:0000000000140000
#05116:0000001400000014
#05316:0014000000000000
#05312:0000001400000014
#05318:0000000000140000
#05416:0014000000000000
#0541a:0000001400000000
#05414:0000000000140000
#05418:0000000000000014
#05512:0014000000000000
#05516:0000001400000000
#0581a:0000001400000000
#05818:14
#05812:0014000000000000
#05813:00000000000000000000000000340000
#0601a:0000000000140000
#06014:0024000000000000
#0391f:0000000000110000
#06212:0026000000000000
#06218:0000000000260000
#06312:0000000000260000
#06318:0000002400000000
#06314:0024000000000000
#06915:00000000003600002600000000000000
#06914:0036000000000000
#0131a:0000000000240000
#06118:0000000000260000
#06110:0000000000410000
#06418:0026000000000000
#06412:0000000000260000
#06514:0000002400000000
#06518:0024000000000000
#06813:00000000000000000000000000000036
#06812:00000036
#02858:0000005400000000
#0285a:0000000000140000
#03058:0000000000640000
#0525a:0064000000000000
#05252:0000000000160000
#05958:0000000000540000
#05954:0014000000000000
#01058:0000000000160000
#06352:0000000000160000
#04352:0000000000160000
#06054:0064000000000000
#0605a:0000000000640000
#06955:0016
#0125a:0000000000000014
#00552:0000002400000000
#00653:54
#00654:0000000000140000
#01352:0000001400000000
#01458:54
#0145a:0000000000140000
#02154:0000000000640000
#02152:0000000000000014
#02652:0000001400000000
#02554:0000000000000064
#03158:0000000000160000
#03156:0024000000000000
#03352:0054000000000000
#03354:0000001400000000
#03558:0054000000000000
#03552:0000000000160000
#0375a:0064000000000000
#03758:0000001400000000
#03952:14
#04754:14
#05658:0000000000160000
#06158:0000000000160000
#06658:0000001400000000
#06754:0000001500000000
#06856:0000001600000000
#04858:0000000000160000
#001380:1424
#002340:1424
#0033a0:1424
#004320:16
#005320:0000005400000000
#006330:54
#006340:0000000000240000
#0103a0:0014003400000000
#010380:0000000000260000
#0123a0:0000000000140024
#013320:0014002400000000
#0133a0:0000000000140000
#013390:00000000000000000000000000340000
#014380:34
#0143a0:0000000000240000
#021340:0000000000140000
#021320:0000000000000024
#0223a0:0000000000140024
#023320:0014002400000000
#024320:0000000000140024
#0253a0:0014002400000000
#025340:0000000000140034
#026320:0000002400000000
#028380:0000001400000000
#0283a0:0000000000240000
#030380:0000000000140000
#031360:0054000000000000
#031380:0000000000260000
#033320:0014000000000000
#033340:0000002400000000
#035380:0014000000000000
#0353a0:0000002400000000
#0373a0:0014000000000000
#037380:0000002400000000
#038340:0000000000140000
#038330:00000000000000000000000000340000
#039320:24
#0393a0:0000000000140000
#039380:0000000000000034
#0403a0:0034000000000000
#040380:0000002400000000
#040320:0000000000140000
#040340:0000000000000034
#041320:0034000000000000
#041340:0000002400000000
#041390:0000000000150000
#041370:0000000000000035
#042390:0035000000000000
#042370:0000002500000000
#042320:0000000000160000
#042340:0000000000000036
#043320:0036000000260000
#043340:0000003600000000
#046320:0000000000140000
#046330:00000000000000000000000000340000
#047340:24
#0473a0:0000000000140000
#047390:00000000000000000000000000340000
#048380:3434000000260000
#0523a0:0014000000000000
#052380:0000002400000000
#0553a0:0000000000140000
#055380:00000000000000000000000000340000
#056360:34
#056380:0000000000260000
#058320:0000000000140000
#058330:00000000000000000000000000340000
#059340:3424000000000000
#059380:0000000000140000
#0593a0:0000000000000024
#060340:0014000000000000
#060320:0000002400000000
#0603a0:0000000000140000
#061360:0034000000000000
#061380:0000000000260000
#0653a0:0000000000140000
#065380:0000000000000034
#0663a0:0034000000000000
#066380:0000002400000000
#066320:0000000000150000
#066340:0000000000000035
#067320:0035000000000000
#067340:0000002500000000
#067380:0000000000160000
#067360:0000000000000036
#068380:0036000000000000
#068360:0000002600000000
#068320:0000000000163600
#068330:00000000000000000000000000000036
#069340:0036000000000000
#069350:00000000003600002600000000000000
