This file was generated by Ched 2.7.0.0.
#TITLE ""
#ARTIST ""
#DESIGNER ""
#DIFFICULTY 0
#PLAYLEVEL
#SONGID ""
#WAVE ""
#WAVEOFFSET 0
#JACKET ""
#REQUEST "ticks_per_beat 480"
#00002: 4
#BPM01: 153
#00008: 01
#TIL00: ""
#VOLUME: ""
#HISPEED 00
#MEASUREHS 00
#00918:14
#00910:41
#01014:14
#01118:14
#01214:14
#01718:14
#01818:14
#01914:14
#02014:14
#0211a:14
#02110:41
#0221a:14
#02312:14
#02412:14
#0131a:14
#01412:14
#0151a:14
#01510:41
#01612:14
#03412:1616
#03410:41
#03518:16
#03512:0016
#03318:2616
#0331f:21
#03818:1616
#03912:16
#03918:0016
#03712:2616
#04112:0016
#04118:26
#04218:16
#04212:0016
#04318:16
#04312:0016
#04310:41
#04518:0016
#04512:26
#04612:16
#04618:0016
#04712:16
#04718:0016
#0251f:11
#04919:0034
#04910:41
#0501a:34
#05113:0034
#05212:34
#05319:0034
#05418:34
#05513:0034
#05614:34
#001380:14
#0023a0:34
#0033a0:34
#004380:24
#005340:14
#006320:34
#007320:34
#008340:24
#025380:14
#025390:0034
#0263a0:3434
#0273a0:34
#027390:0034
#028380:24
#029340:14
#029330:0034
#030320:3434
#031320:34
#031330:0034
#032340:24
#036380:16362600
#040320:1626
#044380:16362600
#048320:1626
#049380:14
#049390:0034
#0503a0:3424
#051340:14
#051330:0034
#052320:3424
#0533a0:14
#053390:0034
#054380:3424
#055320:14
#055330:0034
#056340:34003424
