This file was generated by Ched 2.7.0.0.
#TITLE ""
#ARTIST ""
#DESIGNER ""
#DIFFICULTY 0
#PLAYLEVEL
#SONGID ""
#WAVE ""
#WAVEOFFSET 0
#JACKET ""
#REQUEST "ticks_per_beat 480"
#00002: 4
#BPM01: 153
#00008: 01
#TIL00: ""
#VOLUME: ""
#HISPEED 00
#MEASUREHS 00
#0251f:11
#02515:0000001313001300
#02512:13
#02518:00000013000000000000000000001300
#0251b:2313
#0471a:0014000014001400
#04712:1400140000140000
#04716:1400001414000014
#04312:00001414
#0431a:14140000
#04316:0000001400000014
#04310:41
#03912:00001313
#0391b:13130000
#03919:0000000000000013
#03914:0000001300000000
#03512:0000001313000000
#03516:00000013
#03517:00130000
#0351b:1300000000000013
#0381a:14
#03812:1300001424001300
#03819:0000000000000013
#03816:00000014000000000000000000000000
#0381b:0000000000130000
#03817:0013
#03412:1323
#0341a:14
#03417:00000014000000000000130000000000
#0341b:0000000013000013
#03416:00000013
#03414:0000001400000000
#03410:41
#01215:00130000
#01212:0024
#01214:0000000000240000
#01216:00000024
#01218:0000000000000024
#05616:14140000
#0561b:0013
#05612:1413
#05216:14140000
#0521a:14
#05212:0000000000000023
#05215:00000023
#05218:0000000000230000
#0521b:0023
#00812:16000013
#00818:16000000000000000000000000530000
#00817:00000013
#0081a:00000000000000000000000000000053
#00819:0000000000000053
#0071b:1313
#00712:13000000000000000033333300000000
#00718:00001300000013000000000000343434
#00715:00130000
#0301b:0000001313000000
#03012:00000013000000000000000000000000
#03018:13000013
#03015:0000000013000013
#02918:0000001313001300
#02912:1313
#0291b:13
#02915:00000013000000000000000000001300
#02712:0000001313000000
#0271b:0013
#02715:13
#02718:00000013000000000000000000000000
#02612:0000001313000000
#0261b:00000013000000000000000000000000
#02618:0000000013000013
#02615:13000013
#0401b:13
#04014:00000023
#04019:00000023
#01618:0016
#01612:1316
#0161b:13
#0441a:14141414
#04412:14141400
#04416:0014000000140014
#05416:1400001400002400
#0541a:00000014000000000000000000000000
#05412:0014
#05413:00000000000000000000000000000064
#05414:0000000000000064
#05415:00000000000000000000000000640000
#05312:00002c0014000014
#05316:00000000000000000000001400000000
#05315:00130013000000000000000000000000
#05318:1313000000000000
#0551a:0000000014000014
#05516:00000014000000000000001400000000
#05512:6400001400000000
#01418:00000000000000001300000000530000
#01415:00000013000013000000000000000000
#01417:00000013
#0141a:00000000000000000000000000000053
#01419:0000000000000053
#01015:00000000000000001300000000530000
#01018:00000013000013000000000000000000
#01016:00000013
#01013:00000000000000000000000000000053
#01014:0000000000000053
#04912:00000014000000000000000000000000
#0491a:0000000014000014
#04916:64000000000014000000001400000000
#04910:41
#05016:1400001400002400
#05012:00000014000000000000000000000000
#0501a:0014
#05019:00000000000000000000000000000064
#05018:0000000000000064
#05017:00000000000000000000000000640000
#0461a:00001414
#04616:14000014000014000000000000001400
#04612:24
#04512:00001414
#04516:14000014000014000000000000001400
#0451a:24
#0421a:14000014000000000000000000000000
#04215:00000013
#04212:1400001313000000
#04218:0000000000000013
#04118:00000013
#0411b:0000001313000000
#04115:0000000000000013
#0411a:14
#04112:24000014000000000000000000000000
#03716:00000014000000001300000000000000
#0371a:2400001424000000
#03712:2400000000130000
#03714:0000000000000013
#0371b:00000013
#03316:0000000000130000
#03312:2400000013000013
#03317:00000013
#03318:0000001400000000
#03315:00000014000000000000000000000000
#0331f:21
#0331b:0023
#0331a:24
#03617:00130013
#03616:1313
#03612:00130000
#03614:0013000000000000
#0361b:13
#02413:0015001500000000
#02418:00150000
#0241a:0000000000242400
#02412:0000000000242400
#02316:00000014
#0231a:0000000000000014
#02312:0000000000140000
#02318:0000001300000000
#02315:00130000
#0231b:13
#01312:14000000260000000000001300001300
#01314:00001434000000000000000000000000
#0131a:14
#01318:00001434260000000000000000000000
#01313:00340000000000000000000000000000
#01319:00340000000000000000000000000000
#02018:0013000000000000
#02012:1300000000140000
#02015:00130000
#0201a:00001414
#01918:0000001313001300
#01912:0013
#01915:13
#0191b:00000013000000000000000000000000
#0061b:13
#00612:13
#00615:0000000000000013
#00618:00000013
#00619:0013
#0061a:00130000
#00512:13
#0051b:13
#00513:00130000
#00518:0000000000000013
#00515:00000013
#00514:0013
#00415:0013000013000000
#00418:13130000
#00412:00000013
#0041b:00000013
#00315:00000013
#00318:00130000
#00018:00340000000000000000000013000000
#00016:0000000034343434343434343434343400000000000000000000000000000000
#00017:0000003400000000000000000000000000000000000000000000000000000000
#00019:0034000000000000000000000000000000000000000000000000000000000000
#05112:0000000014000014
#05116:00000014000000000000001400000000
#0511a:6400001400000000
#02218:0000001313000000
#02212:0013
#02215:1300000000000013
#0221b:00000013000000000000000000000000
#0181b:0013
#01815:0000001313000000
#01818:1300000000000013
#01812:00000013000000000000000000000000
#02118:0000000013000013
#0211b:13
#02115:00000013000000000000000013000000
#02112:2300001313000000
#02110:41
#01715:0000000013000013
#01712:13
#01718:00000013000000000000000013000000
#0171b:2300001313000000
#01515:00000000000000000000001300001300
#01518:00000013000013000000000000000000
#01510:41
#0151b:53
#00215:00130013
#00118:00130013
#0011b:23
#03216:00000014
#0311b:00130000
#03112:0013000000000000
#03118:13000000000000000033333333333333
#03115:00000000000000000033333333333333
#0281b:00000013
#02812:00130013
#02818:1300000000130000
#02815:0013000013000000
#01118:00000000000000000000001300001300
#01115:00000013000013000000000000000000
#01112:53
#0091b:63000000000000000000001300001300
#00918:00000013000013000000000000000000
#00910:41
#04812:00000024
#04814:0000000000000064
#04813:00000000000000000000000000640000
#04815:00000000000000000000000000000064
#05656:54000012
#05658:00000012
#0565b:0063
#05652:0053
#00858:6612
#00856:0012
#00852:56
#04852:0014
#0485a:0014
#04056:0014
#03252:16
#03258:16
#03256:00000014
#00055:00000013
#00058:00000013
#04452:00145434
#04456:0000000000240024
#0445a:00140054
#03652:00000013
#0365b:0013
#03657:00630000
#03656:0063
#01655:00000013
#01658:00006613
#01652:5356
#0165b:63
#0095b:13
#04956:14
#04652:34
#04656:64000054000000000000000000000000
#0375a:14
#03752:0000000000230000
#03756:0063
#01352:54160000
#01358:0024160000000000
#01354:0024000000000000
#0135a:64
#05352:001c0000
#0455a:44
#04556:54000064000000000000000000000000
#0175b:13
#01755:0053
#01752:63
#0255b:1363
#02552:63
#02558:00000063000000000000000000000000
#04152:14000054000000000000000000000000
#0415a:54
#0335a:14
#03356:0000000000230000
#03352:0053
#0475a:0024000014000000
#04752:1400000000240000
#04756:5464
#04352:0014
#0435a:14
#03952:0013
#0395b:13
#03552:0013
#0355b:13
#03852:13
#0385b:0000000000230000
#03857:0053
#03452:13
#03457:0000000000230000
#0345b:0063
#0425a:14000064000000000000000000000000
#04252:64
#02453:0015001500000000
#02458:00150000
#0235b:53
#02055:00630000
#0205a:00001414
#02052:0000000000140000
#01958:00000063
#01952:0053
#01955:53
#05256:64
#02258:0053
#02252:0053
#02255:63
#0185b:0053
#01855:0053
#01858:53
#02158:0053
#0215b:53
#0275b:0053
#02755:63
#02758:00000063000000000000000000000000
#02952:1353
#0295b:53
#02955:00000053000000000000000000000000
#03052:00000053000000000000000000000000
#03058:53
#03055:0053
#0265b:00000063000000000000000000000000
#02655:63
#02658:0063
#00652:63
#0055b:63
#0285b:00000013
#02852:00130000
#0003a0:14
#000390:0034000000000000000000000000000000000000000000000000000000000000
#000380:00340000000000000000000000000000
#000370:0000003400000000000000000000000000000000000000000000000000000000
#000360:0000000034343434343434343434343424000000000000000000000000000000
#000321:0013
#000351:00000023
#001321:13
#002321:23
#0023b0:13
#0033b0:23
#003321:13230000
#0033b1:00001323
#0053b1:13
#005381:00000023
#006321:13
#006351:00000023
#007321:00000000000000001333333300000000
#007341:00000024
#007380:00000000000000000000000014343434
#008380:3622
#008321:16
#008361:0022
#009321:1300002300000000
#009351:0000000013000023
#010321:1300002300000000
#0103b1:00001323
#0113b1:1323
#011320:0013
#012320:23
#0123b1:1323
#013321:14260000
#013331:00340000000000000000000000000000
#013341:00003434000000000000000000000000
#0133a0:14
#013390:00340000000000000000000000000000
#013380:00003434260000000000000000000000
#013380:0000000013000023
#0143b0:1300002300000000
#014320:00001323
#015320:1323
#0153b1:0013
#0163b1:33
#016381:00003623
#016320:1336
#016350:00000023
#017320:13000023
#017350:0033
#018380:13000023
#0183b0:0033
#018351:0013
#018321:00000023
#019351:13000023
#019321:0033
#019380:00000013
#0203b0:23
#020350:00130000
#020320:0023
#0213b0:13000023
#021380:0033
#022350:13000023
#022320:0033
#022381:0013
#0223b1:00000023
#0233b1:13
#023381:00230000
#025321:13
#025351:00000023000000000000000000000000
#025380:00000013000000000000000000000000
#0253b0:0000002300000000
#0253b0:0013
#025380:00000023
#026350:13
#026320:00000023000000000000000000000000
#0263b1:00000013000000000000000000000000
#026381:0000002300000000
#026381:0013
#0263b1:00000023
#027351:13
#027321:00000023000000000000000000000000
#027380:00000013000000000000000000000000
#0273b0:0000002300000000
#0273b0:0013
#027370:00000023
#027321:00000013
#028321:23
#0283b1:00132300
#0293b1:13
#029381:00000023000000000000000000000000
#029350:00000013000000000000000000000000
#029320:0000002300000000
#029320:0013
#029350:00000023
#030380:13
#0303b0:00000023000000000000000000000000
#030321:00000013000000000000000000000000
#030351:0000002300000000
#030351:0013
#030321:00000023
#031351:00000000000013003333333333333333
#032321:26
#031380:00000000000000001333333333333333
#032380:26
#033320:00001323
#033360:0000000000530000
#0343b0:00001323
#034370:0000000000530000
#035320:13230000
#0353b0:00001323
#036370:00130000
#0363b0:0023
#036361:0013
#036321:00000023
#037361:00001323
#037321:0000000000530000
#038371:00001323
#0383b1:0000000000530000
#039361:13230000
#039371:00001323
#040361:1424
#040371:00540000005400000054000000540000005400000054000000540000005400000000000000000000000000000000000000000000000000000000000000000000
#040351:00000054000000540000005400000054000000540000005400000054000000540000000000000000000000000000000000000000000000000000000000000000
#0413a1:14
#041361:00000024000000000000000000000000
#041320:00000014000000000000000000000000
#041360:0000002400000000
#041360:0014
#041320:00000000000000000054000024000000
#042320:14
#042360:00000024000000000000000000000000
#0423a1:00000014000000000000000000000000
#042361:0000002400000000
#042361:0014
#0423a1:00000000000000000054000024000000
#043361:14240000
#043361:00001424
#044321:00001424
#044361:0000000000540000
#0443a0:00000014
#044360:0000000000000054
#0453a0:24
#045361:14
#045321:00000024000000000000000000000000
#045360:00000014000000000000000000000000
#0453a0:0000002400000000
#0453a0:0014
#045360:00000000000000000054000024000000
#046360:14
#0463a0:00000024000000000000000000000000
#046361:00000014000000000000000000000000
#046321:0000002400000000
#046321:0014
#046361:00000000000000000054000024000000
#047361:14240000
#0473a1:0054000000000000
#047361:00001424
#047321:0000000000540000
#048321:14545454545454542400000000000000
#048331:0054005400540054005400540054005400000000000000000000000000000000
#0483a0:14545454545454542400000000000000
#048390:0054005400540054005400540054005400000000000000000000000000000000
#0493a0:1400002400000000
#049360:00000034000000000000000000000000
#049360:0000000014000024
#049320:00000000000000000000003400000000
#0503a0:1400002400000000
#050360:00000034000000000000000000000000
#050360:0014
#050320:00000024
#051360:1400002400000000
#051320:00000034000000000000000000000000
#051360:0000000014000024
#0513a0:00000000000000000000003400000000
#052360:14
#052320:0000005323000000
#053360:0000000014000024
#0533a0:00000000000000000000003400000000
#054320:1400002400000000
#054360:00000034000000000000000000000000
#054360:0014
#0543a0:00000024
#055360:1400002400000000
#0553a0:00000034000000000000000000000000
#055360:0000000014000024
#055320:00000000000000000000003400000000
#056360:14
#0563b0:0000005333000000
#056380:00000022
#056321:0013
#056361:00000022
#008970:00000013
#0099b0:23
#010960:00000013
#011920:23
#014970:00000013
#0159b0:23
#048920:00000014
#049960:24
#050960:00000014
#0519a0:24
#054960:00000014
#055920:24
