This file was generated by Ched 2.7.0.0.
#TITLE ""
#ARTIST ""
#DESIGNER ""
#DIFFICULTY 0
#PLAYLEVEL
#SONGID ""
#WAVE ""
#WAVEOFFSET 0
#JACKET ""
#REQUEST "ticks_per_beat 480"
#00002: 4
#BPM01: 153
#00008: 01
#TIL00: ""
#VOLUME: ""
#HISPEED 00
#MEASUREHS 00
#00512:00130013
#0051b:1313
#00615:00130013
#00618:1313
#0071b:13130000
#00718:00001313
#00712:0013001300000000
#00715:0000000000130013
#0091a:00130000
#00918:00000013
#00919:0013
#0091b:23
#00910:41
#03118:00130000
#03115:0000001300000000
#0311a:0000000000140000
#03116:00000014
#03112:1300000000000014
#03312:00140000
#03316:0000001400000000
#03315:00000013
#03318:0000000000000013
#0331a:2414
#0331f:21
#03412:1414
#0341a:00140000
#03416:0000001400000000
#0341b:0000000000000013
#03410:41
#03518:0000001300000013
#03515:13
#03512:0013
#03618:0013000000000000
#03615:13130000
#0361a:0014
#03616:00000014
#0171b:00130000
#01715:0000001300001300
#01718:0000000013000013
#01712:23
#01818:00130000
#01815:0000001300000013
#01812:13
#01918:1300001300000000
#01912:00130000
#01915:0013
#00112:00130000
#00113:00000013
#02012:13
#02018:0013
#02015:00130000
#00818:13
#00214:00130000
#00215:00000013
#00318:00130000
#00319:00000013
#0041a:00130000
#0041b:00000013
#01019:13
#0101a:00130000
#0101b:0013
#01112:13
#01114:00130013
#01116:0013
#01212:13
#01218:00002323
#01215:0000000000230000
#01313:00130000
#01315:00000013
#01314:0013
#01312:23
#01414:13
#01413:00130000
#01412:0013
#0151b:13
#01519:00130013
#01517:0013
#01510:41
#0161b:0013
#02112:00130000
#02118:0000001300001300
#02115:0000000013000013
#0211b:23
#02110:41
#02215:00130000
#02218:0000001300000013
#0221b:13
#0231b:0000130000130013
#02312:0000001300001300
#02315:13
#02415:0013001300000000
#02418:00130000
#0241a:0000000000240000
#02412:00000024
#02513:00130000
#02514:0013
#02512:13
#02515:00000013
#0251f:11
#03212:0013
#0371a:00140000
#03716:0000001400000000
#03718:00000013
#03715:0000000000000013
#03712:2414
#0381a:1414
#03812:0000140000000013
#03816:0000001400000000
#03915:0000001300000013
#03918:13
#0391b:0013
#04115:00130000
#04118:0000001300000013
#0411b:00001313
#04112:24001313
#0411a:24
#04214:14
#04218:0000130000000013
#04215:0000001300000000
#04318:0000001300000013
#04315:0013
#04312:13
#04310:41
#0441b:0013000000001300
#04415:00130013
#04412:1313
#04418:0013
#04518:00130000
#04515:0000001300000013
#04512:24001313
#0451b:00001313
#0451a:24
#04618:1400001300000000
#04615:0000130000000013
#04715:0000001300000013
#04718:0013
#0471b:13
#0261a:00130000
#02619:0013
#02618:00000013
#02713:00130000
#02714:0013
#02715:00000013
#0281b:00130000
#02812:00000013
#0291a:00000013
#02919:0013
#02918:00130000
#03015:00130000
#03014:0013
#03013:00000013
#0491b:13130000
#04915:00000013
#04910:41
#05018:00130000
#05012:00000013
#0511b:00130000
#05115:00000013
#05312:13130000
#05318:00000013
#05415:00130000
#0541b:00000013
#05512:00130000
#05518:00000013
#05612:0013
#0561b:0013
#00012:0016
#05218:00002323
#05215:0000000000230000
#04015:00000023
#0335a:14
#00054:00000012
#00052:0056
#03452:1454
#04058:0013
#05252:00130000
#0085b:0013
#00858:53
#0165b:0063
#01658:00000013
#0235b:0000000000000013
#02355:13
#02352:0000001300000000
#02455:0000001300000000
#03255:00000013
#03252:0053
#03152:0000000000000064
#0385a:1464
#03752:14
#04254:14
#0415a:14
#04152:14
#04858:0013
#03555:63
#03552:0053
#03958:53
#0395b:0063
#04355:0063
#04352:53
#04658:14
#04758:0053
#0475b:63
#04552:14
#0455a:14
#05655:00000013
#05658:00000013
#05652:0053
#0565b:0063
#000320:0016
#000340:00000022
#001380:1333
#002380:3333
#003380:23
#003351:1333
#004351:3333
#005351:23
#008381:13
#0083b1:0023
#009321:1333
#010321:3323
#0113b1:1333
#0123b1:23
#0133b1:1333
#0143b1:3323
#015321:1333
#016321:23
#0163b0:1333
#016380:00000023
#0183b0:00001323
#019380:00000013
#020380:23
#020350:00000013
#021350:23
#022320:00001323
#025370:13
#025380:00330000
#025390:0033
#0253a0:00000033
#0263b0:23
#026361:13
#026351:00330000
#026341:0033
#026331:00000033
#027321:23
#027370:13
#027380:00330000
#027390:0033
#0273a0:00000033
#0283b0:23
#028361:13
#028341:00330000
#028321:0023
#0283b0:0013
#028390:00000033
#029370:23
#029321:13
#029331:00330000
#029341:0033
#029351:00000033
#030361:23
#0303b0:13
#0303a0:00330000
#030390:0033
#030380:00000033
#031370:23
#031320:0000000000000014
#032320:0033
#032350:00000023
#034320:0014
#034350:00000023
#035350:13
#035320:00230000
#035320:0013
#035350:00000023
#0383a0:0014
#038380:00000023
#039380:13
#0393b0:00230000
#0393b0:0013
#039380:00000023
#040380:1323
#040390:00530000005300000053000000530000005300000053000000530000005300000000000000000000000000000000000000000000000000000000000000000000
#040370:00000053000000530000005300000053000000530000005300000053000000530000000000000000000000000000000000000000000000000000000000000000
#042320:00001323
#0423b1:00001323
#043321:13
#043351:00230000
#043351:0013
#043321:00000023
#0463b1:00001323
#046320:00001323
#0473b0:13
#047380:00230000
#047380:0013
#0473b0:00000023
#048380:1323
#048390:00530000005300000053000000530000005300000053000000530000005300000000000000000000000000000000000000000000000000000000000000000000
#048370:00000053000000530000005300000053000000530000005300000053000000530000000000000000000000000000000000000000000000000000000000000000
#049350:13332300
#0493b1:00001333
#0503b1:23
#050320:13332300
#050381:00001333
#051381:23
#051350:13332300
#0513b1:00001333
#0523b1:23
#052320:13230000
#053380:13332300
#053321:00001333
#054321:23
#0543b0:13332300
#054351:00001333
#055351:23
#055380:13332300
#055321:00001333
#056321:33333300
#056351:00000023
#0563b0:13333300
#056380:00000023
