This file was generated by Ched 2.7.0.0.
#TITLE ""
#ARTIST ""
#DESIGNER ""
#DIFFICULTY 0
#PLAYLEVEL
#SONGID ""
#WAVE ""
#WAVEOFFSET 0
#JACKET ""
#REQUEST "ticks_per_beat 480"
#00002: 4
#BPM01: 153
#00008: 01
#TIL00: ""
#VOLUME: ""
#HISPEED 00
#MEASUREHS 00
#03314:00140000
#03318:0014
#03312:00000014
#0331a:24
#0331f:21
#03414:00140000
#03418:14
#0341a:0014
#03410:41
#00818:14
#0051a:14
#00512:0014
#0061a:14
#00612:0014
#00718:1414
#00714:00140014
#00912:1414
#00918:00140000
#00910:41
#0101a:1414
#01014:00140000
#01112:1414
#01118:00140000
#0121a:14
#01216:00140000
#0131a:1414
#01314:00140000
#01412:1414
#01418:00140000
#0151a:1414
#01514:00140000
#01510:41
#01612:14
#01616:00140000
#01714:1414
#01814:1414
#01918:1414
#02018:1414
#02112:14
#02114:0014
#02110:41
#02216:14
#02218:0014
#0231a:14
#02318:0014
#02416:14
#02414:0014
#02518:14
#02514:00140000
#0251a:0014
#02512:00000014
#0251f:11
#02616:14
#0261a:00140000
#02612:0014
#03112:14
#0311a:00140000
#03114:0014
#03118:00000014
#03518:0014
#03512:14
#03614:14
#03618:00140000
#03612:0014
#03616:00000014
#03712:00140000
#03718:0014
#03714:00000014
#0371a:24
#03816:00140000
#0381a:14
#03812:0014
#03912:0014
#03918:14
#04118:00140000
#04114:0014
#0411a:00000014
#04112:24
#04218:00140000
#04214:14
#04212:0014
#04314:0014
#0431a:14
#04310:41
#04418:14
#04414:00140000
#0441a:0014
#04416:00000014
#0451a:00140000
#04514:0014
#04518:00000014
#04512:24
#04616:00140000
#04612:14
#0461a:0014
#0471a:0014
#04714:14
#0491a:14
#04912:00140000
#04918:0014
#04914:00000014
#04910:41
#0501a:14
#05016:00140000
#05012:0014
#05118:14
#05114:00140000
#0511a:0014
#05112:00000014
#05218:14000014
#05214:0014
#05312:14
#0531a:00140000
#05314:0014
#05318:00000014
#05412:14
#05416:00140000
#0541a:0014
#05514:14
#05518:00140000
#05512:0014
#0551a:00000014
#05612:0014
#05614:14
#02914:14
#02918:00140000
#02912:0014
#0291a:00000014
#03016:14
#03012:00140000
#0301a:0014
#04814:14
#0271a:14000014
#02712:0014
#02716:00140000
#00118:0014
#0011a:14
#00314:0014
#00312:14
#00412:14
#0021a:14
#0335a:14
#0085a:0014
#00858:54
#01252:00000014
#0165a:00000014
#0345a:0064
#03558:0054
#03552:54
#03852:0014
#03952:0054
#03958:54
#04252:0054
#04354:0064
#0435a:64
#0465a:0014
#0475a:0064
#04754:64
#04152:14
#05052:0054
#05258:54
#0545a:0064
#05654:64000014
#05652:0054
#03252:00000014
#0405a:00000014
#04854:64
#04852:0014
#00158:0054
#0015a:64
#00354:0064
#00352:54
#00452:54
#0025a:64
#0013a0:14
#001380:0034
#0023a0:34
#002380:0024
#003320:14
#003340:0034
#004320:34
#004340:0024
#008380:14
#0083a0:0024
#012320:00001424
#0163a0:00001424
#028340:14240000
#028380:00001424
#032340:14
#032320:00003424
#0343a0:0014
#034380:00000024
#035320:14
#035340:00240000
#035380:0014
#0353a0:00000024
#039380:14
#0393a0:00240000
#039320:0014
#039340:00000024
#040380:14
#0403a0:00003424
#042320:0014
#042340:00000024
#0433a0:14
#043380:00240000
#043340:0014
#043320:00000024
#047340:14
#047320:00240000
#0473a0:0014
#047380:00000024
#048340:14
#048320:0024
#050320:0014
#050340:00000024
#052380:14
#0523a0:00240000
#0543a0:0014
#054380:00000024
#056340:14000024
#056320:0034
