This file was generated by Ched 2.7.0.0.
#TITLE ""
#ARTIST ""
#DESIGNER ""
#DIFFICULTY 0
#PLAYLEVEL
#SONGID ""
#WAVE ""
#WAVEOFFSET 0
#JACKET ""
#REQUEST "ticks_per_beat 480"
#00002: 4
#BPM01: 150
#00008: 01
#TIL00: ""
#VOLUME: ""
#HISPEED 00
#MEASUREHS 00
#00214:14
#00314:14
#00418:14
#00518:14
#00712:14
#0081a:14
#0091a:14
#02012:16
#02018:0016
#02218:1414
#02314:1414
#02812:0016
#02818:26
#02810:41
#02918:16
#02912:0016
#03618:0014
#03612:14
#03610:41
#03712:14
#03814:0014
#0381a:14
#0391a:14
#04018:0016
#04012:26
#04112:16
#04118:0016
#05018:14
#05014:0014
#05118:14
#05214:14
#0641a:2414
#0651a:14
#06612:1414
#06712:14
#06818:2616
#06912:1616
#05718:16
#05912:16
#0531f:11
#00118:26
#00612:24
#01812:26
#01810:41
#01918:26
#00012:26
#05618:26
#07018:26
#07112:26
#04818:26
#04912:26
#05812:26
#0601f:00210000
#01010:41
#04410:41
#06110:41
#05254:54
#05758:66
#05952:56
#001380:1626
#010320:14
#011320:24
#0123a0:14
#0133a0:24
#014340:14
#015340:24
#016380:14
#0173a0:24
#018320:1626
#019380:1626
#021320:1626
#024380:14
#0253a0:24
#026340:14
#026330:0034
#027320:24
#030380:16
#031380:26
#032320:16
#032330:0036
#033320:36
#033330:0036
#034320:26
#035380:1626
#042320:16
#043320:26
#044380:14
#0453a0:24
#046340:14
#047320:24
#048380:1626
#049320:1626
#052340:14
#053320:34
#054330:34
#055340:24
#056380:16
#057380:36
#057390:0024
#058320:16
#059320:36
#059330:0024
#060380:16
#060370:0036
#061380:36
#061370:0036
#062380:26
#063320:1626
#071320:1600003600002600
