This file was generated by Ched 2.7.0.0.
#TITLE ""
#ARTIST ""
#DESIGNER ""
#DIFFICULTY 0
#PLAYLEVEL
#SONGID ""
#WAVE ""
#WAVEOFFSET 0
#JACKET ""
#REQUEST "ticks_per_beat 480"
#00002: 4
#BPM01: 150
#00008: 01
#TIL00: ""
#VOLUME: ""
#HISPEED 00
#MEASUREHS 00
#0001b:13
#00019:00001400000000000000000000540000
#00017:00000000140000000000000000000054
#00015:0000001400000000
#00012:0000000000130000
#00013:0014
#0001a:00000014
#00018:0000000000000054
#00212:00130000
#00214:14000013
#00218:24
#00316:00130000
#00314:00000013
#00418:1400000000000014
#0041b:00130000
#0041a:00000014
#00414:2400000000000014
#00518:0013000000000000
#00515:00130026
#0051a:0000001400000000
#00512:0000001400000000
#00812:0013130000130000
#00817:00000013000000000000000000000000
#0081b:0000001313000000
#00816:00000000000000130000000000000000
#00815:00000013
#00818:0000000000000013
#0081a:14
#00915:0000000013000000000000000000000000343434003434340000000000000000
#00918:00130000
#00912:2414
#00917:0000000000130000
#0091a:2400001400000000
#01012:0013130000000000
#01017:00000013000000000000000000000000
#0101a:2400000000140000
#01014:00000000000000140000000014000000
#01018:0000002400000014
#01010:41
#0111b:0013130000000000
#01116:00000013000000000000000000000000
#01118:00000000000000140000000024000000
#01112:2400000000240000
#01114:0000002400000024
#01212:0013130000000000
#01217:00000013000000000000000000000000
#01214:00000000000000140000000014000000
#01218:0000002400000014
#0121a:2400000000240000
#01316:0014000000001400
#0131a:00140000
#01318:0000001400000000
#01312:24140000
#01314:0000001400000000
#01319:0000000000000000000000000000000000000000000000000053000000000000
#0141b:0013130000000000
#01416:00000013000000000000000000000000
#01412:24000000000000000014000000000000
#01414:0000002400001414
#01418:00000000000000000000001400000000
#01618:00001300000000130000140000000000
#01615:00000013000013000000000000000000
#01614:00000014
#01612:2400000024000014
#0161a:0000240000000014
#01717:0000000000120000
#01716:0000000000000014
#01714:00000013
#01719:00000013
#01818:0000001300000014
#01814:00000014
#0181a:0000000000140000
#01815:00000000000000130000000000000000
#01812:23
#0181b:23
#01810:41
#02014:0000000000140000
#02018:0013000014000000
#02015:00130000
#02012:2400001300002500
#02019:00000025
#0201a:24
#02115:0013130000000013
#02118:00000013000014000000000013000000
#0211b:0000000000130000
#02114:00000000000000140000000000000000
#01912:2400000000130000
#01915:00000013
#01918:00000000000000140000000000001300
#01914:0000001400000000
#0191a:24
#02414:00000014000000000000000000000000
#02412:1400001400140000
#0241a:1400000000140000
#02418:00140000
#02416:0014
#0251b:0013000000000000
#02515:00000000000000130000000000000000
#02518:00000000000000130000000000000000
#02512:0023000000000000
#02712:14
#02714:0014000000000000
#02716:00140000
#02718:0000001400000000
#02715:00000026
#0271a:0000000000000000000000000000000000340000000000000000000000000000
#02818:00001300000000130000000000001300
#02815:00000013000013000000000000000000
#0281b:00130000
#02812:2513
#02819:25000024
#02813:00000024
#02810:41
#02914:0013000000000000
#02917:00000013000000000000000000000000
#02919:0000001300002400
#02916:00000000000000130000000000000000
#02915:0000000000000013
#02912:14130000
#0291b:0013
#0291a:14
#02913:00000024
#03014:0000000000130013
#03016:00000013
#0301b:1300000023131313
#03019:0013001300000000
#03017:00130000
#0301a:00000000000000000014001400140014
#03112:1300000000240000
#0311b:13
#03114:0013
#03118:0000001300000000
#0311a:0000000000140000
#03115:0000002300000013
#03119:0023
#03216:1414
#03218:0013001400000000
#03214:0000000000140000
#03213:0000000000000014
#03212:00240000
#0321a:00000024
#03316:14
#03319:0014000000000000
#0331a:0000001400000000
#03315:0016
#03312:0000260000140000
#03318:00000026
#03418:0000000000000000000000000000000000000000130000000000001400000014
#03416:14140000
#0341a:0000000000000000000000001400000000000000000000000014000000140000
#03415:0000000000000013
#03412:0000000000000000000000000000000000140000001400000000000000000000
#03413:00000000000000002414141400000000
#03414:0000000000000000000000000000000000000014000000140000000000000000
#03419:00000000000000000000000024141414
#04015:00001300000000130000000000000000
#04018:00000013000013000000000000000000
#04016:0000000000000014
#04012:25130024
#0401b:0013
#04019:25
#0401a:00000024
#04119:0013000000000000
#04116:00000013000000000000000000001400
#04114:0000001300000000
#04117:00000000000000130000000000000000
#0411b:00130000
#04112:14001324
#0411a:14000024
#04416:0000001400000014
#0441a:1424000000140000
#04418:00000014
#04412:24
#04410:41
#04514:14280000
#04512:0014000000000000
#04515:0000000000001313
#04518:00000000000000000000000000130000
#04616:0000001400000014
#04612:1424000000140000
#04614:00000014
#0461a:24
#04718:1400000000000064
#0471a:0014000000002400
#04716:00000014
#04713:002a0000
#04719:00000000000000000000000000640000
#04717:00000000000000000000000000000064
#05017:13
#05016:0013
#05012:0014000000000000
#0501a:0000000000140000
#05014:0000000000240014
#05018:0024000000000024
#05019:0000002300000000
#05112:2400142516000000
#05119:0000001500000000
#0511a:14240000
#05118:00002613
#05115:00000023
#05212:0014000000005600
#0521a:0024000000000000
#05218:00000066
#05312:13
#05314:0013000000000000
#05316:00130000
#05318:0000001300000000
#0531a:0013
#0531f:11
#05413:13
#05417:00130000
#05419:0000001300000000
#05415:0013000000000000
#0541b:0013
#0541a:0024000000000000
#05414:0024
#05514:14
#05512:0000000000151500
#05518:2424000000000000
#05519:0000000000252500
#04318:0000000012150000
#04319:00130000
#0431a:14
#04313:0000000000150000
#04312:24
#04314:00230000
#04316:0022
#04218:0013001300002400
#04214:0000000000140014
#04212:1314
#0421a:0014
#0421b:13
#04215:00230000
#0381a:0014140000000000
#03815:00000014000000000000000000000000
#03812:1400001414000000
#03817:00000000000000140000000000000000
#03818:0000000000000015
#03914:0014001400002800
#03916:00140000
#0391a:14
#03912:24
#03918:0000002400000000
#05818:0000000000140014
#05816:00140014
#05812:1400000024131313
#05814:0014001400000000
#05813:00000000000000000013001300130013
#0591a:1400000000240000
#05912:1400000000140000
#05919:0014
#05914:0000001400000000
#05918:0000002400000000
#05913:0024
#06014:0000001400000000
#06016:0013000014000000
#06018:0000000000140000
#06019:0000000000000014
#0601a:14240000
#06012:00000024
#0601f:00210000
#06116:14
#06113:0014000000000000
#06112:0000001400002600
#06115:0016
#0611a:0000000000140000
#06118:00260000
#06110:41
#06216:24140000
#06212:0000000000000000000000001400000000000000000000000014000000140000
#06215:0000000000130000
#06218:0000000000000000000000000000000000000014000000140000000013000000
#0621a:0000000000000000000000000000000000140000001400000000000000000000
#06219:00000000000000002414141400000000
#06213:00000000000000000000000024141414
#06214:0000000000000000000000000000000000000000000000000000001400000014
#06315:0015000000002600
#06316:0000001500000000
#0631a:1414
#06312:00140000
#03516:0013000000000000
#03517:0000001300000000
#03512:1414
#0351a:00140000
#03515:00000026
#06818:00001400000000140000000000000000
#06814:00000014000014000000000000000000
#06816:0000000000140014
#0681a:00140024
#06812:25001424
#06819:25
#06914:0014000000000000
#06917:00000014000000000000000000000000
#06918:0000001400000000
#06915:00000000000000140000000000000000
#06916:0000000000140000
#06912:14140024
#0691a:14001424
#06612:0014140000000000
#06616:00000014000000140000000000000000
#0661a:1400001414000000
#06613:0000000000000015
#06712:1400000000000000240000000063000000000000000000000000000000000000
#0671a:24140000
#06718:0000001400000000
#06714:0000002400002800
#0671b:0000000000000000000000000053000000000000000000000000000000000000
#0701a:0012120000120000
#07016:00000012000000000000000000001200
#07018:00000000000000120000000012000000
#07014:0000001212000000
#07118:00001300000000000000006400000000
#07115:00130000
#07116:0000000000146400
#0711a:2400002400640000
#07112:2400002400005400
#07114:00000000000000000000005400000000
#01512:0013130000000000
#01517:00000013000000000000000000000000
#01514:00000000000000000000001400000000
#0151a:24000000000000000014000000000000
#01518:0000002400001414
#00112:2434343434343434183434343434343400000000000000000000000000000000
#0011a:0024
#00116:54
#02214:0013001300000000
#02217:00000013001300000000000000000000
#02218:2414
#02212:2414
#02319:0013001300000000
#02316:00000013001300000000000000000000
#02314:2414
#0231a:2414
#0061b:2323000000000023
#00615:00230023
#00612:00000000000000230023000000000000
#00618:00000000002300000000002300000000
#00616:00230000000000000000000000000000
#02612:24
#0261a:24
#03612:2424000000000024
#03616:00240000000000000000000000000000
#03618:00240024
#03614:00000000002400000000002400000000
#0361a:00000000000000240024000000000000
#03610:41
#0371a:2424000000000024
#03716:00240000000000000000000000000000
#03714:00240024
#03718:00000000002400000000002400000000
#03712:00000000000000240024000000000000
#04812:24
#04816:64240000
#04818:0000002400230023
#0481a:0024
#04815:00000000000000000000002300230000
#0491a:24
#04916:00240000
#04914:0000002400000023
#04912:2424
#04915:0000000000230000
#04918:00000000000000000000002300000000
#05613:2a
#0641a:2424000000000024
#06416:00240000000000000000000000000000
#06414:00240024
#06418:00000000002400000000002400000000
#06412:00000000000000240024000000000000
#06512:2424000000000024
#06516:00240000000000000000000000000000
#06518:00240024
#06514:00000000002400000000002400000000
#0651a:00000000000000240024000000000000
#00712:2323000000000023
#00717:00230000000000000000000000000000
#00718:00230023
#00715:00000000002300000000002300000000
#0071b:00000000000000230023000000000000
#05712:2424000000252500
#05717:2424000000000000
#0571a:0000002400000000
#05715:0000002400000000
#05719:0000000000252500
#00254:14
#00258:64
#00454:6400000000000014
#00458:1400000000000014
#0055a:0000004400000000
#00555:00000016
#00552:0000003400000000
#02254:00000014
#0225a:00000014
#02258:0064
#02252:0064
#02358:00000014
#02352:00000014
#02354:0054
#0235a:0054
#02454:0000000000000013
#02459:0000000000000013
#02458:00140000
#0255b:0053000000000000
#02555:00000000000000230000000000000000
#02558:00000000000000230000000000000000
#02552:0053000000000000
#02654:0000001500000000
#02657:0000000000000015
#03152:5300000000140000
#0315b:53
#03155:00000013000000000000000000000000
#03158:00000013000000000000000000000000
#0315a:0000000000140000
#03252:00140000
#0325a:00000014
#03352:00160000
#03358:00000016
#03452:1400000000000000000000000000000000240000002400000000000000000000
#03453:00000000000000006464646400000000
#03454:0000000000000000000000000000000000000024000000240000000000000000
#0345a:0000000000000000000000000000000000000000000000000024000000240000
#03459:00000000000000000000000054545454
#03458:0000000000000000000000000000000000000000000000000000002400000024
#03456:64
#03552:64343400
#0355a:00544400
#03555:00000016
#03556:0023000000000000
#03557:0000002300000000
#03559:14
#02755:00000016
#01358:0000001400000000
#01354:0000006400000000
#04456:0000001400000000
#04554:0018
#04656:0000001400000000
#04753:001a
#04952:14
#05054:0000000000340000
#05058:0044000000000000
#0505a:0000000000440000
#05052:0034000000000000
#05152:3416
#0515a:44
#05158:00001623
#05155:00000023
#05153:0000000000000034
#05159:0000000000000044
#05252:0064000000000000
#0525a:0064000000000000
#0535a:0013
#05552:0000001400001500
#0555a:0000001400000000
#05559:00000015
#03954:0000005400001800
#03958:0000006400000000
#0395a:14
#04856:14
#04352:14
#04354:00130000
#04359:00130000
#0435a:14
#04356:0062
#04358:0000000062250000
#04353:0000000000250000
#05653:1a
#0595a:6400000000140000
#05952:6400000000140000
#05955:00000013000000000000000000000000
#05958:00000013000000000000000000000000
#06256:54
#0625a:1400000000000000000000000000000000240000002400000000000000000000
#06259:00000000000000005454545400000000
#06258:0000000000000000000000000000000000000024000000240000000000000000
#06252:0000000000000000000000000000000000000000000000000024000000240000
#06253:00000000000000000000000064646464
#06254:0000000000000000000000000000000000000000000000000000002400000024
#06355:0025000000001600
#0635a:64444400
#06352:00643400
#06356:0000002500000000
#06353:14
#0605a:64440000
#06056:0023000000000000
#06052:00000034
#06152:00000036
#06158:00460000
#06754:00000018
#06752:54
#0675a:54
#07152:0000001400000000
#00952:00006434
#00957:0000000000230000
#0095a:0000001400000000
#01753:0000001400000000
#01759:0000001400000000
#01054:00000000000000640000000000000000
#01158:00000000000000640000000014000000
#01154:0000000000000014
#01152:0000000000140000
#01254:00000000000000640000000000000000
#05752:0014000000001500
#05757:0014000000000000
#05755:0000001400000000
#0575a:0000001400000000
#05759:00000015
#00152:64280000
#00852:00130000
#0085b:0013
#0085a:14
#01652:0000000000000014
#0165a:0000000000000014
#0385a:00140000
#03852:1414
#04252:13
#0425a:0014
#06652:00140000
#0665a:1414
#01855:00000000000000130000000000000000
#01958:00000000000000140000000000000000
#02154:00000000000000140000000000000000
#0705a:14
#07052:14
#0285b:00130000
#02852:0013
#02952:00130000
#0295b:0013
#04052:00130000
#0405b:0013
#0415b:00130000
#04152:0013
#0685a:00140000
#06852:0014
#06952:00140000
#0695a:0014
#0305b:0000000063636363
#0305a:00000000000000000024002400240024
#05852:0000000064636363
#05853:00000000000000000063006300630063
#0545b:0013
#001320:1434343434343434383434343434343434000000000000002400000000000000
#0013a1:00001424
#002381:14
#0023a1:00340034
#0033a1:00340024
#004341:14
#004321:00340024
#009321:0000001454002400
#009351:0000000000000000000000000000000000343434003434340000000000000000
#009371:0000000000330000
#010341:00000000000000140000000000000000
#010321:0000000000240000
#011381:00000000000000140000000000000000
#0113a1:0000000000240000
#012341:00000000000000140000000000000000
#012321:0000000000240000
#013341:0000001400000000
#013321:00000023
#014381:00000000000000140024000000000000
#015341:00000000000000140024000000000000
#017331:00000000000000001400005400540000000000000000000024000000000000000000000000000000000000000000000000000000000000000000000000000000
#017341:000000000000000000000000000000000000000000000000000000000000000000000000000000000000000000000000000000000000000000000000000000000000000000000000000000000000000000000000000000000000000000000000000000000000000000000000000000000000000000000000000000000000000000000000000000000000000000000000000000000000000000000000000000000000000000000000000000000000000000000000000000000000000000000000000000000000000000000000000000000000000000000000000000000000000000000000000000000000000000000000000000000000000000000000000000000000000000000000000000000000000000000000000000000000000000000000000000000000000000000000000000000000000000000000000000000000000000000000000000000000000000000000000000000000000000000000000000000000000000000054000000000000000000000000000000000000000000000000000000000000000000000000000000000000000000000000000000000000000000000000000000000000000000000000000000000000000000000000000000000000000000000000000000000000000000000000000000000000000000000000000000000000000000000000000000000000000000000000000000000000000000000000000000000000000000000000000000000000000000000000000000000000000000000000000000000000000000000000000000000000000000000000000000000000000000000000000000000000000000000000000000000000000000000000000000000000000000000000000000000000000000000000000000000000000000000000000000000000000000000000000000000000000000000000000000000000000000000000000000000000000000000000000000000000000000000000000000000000000000000000000000000000000000000000000000000000000000000000000000000000000000000000000000000000000000000000000000000000000000000000000000000000000000000000000000000000000000000000000000000000000000000000000000000000000000000000000000000000000000000000000000000000000000000000000000000000000000000000000000000000000000000000000000000000000000000000000000000000000000000000000000000000000000000000000000000000000000000000000000000000000000000000000000000000000000000000000000000000000000000000000000000000000000000000000000000000000000000000000000000000000000000000000000000000000000000000000000000000000000000000000000000000000000000000000000000000000000000000000000000000000000000000000000000000000000000000000000000000000000000000000000000000000000000000000000000000000000000000000000000000000000000000000000000000000000000000000000000000000000000000000000000000000000000000000000000000000000000000000000000000000000000000000000000000000000000000000000000000000000000000000000000000000000000000000000000000000000000000000000000000000000000000000000000000000000000000000000000000000000000000000000000000000000000000000000000000000000000000000000000000000000000000000000000000000000000000000000000000000000000000000000000000000000000000000000000000000000000000000000000000000000000000000000000000000000000000000000000000000000000000000000000000000000000000000000000000000000000000000000000000000000000000000000000000000000000000000000000000000000000000000000000000000000000000000000000000000000000000000000000000000000000000000000000000000000000000000000000000000000000000000000000000000000000000000000000000000000000000000000000000000000000000000000000000000000000000000000000000000000000000000000000000000000000000000000000000000000000000000000000000000000000000000000000000000000000000000000000000000000000000000000000000000000000000000000000000000000000000000000000000000000000000000000000000000000000000000000000000000000000000000000000000000000000000000000000000000000000000000000000000000000000000000000000000000000000000000000000000000000000000000000000000000000000000000000000000000000000000000000000000000000000000000000000000000000000000000000000000000000000000000000000000000000000000000000000000000000000000000000000000000000000000000000000000000000000000000000000000000000000000000000000000000000000000000000000000000000000000000000000000000000000000000000000000000000000000000000000000000000000000
#017321:000000000000000000000000000000000000000000000000000000000000000000000000000000000000000000000000000000000000000000000000000000000000000000000000000000000000000000000000000000000000000000000000000000000000000000000000000000000000000000000000000000000000000000000000000000000000000000000000000000000000000000000000000000000000000000000000000000000000000000000000000000000000000000000000000000000000000000000000000000000000000000000000000000000000000000000000000000000000000000000000000000000000000000000000000000000000000000000000000000000000000000000000000000000000000000000000000000000000000000000000000000000000000000000000000000000000000000000000000000000000000000000000000000000000000000000000000000000000000000000000005400000000000000000000000000000000000000000000000000000000000000000000000000000000000000000000000000000000000000000000000000000000000000000000000000000000000000000000000000000000000000000000000000000000000000000000000000000000000000000000000000000000000000000000000000000000000000000000000000000000000000000000000000000000000000000000000000000000000000000000000000000000000000000000000000000000000000000000000000000000000000000000000000000000000000000000000000000000000000000000000000000000000000000000000000000000000000000000000000000000000000000000000000000000000000000000000000000000000000000000000000000000000000000000000000000000000000000000000000000000000000000000000000000000000000000000000000000000000000000000000000000000000000000000000000000000000000000000000000000000000000000000000000000000000000000000000000000000000000000000000000000000000000000000000000000000000000000000000000000000000000000000000000000000000000000000000000000000000000000000000000000000000000000000000000000000000000000000000000000000000000000000000000000000000000000000000000000000000000000000000000000000000000000000000000000000000000000000000000000000000000000000000000000000000000000000000000000000000000000000000000000000000000000000000000000000000000000000000000000000000000000000000000000000000000000000000000000000000000000000000000000000000000000000000000000000000000000000000000000000000000000000000000000000000000000000000000000000000000000000000000000000000000000000000000000000000000000000000000000000000000000000000000000000000000000000000000000000000000000000000000000000000000000000000000000000000000000000000000000000000000000000000000000000000000000000000000000000000000000000000000000000000000000000000000000000000000000000000000000000000000000000000000000000000000000000000000000000000000000000000000000000000000000000000000000000000000000000000000000000000000000000000000000000000000000000000000000000000000000000000000000000000000000000000000000000000000000000000000000000000000000000000000000000000000000000000000000000000000000000000000000000000000000000000000000000000000000000000000000000000000000000000000000000000000000000000000000000000000000000000000000000000000000000000000000000000000000000000000000000000000000000000000000000000000000000000000000000000000000000000000000000000000000000000000000000000000000000000000000000000000000000000000000000000000000000000000000000000000000000000000000000000000000000000000000000000000000000000000000000000000000000000000000000000000000000000000000000000000000000000000000000000000000000000000000000000000000000000000000000000000000000000000000000000000000000000000000000000000000000000000000000000000000000000000000000000000000000000000000000000000000000000000000000000000000000000000000000000000000000000000000000000000000000000000000000000000000000000000000000000000000000000000000000000000000000000000000000000000000000000000000000000000000000000000000000000000000000000000000000000000000000000000000000000000000000000000000000000000000000000000000000000000000000000000000000000000000000000000000000000000000000000000000000000000000000000000000000000000000000
#017390:00000000000000001400005400540000000000000000000024000000000000000000000000000000000000000000000000000000000000000000000000000000
#0173a0:000000000000000000000000000000000000000000000000000000000000000000000000000000000000000000000000000000000000000000000000000000000000000000000000000000000000000000000000000000000000000000000000000000000000000000000000000000000000000000000000000000000000000000000000000000000000000000000000000000000000000000000000000000000000000000000000000000000000000000000000000000000000000000000000000000000000000000000000000000000000000000000000000000000000000000000000000000000000000000000000000000000000000000000000000000000000000000000000000000000000000000000000000000000000000000000000000000000000000000000000000000000000000000000000000000000000000000000000000000000000000000000000000000000000000000000000000000000000000000000054000000000000000000000000000000000000000000000000000000000000000000000000000000000000000000000000000000000000000000000000000000000000000000000000000000000000000000000000000000000000000000000000000000000000000000000000000000000000000000000000000000000000000000000000000000000000000000000000000000000000000000000000000000000000000000000000000000000000000000000000000000000000000000000000000000000000000000000000000000000000000000000000000000000000000000000000000000000000000000000000000000000000000000000000000000000000000000000000000000000000000000000000000000000000000000000000000000000000000000000000000000000000000000000000000000000000000000000000000000000000000000000000000000000000000000000000000000000000000000000000000000000000000000000000000000000000000000000000000000000000000000000000000000000000000000000000000000000000000000000000000000000000000000000000000000000000000000000000000000000000000000000000000000000000000000000000000000000000000000000000000000000000000000000000000000000000000000000000000000000000000000000000000000000000000000000000000000000000000000000000000000000000000000000000000000000000000000000000000000000000000000000000000000000000000000000000000000000000000000000000000000000000000000000000000000000000000000000000000000000000000000000000000000000000000000000000000000000000000000000000000000000000000000000000000000000000000000000000000000000000000000000000000000000000000000000000000000000000000000000000000000000000000000000000000000000000000000000000000000000000000000000000000000000000000000000000000000000000000000000000000000000000000000000000000000000000000000000000000000000000000000000000000000000000000000000000000000000000000000000000000000000000000000000000000000000000000000000000000000000000000000000000000000000000000000000000000000000000000000000000000000000000000000000000000000000000000000000000000000000000000000000000000000000000000000000000000000000000000000000000000000000000000000000000000000000000000000000000000000000000000000000000000000000000000000000000000000000000000000000000000000000000000000000000000000000000000000000000000000000000000000000000000000000000000000000000000000000000000000000000000000000000000000000000000000000000000000000000000000000000000000000000000000000000000000000000000000000000000000000000000000000000000000000000000000000000000000000000000000000000000000000000000000000000000000000000000000000000000000000000000000000000000000000000000000000000000000000000000000000000000000000000000000000000000000000000000000000000000000000000000000000000000000000000000000000000000000000000000000000000000000000000000000000000000000000000000000000000000000000000000000000000000000000000000000000000000000000000000000000000000000000000000000000000000000000000000000000000000000000000000000000000000000000000000000000000000000000000000000000000000000000000000000000000000000000000000000000000000000000000000000000000000000000000000000000000000000000000000000000000000000000000000000000000000000000000000000000000000000000000000000000000000000000000000000000000000000000000000000000000000000000000000000000000000000000000000000000000000000000000
#017380:000000000000000000000000000000000000000000000000000000000000000000000000000000000000000000000000000000000000000000000000000000000000000000000000000000000000000000000000000000000000000000000000000000000000000000000000000000000000000000000000000000000000000000000000000000000000000000000000000000000000000000000000000000000000000000000000000000000000000000000000000000000000000000000000000000000000000000000000000000000000000000000000000000000000000000000000000000000000000000000000000000000000000000000000000000000000000000000000000000000000000000000000000000000000000000000000000000000000000000000000000000000000000000000000000000000000000000000000000000000000000000000000000000000000000000000000000000000000000000000000005400000000000000000000000000000000000000000000000000000000000000000000000000000000000000000000000000000000000000000000000000000000000000000000000000000000000000000000000000000000000000000000000000000000000000000000000000000000000000000000000000000000000000000000000000000000000000000000000000000000000000000000000000000000000000000000000000000000000000000000000000000000000000000000000000000000000000000000000000000000000000000000000000000000000000000000000000000000000000000000000000000000000000000000000000000000000000000000000000000000000000000000000000000000000000000000000000000000000000000000000000000000000000000000000000000000000000000000000000000000000000000000000000000000000000000000000000000000000000000000000000000000000000000000000000000000000000000000000000000000000000000000000000000000000000000000000000000000000000000000000000000000000000000000000000000000000000000000000000000000000000000000000000000000000000000000000000000000000000000000000000000000000000000000000000000000000000000000000000000000000000000000000000000000000000000000000000000000000000000000000000000000000000000000000000000000000000000000000000000000000000000000000000000000000000000000000000000000000000000000000000000000000000000000000000000000000000000000000000000000000000000000000000000000000000000000000000000000000000000000000000000000000000000000000000000000000000000000000000000000000000000000000000000000000000000000000000000000000000000000000000000000000000000000000000000000000000000000000000000000000000000000000000000000000000000000000000000000000000000000000000000000000000000000000000000000000000000000000000000000000000000000000000000000000000000000000000000000000000000000000000000000000000000000000000000000000000000000000000000000000000000000000000000000000000000000000000000000000000000000000000000000000000000000000000000000000000000000000000000000000000000000000000000000000000000000000000000000000000000000000000000000000000000000000000000000000000000000000000000000000000000000000000000000000000000000000000000000000000000000000000000000000000000000000000000000000000000000000000000000000000000000000000000000000000000000000000000000000000000000000000000000000000000000000000000000000000000000000000000000000000000000000000000000000000000000000000000000000000000000000000000000000000000000000000000000000000000000000000000000000000000000000000000000000000000000000000000000000000000000000000000000000000000000000000000000000000000000000000000000000000000000000000000000000000000000000000000000000000000000000000000000000000000000000000000000000000000000000000000000000000000000000000000000000000000000000000000000000000000000000000000000000000000000000000000000000000000000000000000000000000000000000000000000000000000000000000000000000000000000000000000000000000000000000000000000000000000000000000000000000000000000000000000000000000000000000000000000000000000000000000000000000000000000000000000000000000000000000000000000000000000000000000000000000000000000000000000000000000000000000000000000000000000000000000000000000000000000000000000000000000000000000000000000000000000000000000000000000000000000
#018320:13230000
#0183b1:13230000
#019321:14240000
#0193a0:14240000
#020320:00000015
#021320:25
#020391:00000015
#021391:25
#022321:0014
#022341:00000024
#022380:0014
#0223a0:00000024
#0233a0:0014
#023380:00000024
#023341:0014
#023321:00000024
#024341:0000000000001323
#024390:0000000000001323
#0253b0:0013000000002300
#025380:00000000000000530000000000000000
#025321:0013000000002300
#025351:00000000000000530000000000000000
#026351:00130000
#026341:0000002500000000
#026381:00000013
#026371:0000000000000025
#0273a1:0000000000000000000000000000000014340000000000000000000000000000
#0273b1:00000000000000000033000023000000
#030321:13545354535453542300000000000000
#0303b0:0000000013535353
#0303a0:00000000000000000054005400540054
#0313b0:33
#031380:00000023000000000000000000000000
#031321:13
#031351:00000023000000000000000000000000
#033321:0000000000000014
#034321:24
#034360:14
#0343a0:00240000
#034330:00000000000000001454545424000000
#034320:0000000000000000000000000000000000540000005400000000000000000000
#034340:0000000000000000000000000000000000000054000000540000000000000000
#034391:00000000000000000000000014545454
#0343a1:0000000000000000000000000000000000000000000000000054000000540000
#034381:0000000000000000000000000000000000000000000000000000005400000054
#035391:24
#035320:14240000
#035360:0053000000000000
#0353a1:00142400
#035371:0000003300000000
#038381:0000000000152500
#038330:0000000000001525
#039340:0000001400000000
#039320:0000000053230000
#039381:0000001400000000
#0393b1:0000000053230000
#043361:0012
#043331:0000000000550000
#043351:00000022
#043380:0000000012550000
#043390:00000022
#044320:0014002400000000
#045340:00182800
#0463a0:0014002400000000
#047330:001a2a00
#048320:1400343424000000
#0493a0:1400343424000000
#049380:00000000000000000000001300002300
#051350:00000013
#051330:0000000000000024
#051381:00000013
#051391:0000000000000024
#0523a1:0014000000000000
#052381:00005626
#052320:0014000056002600
#055340:0014000000000000
#055320:00000054000024000000000000000000
#055381:0014000000000000
#0553a1:00000054000024000000000000000000
#0583a1:1453535324000000
#0583b1:00530053005300530000000000000000
#058320:0000000014535353
#058330:00000000000000000053005300530053
#059320:34
#059350:00000023000000000000000000000000
#0593a1:14
#059381:00000023000000000000000000000000
#059321:0000000000000014
#060321:00240000
#0603a0:14240000
#060360:0053000000000000
#0613a0:0000000000000014
#0623a0:24
#062361:14
#062321:00240000
#062391:00000000000000001454545424000000
#0623a1:0000000000000000000000000000000000540000005400000000000000000000
#062381:0000000000000000000000000000000000000054000000540000000000000000
#062330:00000000000000000000000014545454
#062320:0000000000000000000000000000000000000000000000000054000000540000
#062340:0000000000000000000000000000000000000000000000000000005400000054
#063330:24
#0633a1:14240000
#063351:0055000000000000
#063320:00142400
#063360:0000003500000000
#066330:0000000000152500
#066381:0000000000001525
#067321:14
#067351:0023000000000000
#0673a0:14
#067380:0023000000000000
#069320:00000014
#070320:24
#0693a1:00000014
#0703a1:24
#0713a1:0000001400240000
#0009a0:00000014
#000960:000000000000000000000000000000000000000000000000000000000000000000000000000000000000000000000000000000000000000000000000000000000000000000000000000000000000000000000000000000000000000000000000000000000000000000000000000000000000000000000000000000000000000000000000000000000000000000000000000000000000000000000000000000000000000000000000000000000000000000000000000000000000000000000000000000000000000000000000000000000000000000000000000000000000000000000000000000000000000000000000000000000000000000000000000000000000000000000000000000000000000000000000000000000000000000000000000000000000000000000000000000000000000000000000000000000000000000000000000000000000000000000000000000000000000000000000000000000000000000000000000000000000000000000000000000000000000000000000000000000000000000000000000000000000000000000000000000000000000000000000000000000000000000000000000000000000000000000000000000000000000000000000000000000000000000000000000000000000000000000000000000000000000000000000000000000000000000000000000000000000000000000000000000000000000000000000000000000000000000000000000000000000000000000000000000000000000000000000000000000000000000000000000000000000000000000000000000000000000000000000000000000000000000000000000000000000000000000000000000000000000000000000000000000000000000000000000000000000000000000000000000000000000000000000000000000000000000000000000000000000000000000000000000000000000000000000000000000000000000000000000000000000000000000000000000000000000000000000000000000000000000000000000000000000000000000000000000000000000000000000000000000000000000000000000000000000000000000000000000000000000000000000000000000000000000000000000000000000000000000000000000000000000000000000000000000000000000000000000000000000000000000000000000000000000000000000000000000000000000000000000000000000000000000000000000000000000000000000000000000000000000000000000000000000000000000000000000000000000000000000000000000000000000000000000000000000000000000000000000000000000000000000000000000000000000000000000000000000000000000000000000000000000000000000000000000000000000000000000000000000000000000000000000000000000000000000000000000000000000000000000000000000000000000000000000000000000000000000000000000000000000000000000000000000000000000000000000000000000000000000000000000000000000000000000000000000000000000000000000000000000000000000000000000000000000000000000000000000000000000000000000000000000000000000000000000000000000000000000000000000000000000000000000000000000000000000000000000000000000000000000000000000000000000000000000000000000000000000000000000000000000000000000000000000000000000000000000000000000000000000000000000000000000000000000000000000000000000000000000000000000000000000000000000000000000000000000000000000000000000000000000000000000000000000000000000000000000000000000000000000000000000000000000000000000000000000000000000000000000000000000000000000000000000000000000000000000000000000000000000000000000000000000000000000000000000000000000000000000000000000000000000000000000000000000000000000000000000000000000000000000000000000000000000000000000000000000000000000000000000000000000000000000000000000000000000000000000000000000000000000000000000000000000000000000000000000000000000000000000000000000000000000000000000000000000000000000000000000000000000000000000000000000000000000000000000000000000000000000000000000000000000000000000000000000000000000000000000000000000000000000000000000000000000000000000000000000000000000000000000000000000000000000000000000000000000000000000000000000000000000000000000000000000000000000000000000000000000000000000000000000000000000000000000000000000000000000000000000000000000000000000000000000000000000000000000000000000000000000000000000000000000000000000000000000000000000000000000000000000000000000000000000000000000000000000000000000000000000000000000054
#001960:24
#013960:00000014
#013990:000000000000000000000000000000000000000000000000000000000000000000000000000000000000000000000000000000000000000000000000000000000000000000000000000000000000000000000000000000000000000000000000000000000000000000000000000000000000000000000000000000000000000000000000000000000000000000000000000000000000000000000000000000000000000000000000000000000000000000000000000000000000000000000000000000000000000000000000000000000000000000000000000000000000000000000000000000000000000000000000000000000000000000000000000000000000000000000000000000000000000000000000000000000000000000000000000000000000000000000000000000000000000000000000000000000000000000000000000000000000000000000000000000000000000000000000000000000000000000000000000000000000000000000000000000000000000000000000000000000000000000000000000000000000000000000000000000000000000000000000000000000000000000000000000000000000000000000000000000000000000000000000000000000000000000000000000000000000000000000000000000000000000000000000000000000000000000000000000000000000000000000000000000000000000000000000000000000000000000000000000000000000000000000000000000000000000000000000000000000000000000000000000000000000000000000000000000000000000000000000000000000000000000000000000000000000000000000000000000000000000000000000000000000000000000000000000000000000000000000000000000000000000000000000000000000000000000000000000000000000000000000000000000000000000000000000000000000000000000000000000000000000000000000000000000000000000000000000000000000000000000000000000000000000000000000000000000000000000000000000000000000000000000000000000000000000000000000000000000000000000000000000000000000000000000000000000000000000000000000000000000000000000000000000000000000000000000000000000000000000000000000000000000000000000000000000000000000000000000000000000000000000000000000000000000000000000000000000000000000000000000000000000000000000000000000000000000000000000000000000000000000000000000000000000000000000000000000000000000000000000000000000000000000000000000000000000000000000000000000000000000000000000000000000000000000000000000000000000000000000000000000000000000000000000000000000000000000000000000000000000000000000000000000000000000000000000000000000000000000000000000000000000000000000000000000000000000000000000000000000000000000000000000000000000000000000000000000000000000000000000000000000000000000000000000000000000000000000000000000000000000000000000000000000000000000000000000000000000000000000000000000000000000000000000000000000000000000000000000000000000000000000000000000000000000000000000000000000000000000000000000000000000000000000000000000000000000000000000000000000000000000000000000000000000000000000000000000000000000000000000000000000000000000000000000000000000000000000000000000000000000000000000000000000000000000000000000000000000000000000000000000000000000000000000000000000000000000000000000000000000000000000000000000000000000000000000000000000000000000000000000000000000000000000000000000000000000000000000000000053230000000000000000000000000000000000000000000000000000000000000000000000000000000000000000000000000000000000000000000000000000000000000000000000000000000000000000000000000000000000000000000000000000000000000000000000000000000000000000000000000000000000000000000000000000000000000000000000000000000000000000000000000000000000000000000000000000000000000000000000000000000000000000000000000000000000000000000000000000000000000000000000000000000000000000000000000000000000000000000000000000000000000000000000000000000000000000000000000000000000000000000000000000000000000000000000000000000000000000000000000000000000000000000000000000000000000000000000000000000000000000000000000000000000000000000000000000000000000000000000000000000000000000000000000000000000000000000000000000000000000000000000000000000000000000000000000000000000000000000000
#0479a0:00000014
#047960:000000000000000000000000000000000000000000000000000000000000000000000000000000000000000000000000000000000000000000000000000000000000000000000000000000000000000000000000000000000000000000000000000000000000000000000000000000000000000000000000000000000000000000000000000000000000000000000000000000000000000000000000000000000000000000000000000000000000000000000000000000000000000000000000000000000000000000000000000000000000000000000000000000000000000000000000000000000000000000000000000000000000000000000000000000000000000000000000000000000000000000000000000000000000000000000000000000000000000000000000000000000000000000000000000000000000000000000000000000000000000000000000000000000000000000000000000000000000000000000000000000000000000000000000000000000000000000000000000000000000000000000000000000000000000000000000000000000000000000000000000000000000000000000000000000000000000000000000000000000000000000000000000000000000000000000000000000000000000000000000000000000000000000000000000000000000000000000000000000000000000000000000000000000000000000000000000000000000000000000000000000000000000000000000000000000000000000000000000000000000000000000000000000000000000000000000000000000000000000000000000000000000000000000000000000000000000000000000000000000000000000000000000000000000000000000000000000000000000000000000000000000000000000000000000000000000000000000000000000000000000000000000000000000000000000000000000000000000000000000000000000000000000000000000000000000000000000000000000000000000000000000000000000000000000000000000000000000000000000000000000000000000000000000000000000000000000000000000000000000000000000000000000000000000000000000000000000000000000000000000000000000000000000000000000000000000000000000000000000000000000000000000000000000000000000000000000000000000000000000000000000000000000000000000000000000000000000000000000000000000000000000000000000000000000000000000000000000000000000000000000000000000000000000000000000000000000000000000000000000000000000000000000000000000000000000000000000000000000000000000000000000000000000000000000000000000000000000000000000000000000000000000000000000000000000000000000000000000000000000000000000000000000000000000000000000000000000000000000000000000000000000000000000000000000000000000000000000000000000000000000000000000000000000000000000000000000000000000000000000000000000000000000000000000000000000000000000000000000000000000000000000000000000000000000000000000000000000000000000000000000000000000000000000000000000000000000000000000000000000000000000000000000000000000000000000000000000000000000000000000000000000000000000000000000000000000000000000000000000000000000000000000000000000000000000000000000000000000000000000000000000000000000000000000000000000000000000000000000000000000000000000000000000000000000000000000000000000000000000000000000000000000000000000000000000000000000000000000000000000000000000000000000000000000000000000000000000000000000000000000000000000000000000000000000000000000000000000000000000000000000000000000000000000000000000000000000000000000000000000000000000000000000000000000000000000000000000000000000000000000000000000000000000000000000000000000000000000000000000000000000000000000000000000000000000000000000000000000000000000000000000000000000000000000000000000000000000000000000000000000000000000000000000000000000000000000000000000000000000000000000000000000000000000000000000000000000000000000000000000000000000000000000000000000000000000000000000000000000000000000000000000000000000000000000000000000000000000000000000000000000000000000000000000000000000000000000000000000000000000000000000000000000000000000000000000000000000000000000000000000000000000000000000000000000000000000000000000000000000000000000000000000000000000000000000000000000000000000000000000000000000000000000000000000000000000000000000000000000000000054
#048960:24
#067940:0000001400000000
#067920:000000000000000000000000000000000000000000000000000000000000000000000000000000000000000000000000000000000000000000000000000000000000000000000000000000000000000000000000000000000000000000000000000000000000000000000000000000000000000000000000000000000000000000000000000000000000000000000000000000000000000000000000000000000000000000000000000000000000000000000000000000000000000000000000000000000000000000000000000000000000000000000000000000000000000000000000000000000000000000000000000000000000000000000000000000000000000000000000000000000000000000000000000000000000000000000000000000000000000000000000000000000000000000000000000000000000000000000000000000000000000000000000000000000000000000000000000000000000000000000000000000000000000000000000000000000000000000000000000000000000000000000000000000000000000000000000000000000000000000000000000000000000000000000000000000000000000000000000000000000000000000000000000000000000000000000000000000000000000000000000000000000000000000000000000000000000000000000000000000000000000000000000000000000000000000000000000000000000000000000000000000000000000000000000000000000000000000000000000000000000000000000000000000000000000000000000000000000000000000000000000000000000000000000000000000000000000000000000000000000000000000000000000000000000000000000000000000000000000000000000000000000000000000000000000000000000000000000000000000000000000000000000000000000000000000000000000000000000000000000000000000000000000000000000000000000000000000000000000000000000000000000000000000000000000000000000000000000000000000000053230000000000000000000000000000000000000000000000000000000000000000000000000000000000000000000000000000000000000000000000000000000000000000000000000000000000000000000000000000000000000000000000000000000000000000000000000000000000000000000000000000000000000000000000000000000000000000000000000000000000000000000000000000000000000000000000000000000000000000000000000000000000000000000000000000000000000000000000000000000000000000000000000000000000000000000000000000000000000000000000000000000000000000000000000000000000000000000000000000000000000000000000000000000000000000000000000000000000000000000000000000000000000000000000000000000000000000000000000000000000000000000000000000000000000000000000000000000000000000000000000000000000000000000000000000000000000000000000000000000000000000000000000000000000000000000000000000000000000000000000000000000000000000000000000000000000000000000000000000000000000000000000000000000000000000000000000000000000000000000000000000000000000000000000000000000000000000000000000000000000000000000000000000000000000000000000000000000000000000000000000000000000000000000000000000000000000000000000000000000000000000000000000000000000000000000000000000000000000000000000000000000000000000000000000000000000000000000000000000000000000000000000000000000000000000000000000000000000000000000000000000000000000000000000000000000000000000000000000000000000000000000000000000000000000000000000000000000000000000000000000000000000000000000000000000000000000000000000000000000000000000000000000000000000000000000000000000000000000000000000000000000000000000000000000000000000000000000000000000000000000000000000000000000000000000000000000000000000000000000000000000000000000000000000000000000000000000000000000000000000000000000000000000000000000000000000000000000000000000000000000000000000000000000000000000000000000000000000000000000000000000000000000000000000000000000000000000000000000000000000000000000000000000000000000000000000000000000000000000000000000000000000000000000000000000000000000000000000000000000000000000000000000000000000000000000000000000000000000000000000000000000000000000000000000000000000000000000000000000000000000000000000000000000000000000000000000000000000000000000000000000000000000000000000000000000000000000000000000000000000
#067981:0000001400000000
#0679b1:000000000000000000000000000000000000000000000000000000000000000000000000000000000000000000000000000000000000000000000000000000000000000000000000000000000000000000000000000000000000000000000000000000000000000000000000000000000000000000000000000000000000000000000000000000000000000000000000000000000000000000000000000000000000000000000000000000000000000000000000000000000000000000000000000000000000000000000000000000000000000000000000000000000000000000000000000000000000000000000000000000000000000000000000000000000000000000000000000000000000000000000000000000000000000000000000000000000000000000000000000000000000000000000000000000000000000000000000000000000000000000000000000000000000000000000000000000000000000000000000000000000000000000000000000000000000000000000000000000000000000000000000000000000000000000000000000000000000000000000000000000000000000000000000000000000000000000000000000000000000000000000000000000000000000000000000000000000000000000000000000000000000000000000000000000000000000000000000000000000000000000000000000000000000000000000000000000000000000000000000000000000000000000000000000000000000000000000000000000000000000000000000000000000000000000000000000000000000000000000000000000000000000000000000000000000000000000000000000000000000000000000000000000000000000000000000000000000000000000000000000000000000000000000000000000000000000000000000000000000000000000000000000000000000000000000000000000000000000000000000000000000000000000000000000000000000000000000000000000000000000000000000000000000000000000000000000000000000000000000053230000000000000000000000000000000000000000000000000000000000000000000000000000000000000000000000000000000000000000000000000000000000000000000000000000000000000000000000000000000000000000000000000000000000000000000000000000000000000000000000000000000000000000000000000000000000000000000000000000000000000000000000000000000000000000000000000000000000000000000000000000000000000000000000000000000000000000000000000000000000000000000000000000000000000000000000000000000000000000000000000000000000000000000000000000000000000000000000000000000000000000000000000000000000000000000000000000000000000000000000000000000000000000000000000000000000000000000000000000000000000000000000000000000000000000000000000000000000000000000000000000000000000000000000000000000000000000000000000000000000000000000000000000000000000000000000000000000000000000000000000000000000000000000000000000000000000000000000000000000000000000000000000000000000000000000000000000000000000000000000000000000000000000000000000000000000000000000000000000000000000000000000000000000000000000000000000000000000000000000000000000000000000000000000000000000000000000000000000000000000000000000000000000000000000000000000000000000000000000000000000000000000000000000000000000000000000000000000000000000000000000000000000000000000000000000000000000000000000000000000000000000000000000000000000000000000000000000000000000000000000000000000000000000000000000000000000000000000000000000000000000000000000000000000000000000000000000000000000000000000000000000000000000000000000000000000000000000000000000000000000000000000000000000000000000000000000000000000000000000000000000000000000000000000000000000000000000000000000000000000000000000000000000000000000000000000000000000000000000000000000000000000000000000000000000000000000000000000000000000000000000000000000000000000000000000000000000000000000000000000000000000000000000000000000000000000000000000000000000000000000000000000000000000000000000000000000000000000000000000000000000000000000000000000000000000000000000000000000000000000000000000000000000000000000000000000000000000000000000000000000000000000000000000000000000000000000000000000000000000000000000000000000000000000000000000000000000000000000000000000000000000000000000000000000000000000000000000000000000000000
#0719a1:0000000000140000
#071961:000000000000000000000000000000000000000000000000000000000000000000000000000000000000000000000000000000000000000000000000000000000000000000000000000000000000000000000000000000000000000000000000000000000000000000000000000000000000000000000000000000000000000000000000000000000000000000000000000000000000000000000000000000000000000000000000000000000000000000000000000000000000000000000000000000000000000000000000000000000000000000000000000000000000000000000000000000000000000000000000000000000000000000000000000000000000000000000000000000000000000000000000000000000000000000000000000000000000000000000000000000000000000000000000000000000000000000000000000000000000000000000000000000000000000000000000000000000000000000000000000000000000000000000000000000000000000000000000000000000000000000000000000000000000000000000000000000000000000000000000000000000000000000000000000000000000000000000000000000000000000000000000000000000000000000000000000000000000000000000000000000000000000000000000000000000000000000000000000000000000000000000000000000000000000000000000000000000000000000000000000000000000000000000000000000000000000000000000000000000000000000000000000000000000000000000000000000000000000000000000000000000000000000000000000000000000000000000000000000000000000000000000000000000000000000000000000000000000000000000000000000000000000000000000000000000000000000000000000000000000000000000000000000000000000000000000000000000000000000000000000000000000000000000000000000000000000000000000000000000000000000000000000000000000000000000000000000000000000000000000000000000000000000000000000000000000000000000000000000000000000000000000000000000000000000000000000000000000000000000000000000000000000000000000000000000000000000000000000000000000000000000000000000000000000000000000000000000000000000000000000000000000000000000000000000000000000000000000000000000000000000000000000000000000000000000000000000000000000000000000000000000000000000000000000000000000000000000000000000000000000000000000000000000000000000000000000000000000000000000000000000000000000000000000000000000000000000000000000000000000000000000000000000000000000000000000000000000000000000000000000000000000000000000000000000000000000000000000000000000000000000000000000000000000000000000000000000000000000000000000000000000000000000000000000000000000000000000000000000000000000000000000000000000000000000000000000000000000000000000000000000000000000000000000000000000000000000000000000000000000000000000000000000000000000000000000000000000000000000000000000000000000000000000000000000000000000000000000000000000000000000000000000000000000000000000000000000000000000000000000000000000000000000000000000000000000000000000000000000000000000000000000000000000000000000000000000000000000000000000000000000000000000000000000000000000000000000000000000000000000000000000000000000000000000000000000000000000000000000000054240000000000000000000000000000000000000000000000000000000000000000000000000000000000000000000000000000000000000000000000000000000000000000000000000000000000000000000000000000000000000000000000000000000000000000000000000000000000000000000000000000000000000000000000000000000000000000000000000000000000000000000000000000000000000000000000000000000000000000000000000000000000000000000000000000000000000000000000000000000000000000000000000000000000000000000000000000000000000000000000000000000000000000000000000000000000000000000000000000000000000000000000000000000000000000000000000000000000000000000000000000000000000000000000000000000000000000000000000000000000000000000000000000000000000000000000000000000000000000000000000000000000000000000000000000000000000000000000000000000000000000000000000000000000000000000000000000000000000000000000000000000000000000000000000000000000000000000000000000000000000000000000000000000000000000000000000000000000000000000000
#071960:0000000000140000
#071920:000000000000000000000000000000000000000000000000000000000000000000000000000000000000000000000000000000000000000000000000000000000000000000000000000000000000000000000000000000000000000000000000000000000000000000000000000000000000000000000000000000000000000000000000000000000000000000000000000000000000000000000000000000000000000000000000000000000000000000000000000000000000000000000000000000000000000000000000000000000000000000000000000000000000000000000000000000000000000000000000000000000000000000000000000000000000000000000000000000000000000000000000000000000000000000000000000000000000000000000000000000000000000000000000000000000000000000000000000000000000000000000000000000000000000000000000000000000000000000000000000000000000000000000000000000000000000000000000000000000000000000000000000000000000000000000000000000000000000000000000000000000000000000000000000000000000000000000000000000000000000000000000000000000000000000000000000000000000000000000000000000000000000000000000000000000000000000000000000000000000000000000000000000000000000000000000000000000000000000000000000000000000000000000000000000000000000000000000000000000000000000000000000000000000000000000000000000000000000000000000000000000000000000000000000000000000000000000000000000000000000000000000000000000000000000000000000000000000000000000000000000000000000000000000000000000000000000000000000000000000000000000000000000000000000000000000000000000000000000000000000000000000000000000000000000000000000000000000000000000000000000000000000000000000000000000000000000000000000000000000000000000000000000000000000000000000000000000000000000000000000000000000000000000000000000000000000000000000000000000000000000000000000000000000000000000000000000000000000000000000000000000000000000000000000000000000000000000000000000000000000000000000000000000000000000000000000000000000000000000000000000000000000000000000000000000000000000000000000000000000000000000000000000000000000000000000000000000000000000000000000000000000000000000000000000000000000000000000000000000000000000000000000000000000000000000000000000000000000000000000000000000000000000000000000000000000000000000000000000000000000000000000000000000000000000000000000000000000000000000000000000000000000000000000000000000000000000000000000000000000000000000000000000000000000000000000000000000000000000000000000000000000000000000000000000000000000000000000000000000000000000000000000000000000000000000000000000000000000000000000000000000000000000000000000000000000000000000000000000000000000000000000000000000000000000000000000000000000000000000000000000000000000000000000000000000000000000000000000000000000000000000000000000000000000000000000000000000000000000000000000000000000000000000000000000000000000000000000000000000000000000000000000000000000000000000000000000000000000000000000000000000000000000000000000000000000000000000000000000000054240000000000000000000000000000000000000000000000000000000000000000000000000000000000000000000000000000000000000000000000000000000000000000000000000000000000000000000000000000000000000000000000000000000000000000000000000000000000000000000000000000000000000000000000000000000000000000000000000000000000000000000000000000000000000000000000000000000000000000000000000000000000000000000000000000000000000000000000000000000000000000000000000000000000000000000000000000000000000000000000000000000000000000000000000000000000000000000000000000000000000000000000000000000000000000000000000000000000000000000000000000000000000000000000000000000000000000000000000000000000000000000000000000000000000000000000000000000000000000000000000000000000000000000000000000000000000000000000000000000000000000000000000000000000000000000000000000000000000000000000000000000000000000000000000000000000000000000000000000000000000000000000000000000000000000000000000000000000000000000000
