This file was generated by Ched 2.7.0.0.
#TITLE ""
#ARTIST ""
#DESIGNER ""
#DIFFICULTY 0
#PLAYLEVEL
#SONGID ""
#WAVE ""
#WAVEOFFSET 0
#JACKET ""
#REQUEST "ticks_per_beat 480"
#00002: 4
#BPM01: 150
#00008: 01
#TIL00: ""
#VOLUME: ""
#HISPEED 00
#MEASUREHS 00
#0001b:13
#00016:0013000000000000
#00019:00130000
#00017:0013
#00012:0000000000130000
#00014:0000001300000000
#0001a:00000024
#00218:00000014
#00212:26260000
#00315:00140000
#00312:00000014
#00116:0014
#00414:00000014
#00418:26260000
#00818:0013000000140000
#00815:00130000
#0081b:0000001300000000
#00814:00000014
#0081a:0000000000000014
#00812:2324
#00912:2400001400000000
#00918:0000002400000000
#01015:0013000000000000
#01018:00130000
#01019:0000000000141400
#0101a:14
#01012:0000001400000000
#01010:41
#01118:0013000000000000
#01115:00130000
#01112:14
#0111a:0000001400000000
#01113:0000000000242400
#01215:0013000000000000
#01218:00130000
#01216:00000013
#01219:0000000000000013
#0121b:0000000000130000
#0121a:14
#01212:0000001400000000
#01317:0013000000000000
#01312:00130000
#01314:13
#01418:0013000000000000
#01415:00130000
#01413:0000000000141400
#01412:14
#0141a:0000001400000000
#01515:0013000000000000
#01518:00130000
#01519:0000000000141400
#0151a:14
#01512:0000001400000000
#01712:0000000000130000
#01714:0000000000000013
#01717:00000013
#01715:0014000000000000
#0171a:0014000000000000
#0181b:0000000000130000
#01816:00000013
#01819:2500000000000013
#01810:41
#01912:2500000000130000
#01915:0000000000000013
#01918:00000013
#02012:0000000013130000
#0201b:2313000000000000
#02015:00130000
#02018:0000001300000000
#02019:00000025
#02112:00150000
#02115:00000013
#0211b:0000000000000013
#02118:0000000000130000
#02218:00000014
#02214:00000024
#02314:00000014
#02318:00000024
#0241b:0013
#02418:0000000000130000
#02415:00000013
#02412:1400000000000013
#0241a:14
#02518:0014000000000000
#02514:0024000000000000
#02814:0014000000000000
#02817:0000001400000000
#02818:2400000000000014
#02812:00000014
#0281a:00240000
#02819:00000000000000340000000000000000
#02810:41
#02918:0014000000000000
#02915:0000001400000013
#0291a:00000014
#02914:14
#02912:00240000
#02913:00000000000000340000000000000000
#03015:0013000000230000
#0301b:00130023
#03012:0000001300000023
#03018:1323
#03118:1400000014000013
#03114:0000001400000000
#03112:0000000000140000
#0351a:14
#03518:00001426
#03513:00140000
#03512:24000016
#03514:0024
#03519:00240000
#03818:0013000000130000
#0381b:0000001300000013
#03812:1313
#03815:00230023
#04018:0014000000000000
#04015:0000001400000000
#04014:2400000000000014
#0401a:00000014
#04012:00240000
#04013:00000000000000340000000000000000
#04114:0014000000000000
#04117:0000001400000000
#04112:00000014
#04118:24
#0411a:00240000
#04119:00000000000000340000000000000000
#0391a:0000001400000000
#03912:14
#03918:0014000000002400
#03914:00140000
#03418:0014
#03413:0000130000340000
#0341a:00130000
#03415:13
#03414:0014
#03419:0000000000340000
#04218:13
#04212:0014
#04215:23
#0421a:0024
#04313:00150000
#04318:14251600
#04314:24
#04312:0026
#04516:0013000000000000
#04519:13
#0451a:00240000
#04414:0000000000000013
#04417:00000013
#04412:1414001400130000
#04418:1414001400000000
#04410:41
#04717:0013000000002300
#04714:13
#04712:00240000
#04619:0000000000000013
#04616:00000013
#0461b:0000000000130000
#0461a:1414001400000000
#04614:1414001400000000
#05112:0000000014002515
#05119:0000000000001525
#0511a:14
#05114:00140000
#05118:0000001400000000
#05812:00140024
#0581a:0000001400000024
#05818:0014000000240000
#05814:1424
#05914:1414
#05918:0000001400000000
#0591a:0000000000140000
#05915:0000000000000013
#06312:14000026
#06314:0014
#06319:00140000
#06318:00002416
#0631a:24
#06313:00240000
#06618:0013000000140000
#0661b:0000001300000000
#0661a:0000000000000014
#06612:1314
#06615:00230000
#06614:00000024
#06814:0014000000000000
#06817:0000001400000000
#06818:2400000000000014
#06812:00000014
#0681a:00240000
#06819:00000000000000340000000000000000
#06918:0014000000000000
#06915:0000001400000000
#0691a:00000014
#06914:24
#06912:00240000
#06913:00000000000000340000000000000000
#0621a:00140000
#06214:0014
#06218:2424
#06212:00240000
#06213:0000000000340000
#06219:0000000000340000
#07018:0013000000130000
#07015:00130013
#07019:0000001300000000
#0701a:0000000000000013
#07013:0013
#07014:23
#07112:2400001400000000
#07118:0000002400000000
#07114:00000000000000000000343400000000
#0711a:00000000000000000000343400000000
#0571a:0000000000142400
#05712:0026000000241400
#05714:0000001400000000
#05718:2600002400000000
#05518:0024001400000000
#05514:2400002400000000
#01612:1514
#01619:00150000
#0161a:0000000000000014
#01618:0000000000140000
#01614:00000014
#04817:0013
#0481b:00000000000000000000333300000000
#04916:0013
#0491a:0000000000000014
#04912:23000000000000000000333300000000
#06712:14000064
#06714:0034340000000000
#06716:0000005400000000
#05014:1400000000140000
#05018:0014000014000000
#05012:0000001400000000
#0501a:0000000000000014
#0531f:11
#05312:53
#05313:0053000000000000
#05314:00530000
#05315:0000005300000000
#05316:0053
#00612:24240000
#00618:0024000000000000
#0071a:24240000
#00714:0024000000000000
#02712:00000026
#02717:53
#02718:0053000000000000
#02719:00530000
#0271a:0000005300000000
#0271b:0053
#03219:00240000
#03213:00000024
#0331a:00240000
#03312:00000024
#03612:24240000
#03618:0024000000000000
#03610:41
#0371a:24240000
#03714:0024000000000000
#05212:0026000000006600
#05218:00000056
#06012:00240000
#0601a:00000024
#0601f:00210000
#06112:00240000
#0611a:00000024
#06110:41
#05614:28
#06412:24000000000000240000000000000000
#0641a:0024000000000000
#06415:00230000
#06418:00000000002300000000000000000000
#0651a:24000000000000240000000000000000
#06512:0024000000000000
#06518:00230000
#06515:00000000002300000000000000000000
#0261b:53
#02619:0053
#02612:63
#0541b:63
#0541a:0063000000000000
#05419:00630000
#05418:0000006300000000
#05417:0063
#0015a:00000014
#00156:0064
#00252:00160000
#00458:00160000
#00654:00000014
#00758:00000014
#00552:00000014
#00558:00000014
#0055a:0014000000000000
#00952:0000006400000000
#00958:0000006400000000
#0135a:00000014
#01859:00150000
#01952:00150000
#02159:15
#02152:00150000
#02454:00140000
#02458:00140000
#0245a:64
#02452:64
#02558:0054000000000000
#02554:0054000000000000
#02752:00000016
#0275b:0013
#0285a:00644400
#02857:0000002400000000
#02955:0000002400000000
#02952:00543400
#03158:64
#03152:0000000000140000
#0315a:00000014000000000000000000000000
#02252:0014
#0235a:0014
#03558:00000016
#03552:00000016
#03654:00000014
#03758:00000014
#0345a:00000014
#03452:00000014
#03458:0064
#03454:0064
#04055:0000002400000000
#04052:00543400
#04157:0000002400000000
#0415a:00644400
#0395a:0000005400000000
#03958:00000014
#04255:63000013
#04258:63000013
#04252:00146400
#0425a:00146400
#04352:0016
#04358:14151600
#04354:14
#04353:00150000
#0455a:0014
#04452:0000001400000000
#04458:0000001400000000
#04752:0014
#0485b:00000013
#04857:0063
#04952:00000013
#04956:0063
#05152:0000000014000015
#05159:0000000000000015
#0515a:14
#05356:0013
#05457:0013
#05954:54
#0595a:0000000000140000
#05952:00000014000000000000000000000000
#06857:0000002400000000
#0685a:00644400
#06955:0000002400000000
#06952:00543400
#06358:00000016
#06352:00000016
#0625a:00140014
#06254:0054
#06252:00140014
#06258:0064
#07152:0000006400000000
#07158:0000006400000000
#07154:00000014
#0715a:00000014
#05654:18
#05554:0000005400000000
#05558:0000005400000000
#05752:00000014
#0575a:00000014
#01059:00000014
#01453:00000014
#0145a:0000001400000000
#01559:00000014
#01552:0000001400000000
#06752:64000014
#06756:0000006400000000
#01153:00000014
#01652:15
#01659:00150000
#0165a:0000000000000014
#0465a:0000001400000000
#04654:0000001400000000
#05058:0014000000000000
#05054:0000000000140000
#01755:0064000000000000
#0175a:0064000000000000
#06454:00000014
#06558:00000014
#0003a0:00000014
#000390:00000000000000000000000000340000
#000380:0000000000000034
#000370:00000000000000000000000000000034
#001360:3434
#001350:005400000054000000540000005400000054000000540000000000000000000000000000000000000000000000000000
#001370:000000540000005400000054000000540000005400000054000000000000000000000000000000000000000000000000
#0013a0:00000024
#004380:0000000000000014
#0053a0:0024000000000000
#005340:0000001400000000
#005320:00000024
#0053a1:0000001400000000
#005381:00000024
#006321:00000000143400340000000000000000
#006341:00000000000000000034003424000000
#0073a1:00000000143400340000000000000000
#007381:00000000000000000034003424000000
#009321:1400003400000000
#009341:00000024
#009380:0000001400000000
#0093a0:00000024
#013380:0000001400000000
#0133a0:00000024
#017350:0014000000000000
#017320:0000002400000000
#0173a1:0014000000000000
#017371:0000002400000000
#018391:15250000
#019321:15250000
#020391:00000015
#021391:25
#022321:1400003424000000
#022351:00000034000000000000000000000000
#0233a1:1400003424000000
#023371:00000034000000000000000000000000
#024321:14
#024341:00240000
#0243a0:14
#024380:00240000
#025340:0014000000000000
#026320:23
#025381:0014000000000000
#0263b1:23
#0283a1:00142400
#028371:0000003400000000
#028391:00000000000000340000000000000000
#029321:00142400
#029351:0000003400000000
#029331:00000000000000340000000000000000
#031381:14
#0313a1:00000024000000000000000000000000
#032351:1323
#032380:0013
#033380:23
#033351:1323
#033380:0013
#034380:23
#034380:0014
#034390:0000000000340000
#0343a0:00000024
#034341:0014
#034331:0000000000340000
#034321:00000024
#036321:00000000143400340000000000000000
#036341:00000000000000000034003424000000
#0373a1:00000000143400340000000000000000
#037381:00000000000000000034003424000000
#0393a1:0000001400000000
#039381:00000024
#040321:00142400
#040351:0000003400000000
#040331:00000000000000340000000000000000
#0413a1:00142400
#041371:0000003400000000
#041391:00000000000000340000000000000000
#042351:13
#042321:00240000
#042380:13
#0423a0:00240000
#0423a0:0014
#042380:00000023
#042321:0014
#042351:00000023
#0453a1:00142400
#047321:00142400
#047371:00000013
#047381:00000000000000000000000000330000
#047391:0000000000000033
#0473a1:00000000000000000000000000000033
#0483b1:33000000330000000000333323000000
#048391:0000003300000000
#048371:0033
#049321:13000000330000000000333323000000
#049341:0000003300000000
#049361:0033
#052381:0016000000002600
#052320:0016000000002600
#055340:0000001400000000
#055320:0000000000342400
#055381:0000001400000000
#0553a1:0000000000342400
#059341:14
#059321:00000024000000000000000000000000
#060381:1323
#060350:0013
#061350:23
#061381:1424
#061340:0014
#062340:24
#062340:0014
#062330:0000000000340000
#062320:00000024
#062381:0014
#062391:0000000000340000
#0623a1:00000024
#064321:00000000000000140000000000000000
#064341:00000000000000000034003424000000
#0653a1:00000000000000140000000000000000
#065381:00000000000000000034003424000000
#067321:14
#067341:0034340000000000
#067361:0000002400000000
#0683a1:00142400
#068371:0000003400000000
#068391:00000000000000340000000000000000
#069321:00142400
#069351:0000003400000000
#069331:00000000000000340000000000000000
#071321:1400003400000000
#071341:00000000000000000000343424000000
#071380:0000001400000000
#0713a0:00000000000000000000343424000000
#0269b0:13
#026990:0053
#027970:53
#0279b0:000000000000000000000000000000000000000000000000000000000000000000000000000000000000000000000000000000000000000000000000000000000000000000000000000000000000000000000000000000000000000000000000000000000000000000000000000000000000000000000000000000000000000000000000000000000000000000000000000000000000000000000000000000000000000000000000000000000000000000000000000000000000000000000000000000000000000000000000000000000000000000000000000000000000000000000000000000000000000000000000000000000000000000000000000000000000000000000000000000000000000000000000000000000000000000000000000000000000000000000000000000000000000000000000000000000000000000000000000000000000000000000000000000000000000000000000000000000000000000000000000000000000000000000000000000000000000000000000000000000000000000000000000000000000000000000000000000000000000000000000000000000000000000000000000000000000000000000000000000000000000000000000000000000000000000000000000000000000000000000000000000000000000000000000000000000000000000000000000000000000000000000000000000000000000000000000000000000000000000000000000000000000000000000000000000000000000000000000000000000000000000000000000000000000000000000000000000000000000000000000000000000000000000000000000000000000000000000000000000000000000000000000000000000000000000000000000000000000000000000000000000000000000000000000000000000000000000000000000000000000000000000000000000000000000000000000000000000000000000000000000000000000000000000000000000000000000000000000000000000000000000000000000000000000000000000000000000000000000000000000000000000000000000000000000000000000000000000000000000000000000000000000000000000000000000000000000000000000000000000000000000000000000000000000000000000000000000000000000000000000000000000000000000000000000000000000000000000000000000000000000000000000000000000000000000000000000000000000000000000000000000000000000000000000000000000000000000000000000000535353230000000000000000000000000000000000000000000000000000000000000000000000000000000000000000000000000000000000000000000000000000000000000000000000000000000000000000000000000000000000000000000000000000000000000000000000000000000000000000000000000000000000000000000000000000000000000000000000000000000000000000000000000000000000000000000000000000000000000000000000000000000000000000000000000000000000000000000000000000000000000000000000000000000000000000000000000000000000000000000000000000000000000000000000000000000000000000000000000000000000000000000000000000000000000000000000000000000000000000000000000000000000000000000000000000000000000000000000000000000000000000000000000000000000000000000000000000000000000000000000000000000000000000000000000000000000000000000000000000000000000000000000000000000000000000000000000000000000000000000000000000000000000000000000000000000000000000000000000000000000000000000000000000000000000000000000000000000000000000000000000000000000000000000000000000000000000000000000000000000000000000000000000000000000000000000000000000000000000000000000000000000000000000000000000000000000000000000000000000000000000000000000000000000000000000000000000000000000000000000000000000000000000000000000000000000000000000000000000000000000000000000000000000000000000000000000000000000000000000000000000000000000000000000000000000000000000000000000000000000000000000000000000000000000000000000000000000000000000000000000000000000000000000000000000000000000000000000000000000000000000000000000000000000000000000000000000000000000000000000000000000000000000000000000000000000000000000000000000000000000000000000000000000000000000000000000000000000000000000000000000000000000000000000000000000000000000000000000000000000000000000000000000000000000000000000000000000000000000000000000000000000000000000000000000000000000000000000000000000000000000000000000000000000000000000000000000000000000000000000000
#053920:13
#053960:000000000000000000000000000000000000000000000000000000000000000000000000000000000000000000000000000000000000000000000000000000000000000000000000000000000000000000000000000000000000000000000000000000000000000000000000000000000000000000000000000000000000000000000000000000000000000000000000000000000000000000000000000000000000000000000000000000000000000000000000000000000000000000000000000000000000000000000000000000000000000000000000000000000000000000000000000000000000000000000000000000000000000000000000000000000000000000000000000000000000000000000000000000000000000000000000000000000000000000000000000000000000000000000000000000000000000000000000000000000000000000000000000000000000000000000000000000000000000000000000000000000000000000000000000000000000000000000000000000000000000000000000000000000000000000000000000000000000000000000000000000000000000000000000000000000000000000000000000000000000000000000000000000000000000000000000000000000000000000000000000000000000000000000000000000000000000000000000000000000000000000000000000000000000000000000000000000000000000000000000000000000000000000000000000000000000000000000000000000000000000000000000000000000000000000000000000000000000000000000000000000000000000000000000000000000000000000000000000000000000000000000000000000000000000000000000000000000000000000000000000000000000000000000000000000000000000000000000000000000000000000000000000000000000000000000000000000000000000000000000000000000000000000000000000000000000000000000000000000000000000000000000000000000000000000000000000000000000000000000000000000000000000000000000000000000000000000000000000000000000000000000000000000000000000000000000000000000000000000000000000000000000000000000000000000000000000000000000000000000000000000000000000000000000000000000000000000000000000000000000000000000000000000000000000000000000000000000000000000000000000000000000000000000000000000000000000000000000000000000053230000000000000000000000000000000000000000000000000000000000000000000000000000000000000000000000000000000000000000000000000000000000000000000000000000000000000000000000000000000000000000000000000000000000000000000000000000000000000000000000000000000000000000000000000000000000000000000000000000000000000000000000000000000000000000000000000000000000000000000000000000000000000000000000000000000000000000000000000000000000000000000000000000000000000000000000000000000000000000000000000000000000000000000000000000000000000000000000000000000000000000000000000000000000000000000000000000000000000000000000000000000000000000000000000000000000000000000000000000000000000000000000000000000000000000000000000000000000000000000000000000000000000000000000000000000000000000000000000000000000000000000000000000000000000000000000000000000000000000000000000000000000000000000000000000000000000000000000000000000000000000000000000000000000000000000000000000000000000000000000000000000000000000000000000000000000000000000000000000000000000000000000000000000000000000000000000000000000000000000000000000000000000000000000000000000000000000000000000000000000000000000000000000000000000000000000000000000000000000000000000000000000000000000000000000000000000000000000000000000000000000000000000000000000000000000000000000000000000000000000000000000000000000000000000000000000000000000000000000000000000000000000000000000000000000000000000000000000000000000000000000000000000000000000000000000000000000000000000000000000000000000000000000000000000000000000000000000000000000000000000000000000000000000000000000000000000000000000000000000000000000000000000000000000000000000000000000000000000000000000000000000000000000000000000000000000000000000000000000000000000000000000000000000000000000000000000000000000000000000000000000000000000000000000000000000000000000000000000000000000000000000000000000000000000000000000000000000000000000000000
#0549b0:13
#054970:000000000000000000000000000000000000000000000000000000000000000000000000000000000000000000000000000000000000000000000000000000000000000000000000000000000000000000000000000000000000000000000000000000000000000000000000000000000000000000000000000000000000000000000000000000000000000000000000000000000000000000000000000000000000000000000000000000000000000000000000000000000000000000000000000000000000000000000000000000000000000000000000000000000000000000000000000000000000000000000000000000000000000000000000000000000000000000000000000000000000000000000000000000000000000000000000000000000000000000000000000000000000000000000000000000000000000000000000000000000000000000000000000000000000000000000000000000000000000000000000000000000000000000000000000000000000000000000000000000000000000000000000000000000000000000000000000000000000000000000000000000000000000000000000000000000000000000000000000000000000000000000000000000000000000000000000000000000000000000000000000000000000000000000000000000000000000000000000000000000000000000000000000000000000000000000000000000000000000000000000000000000000000000000000000000000000000000000000000000000000000000000000000000000000000000000000000000000000000000000000000000000000000000000000000000000000000000000000000000000000000000000000000000000000000000000000000000000000000000000000000000000000000000000000000000000000000000000000000000000000000000000000000000000000000000000000000000000000000000000000000000000000000000000000000000000000000000000000000000000000000000000000000000000000000000000000000000000000000000000000000000000000000000000000000000000000000000000000000000000000000000000000000000000000000000000000000000000000000000000000000000000000000000000000000000000000000000000000000000000000000000000000000000000000000000000000000000000000000000000000000000000000000000000000000000000000000000000000000000000000000000000000000000000000000000000000000000000000000000000053230000000000000000000000000000000000000000000000000000000000000000000000000000000000000000000000000000000000000000000000000000000000000000000000000000000000000000000000000000000000000000000000000000000000000000000000000000000000000000000000000000000000000000000000000000000000000000000000000000000000000000000000000000000000000000000000000000000000000000000000000000000000000000000000000000000000000000000000000000000000000000000000000000000000000000000000000000000000000000000000000000000000000000000000000000000000000000000000000000000000000000000000000000000000000000000000000000000000000000000000000000000000000000000000000000000000000000000000000000000000000000000000000000000000000000000000000000000000000000000000000000000000000000000000000000000000000000000000000000000000000000000000000000000000000000000000000000000000000000000000000000000000000000000000000000000000000000000000000000000000000000000000000000000000000000000000000000000000000000000000000000000000000000000000000000000000000000000000000000000000000000000000000000000000000000000000000000000000000000000000000000000000000000000000000000000000000000000000000000000000000000000000000000000000000000000000000000000000000000000000000000000000000000000000000000000000000000000000000000000000000000000000000000000000000000000000000000000000000000000000000000000000000000000000000000000000000000000000000000000000000000000000000000000000000000000000000000000000000000000000000000000000000000000000000000000000000000000000000000000000000000000000000000000000000000000000000000000000000000000000000000000000000000000000000000000000000000000000000000000000000000000000000000000000000000000000000000000000000000000000000000000000000000000000000000000000000000000000000000000000000000000000000000000000000000000000000000000000000000000000000000000000000000000000000000000000000000000000000000000000000000000000000000000000000000000000000000000000000000000000
#067960:0000001400000000
#067920:000000000000000000000000000000000000000000000000000000000000000000000000000000000000000000000000000000000000000000000000000000000000000000000000000000000000000000000000000000000000000000000000000000000000000000000000000000000000000000000000000000000000000000000000000000000000000000000000000000000000000000000000000000000000000000000000000000000000000000000000000000000000000000000000000000000000000000000000000000000000000000000000000000000000000000000000000000000000000000000000000000000000000000000000000000000000000000000000000000000000000000000000000000000000000000000000000000000000000000000000000000000000000000000000000000000000000000000000000000000000000000000000000000000000000000000000000000000000000000000000000000000000000000000000000000000000000000000000000000000000000000000000000000000000000000000000000000000000000000000000000000000000000000000000000000000000000000000000000000000000000000000000000000000000000000000000000000000000000000000000000000000000000000000000000000000000000000000000000000000000000000000000000000000000000000000000000000000000000000000000000000000000000000000000000000000000000000000000000000000000000000000000000000000000000000000000000000000000000000000000000000000000000000000000000000000000000000000000000000000000000000000000000000000000000000000000000000000000000000000000000000000000000000000000000000000000000000000000000000000000000000000000000000000000000000000000000000000000000000000000000000000000000000000000000000000000000000000000000000000000000000000000000000000000000000000000000000000000000000000000000000000000000000000000000000000000000000000000000000000000000000000000000000000000000000000000000000000000000000000000000000000000000000000000000000000000000000000000000000000000000000000000000000000000000000000000000000000000000000000000000000000000000000000000000000000000000000000000000000000000000000000000000000000000000000000000000000000000000000000000000000000000000000000000000000000000000000000000000000000000000000000000000000000000000000000000000000000000000000000000000000000000000000000000000000000000000000000000000000000000000000000000000000000000000000000000000000000000000000000000000000000000000000000000000000000000000000000000000000000000000000000000000000000000000000000000000000000000000000000000000000000000000000000000000000000000000000000000000000000000000000000000000000000000000000000000000000000000000000000000000000000000000000000000000000000000000000000000000000000000000000000000000000000000000000000000000000000000000000000000000000000000000000000000000000000000000000000000000000000000000000000000000000000000000000000000000000000000000000000000000000000000000000000000000000000000000000000000000000000000000000000000000000000000000000000000000000000000000000000000000000000000000000000000000000000000000000000000000000000000000000000000000000000000000000000000000000000000000000000054240000000000000000000000000000000000000000000000000000000000000000000000000000000000000000000000000000000000000000000000000000000000000000000000000000000000000000000000000000000000000000000000000000000000000000000000000000000000000000000000000000000000000000000000000000000000000000000000000000000000000000000000000000000000000000000000000000000000000000000000000000000000000000000000000000000000000000000000000000000000000000000000000000000000000000000000000000000000000000000000000000000000000000000000000000000000000000000000000000000000000000000000000000000000000000000000000000000000000000000000000000000000000000000000000000000000000000000000000000000000000000000000000000000000000000000000000000000000000000000000000000000000000000000000000000000000000000000000000000000000000000000000000000000000000000000000000000000000000000000000000000000000000000000000000000000000000000000000000000000000000000000000000000000000000000000000000000000000000000000000
