This file was generated by Ched 2.7.0.0.
#TITLE ""
#ARTIST ""
#DESIGNER ""
#DIFFICULTY 0
#PLAYLEVEL
#SONGID ""
#WAVE ""
#WAVEOFFSET 0
#JACKET ""
#REQUEST "ticks_per_beat 480"
#00002: 4
#BPM01: 150
#00008: 01
#TIL00: ""
#VOLUME: ""
#HISPEED 00
#MEASUREHS 00
#07118:0000001400000000
#0711a:24
#07119:0034340000000000
#07018:0014
#07012:00000014
#07014:00140000
#0701a:24
#06918:00140000
#06914:24
#06912:0024
#06814:00140000
#06818:24
#0681a:0024
#06212:00000014
#06218:0014
#06214:00140000
#0621a:14
#05912:0014
#05918:00140000
#05914:14
#05812:0014
#0581a:00000014
#05818:00140000
#05814:14
#06112:00001424
#06118:14240000
#06110:41
#06014:00001424
#0601a:14240000
#0601f:00210000
#0551a:00140000
#05514:0014
#05512:14
#05518:00000014
#05218:0016000000000000
#01212:00000014
#01214:00140000
#01218:0014
#0121a:14
#0341a:00000014
#03414:0014
#03418:00140000
#03412:14
#04618:26000016
#04612:0016
#04712:16
#04718:00266600
#04518:16
#04512:00266600
#04412:26000016
#04418:0016
#04410:41
#04218:0014
#04214:24
#04114:00140000
#04118:24
#0411a:0024
#04018:00140000
#04014:24
#04012:0024
#0311a:0014
#03114:00140000
#03118:14
#0301a:0014
#03012:00000014
#03014:00140000
#03018:14
#00514:0014
#00518:00000024
#0331a:00001424
#03314:14240000
#03218:00001424
#03212:14240000
#02918:00140000
#02914:14
#02912:0024
#02814:00140000
#02818:24
#0281a:0024
#02810:41
#02412:00000014
#0241a:0014
#02414:00140000
#02418:14
#02618:0014
#02614:14
#02312:2414
#02318:00140000
#0221a:2414
#02214:00140000
#02113:0014
#02118:66
#02013:1414
#02019:00140000
#02018:00000026
#01913:0014
#01918:26660000
#01819:0014
#01812:26660000
#01810:41
#0161a:00000014
#01618:00140000
#01614:14
#01612:0014
#0151a:0014
#01514:00140000
#01518:14
#01412:0014
#01418:00140000
#01414:14
#0101a:14
#01018:0014
#01014:00140000
#01010:41
#01118:00140000
#01112:14
#01114:0024
#00814:0014
#0081a:00000014
#00818:00140000
#00812:24
#03812:00000014
#03814:0014
#03818:00140000
#0381a:24
#0661a:00000014
#06618:0014
#06614:00140000
#06612:24
#01714:14
#01719:00000014
#05012:16
#05018:0016
#05112:1616
#05118:00160026
#05314:1454
#0531f:11
#05313:0054005400000000
#05312:00540000
#05418:1454
#05419:0054005400000000
#0541a:00540000
#06715:14
#06712:0000005400005400
#06713:00540000
#06714:0054000000000000
#0001a:24
#0631a:24
#06319:00353500
#0571a:24
#03512:24
#03514:0034
#03513:00340000
#04918:24
#04814:24
#04313:24
#00718:24
#00614:24
#03714:24242400
#03618:24242400
#03610:41
#06518:26262600
#06412:26262600
#02712:0000003400000000
#02713:0034340000000000
#00913:0034340000000000
#0015a:00000014
#0055a:14
#0715a:00000014
#07158:0000006400000000
#0575a:0014
#05652:0014
#0495a:0014
#04852:0014
#04359:0014
#04353:0014
#01358:0000001600000000
#00954:0000001400000000
#06952:0014
#0685a:0014
#04254:14
#04258:0014
#0415a:0014
#04052:0014
#02952:0014
#0285a:0014
#05952:0014
#05258:0066000000000000
#0315a:0014
#03754:0014
#03658:0014
#06558:0016
#06452:0016
#01754:64
#02752:00000014
#0003a0:14
#000380:0034
#0013a0:3454545434002400
#001390:00540054005400540000000000000000
#002340:14340000
#002320:00000034
#003340:00340000
#003320:00000024
#004380:14340000
#0043a0:00000034
#0053a0:24
#006340:14
#006330:00340000
#006320:0024
#007380:14
#007390:00340000
#0073a0:0024
#009320:14
#009330:0034340000000000
#009340:0000002400000000
#013380:1600002600000000
#017340:14
#017320:0024
#018320:16260000
#019380:16260000
#020380:00000016
#021380:26
#025380:14
#0253a0:0024
#027340:14
#027330:0034340000000000
#027320:0000003434002400
#035320:14
#035330:00340000
#035340:00003424
#039370:14
#039380:0034000000000000
#039390:00340000
#0393a0:0000003400002400
#043390:14342400
#043331:14342400
#045321:00162600
#047381:00162600
#048341:14
#048321:0000343424000000
#049381:14
#0493a1:0000343424000000
#051381:0000000000001636
#052381:0036000000000000
#0523a1:00000024
#056321:1424
#0573a1:1424
#0633a1:14
#063391:00353500
#063381:00000026
#0713a1:14000024
#071391:0034340000000000
#071381:0000003400000000
#053940:140000000000000000000000000000000000000000000000000000000000000000000000000000000000000000000000000000000000000000000000000000000000000000000000000000000000000000000000000000000000000000000000000000000000000000000000000000000000000000000000000000000000000000000000000000000000000000000000000000000000000000000000000000000000000000000000000000000000000000000000000000000000000000000000000000000000000000000000000000000000000000000000000000000000000000000000000000000000000000000000000000000000000000000000000000000000000000000000000000000000000000000000000000000000000000000000000000000000000000000000000000000000000000000000000000000000000000000000000000000000000000000000000000000000000000000000000000000000000000000000000000000000000000000000000000000000000000000000000000000000000000000000000000000000000000000000000000000000000000000000000000000000000000000000000000000000000000000000000000000000000000000000000000000000000000000000000000000000000000000000000000000000000000000000000000000000000000000000000000000000000000000000000000000000000000000000000000000000000000000000000000000000000000000000000000000000000000000000000000000000000000000000000000000000000000000000000000000000000000000000000000000000000000000000000000000000000000000000000000000000000000000000000000000000000000000000000000000000000000000000000000000000000000000000000000000000000000000000000000000000000000000000000000000000000000000000000000000000000000000000000000000000000000000000000000000000000000000000000000000000000000000000000000000000000000000000000000000000000000000000000000000000000000000000000000000000000000000000000000000000000000000000000000000000000000000000000000000000000000000000000000000000000000000000000000000000000000000000000000000000000000000000000000000000000000000000000000000000000000000000000000000000000000000000000000000000000000000000000000000000000000000000000000000000000000000000000000000000000000545454240000000000000000000000000000000000000000000000000000000000000000000000000000000000000000000000000000000000000000000000000000000000000000000000000000000000000000000000000000000000000000000000000000000000000000000000000000000000000000000000000000000000000000000000000000000000000000000000000000000000000000000000000000000000000000000000000000000000000000000000000000000000000000000000000000000000000000000000000000000000000000000000000000000000000000000000000000000000000000000000000000000000000000000000000000000000000000000000000000000000000000000000000000000000000000000000000000000000000000000000000000000000000000000000000000000000000000000000000000000000000000000000000000000000000000000000000000000000000000000000000000000000000000000000000000000000000000000000000000000000000000000000000000000000000000000000000000000000000000000000000000000000000000000000000000000000000000000000000000000000000000000000000000000000000000000000000000000000000000000000000000000000000000000000000000000000000000000000000000000000000000000000000000000000000000000000000000000000000000000000000000000000000000000000000000000000000000000000000000000000000000000000000000000000000000000000000000000000000000000000000000000000000000000000000000000000000000000000000000000000000000000000000000000000000000000000000000000000000000000000000000000000000000000000000000000000000000000000000000000000000000000000000000000000000000000000000000000000000000000000000000000000000000000000000000000000000000000000000000000000000000000000000000000000000000000000000000000000000000000000000000000000000000000000000000000000000000000000000000000000000000000000000000000000000000000000000000000000000000000000000000000000000000000000000000000000000000000000000000000000000000000000000000000000000000000000000000000000000000000000000000000000000000000000000000000000000000000000000000000000000000000000000000000000000000000000000000000000000000000000
#053920:00540000
#054980:140000000000000000000000000000000000000000000000000000000000000000000000000000000000000000000000000000000000000000000000000000000000000000000000000000000000000000000000000000000000000000000000000000000000000000000000000000000000000000000000000000000000000000000000000000000000000000000000000000000000000000000000000000000000000000000000000000000000000000000000000000000000000000000000000000000000000000000000000000000000000000000000000000000000000000000000000000000000000000000000000000000000000000000000000000000000000000000000000000000000000000000000000000000000000000000000000000000000000000000000000000000000000000000000000000000000000000000000000000000000000000000000000000000000000000000000000000000000000000000000000000000000000000000000000000000000000000000000000000000000000000000000000000000000000000000000000000000000000000000000000000000000000000000000000000000000000000000000000000000000000000000000000000000000000000000000000000000000000000000000000000000000000000000000000000000000000000000000000000000000000000000000000000000000000000000000000000000000000000000000000000000000000000000000000000000000000000000000000000000000000000000000000000000000000000000000000000000000000000000000000000000000000000000000000000000000000000000000000000000000000000000000000000000000000000000000000000000000000000000000000000000000000000000000000000000000000000000000000000000000000000000000000000000000000000000000000000000000000000000000000000000000000000000000000000000000000000000000000000000000000000000000000000000000000000000000000000000000000000000000000000000000000000000000000000000000000000000000000000000000000000000000000000000000000000000000000000000000000000000000000000000000000000000000000000000000000000000000000000000000000000000000000000000000000000000000000000000000000000000000000000000000000000000000000000000000000000000000000000000000000000000000000000000000000000000000000000000000000000545454240000000000000000000000000000000000000000000000000000000000000000000000000000000000000000000000000000000000000000000000000000000000000000000000000000000000000000000000000000000000000000000000000000000000000000000000000000000000000000000000000000000000000000000000000000000000000000000000000000000000000000000000000000000000000000000000000000000000000000000000000000000000000000000000000000000000000000000000000000000000000000000000000000000000000000000000000000000000000000000000000000000000000000000000000000000000000000000000000000000000000000000000000000000000000000000000000000000000000000000000000000000000000000000000000000000000000000000000000000000000000000000000000000000000000000000000000000000000000000000000000000000000000000000000000000000000000000000000000000000000000000000000000000000000000000000000000000000000000000000000000000000000000000000000000000000000000000000000000000000000000000000000000000000000000000000000000000000000000000000000000000000000000000000000000000000000000000000000000000000000000000000000000000000000000000000000000000000000000000000000000000000000000000000000000000000000000000000000000000000000000000000000000000000000000000000000000000000000000000000000000000000000000000000000000000000000000000000000000000000000000000000000000000000000000000000000000000000000000000000000000000000000000000000000000000000000000000000000000000000000000000000000000000000000000000000000000000000000000000000000000000000000000000000000000000000000000000000000000000000000000000000000000000000000000000000000000000000000000000000000000000000000000000000000000000000000000000000000000000000000000000000000000000000000000000000000000000000000000000000000000000000000000000000000000000000000000000000000000000000000000000000000000000000000000000000000000000000000000000000000000000000000000000000000000000000000000000000000000000000000000000000000000000000000000000000000000000000000000000000000
#0549a0:00540000
#067950:14
#067920:000000000000000000000000000000000000000000000000000000000000000000000000000000000000000000000000000000000000000000000000000000000000000000000000000000000000000000000000000000000000000000000000000000000000000000000000000000000000000000000000000000000000000000000000000000000000000000000000000000000000000000000000000000000000000000000000000000000000000000000000000000000000000000000000000000000000000000000000000000000000000000000000000000000000000000000000000000000000000000000000000000000000000000000000000000000000000000000000000000000000000000000000000000000000000000000000000000000000000000000000000000000000000000000000000000000000000000000000000000000000000000000000000000000000000000000000000000000000000000000000540000000000000000000000000000000000000000000000000000000000000000000000000000000000000000000000000000000000000000000000000000000000000000000000000000000000000000000000000000000000000000000000000000000000000000000000000000000000000000000000000000000000000000000000000000000000000000000000000000000000000000000000000000000000000000000000000000000000000000000000000000000000000000000000000000000000000000000000000000000000000000000000000000000000000000000000000000000000000000000000000000000000000000000000000000000000000000000000000000000000000000000000000000000000000000000000000000000000000000000000000000000000000000000000000000000000000000000000000000000000000000000000000000000000000000000000000000000000000000545454240000000000000000000000000000000000000000000000000000000000000000000000000000000000000000000000000000000000000000000000000000000000000000000000000000000000000000000000000000000000000000000000000000000000000000000000000000000000000000000000000000000000000000000000000000000000000000000000000000000000000000000000000000000000000000000000000000000000000000000000000000000000000000000000000000000000000000000000000000000000000000000000000000000000000000000000000000000000000000000000
