This file was generated by Ched 2.7.0.0.
#TITLE ""
#ARTIST ""
#DESIGNER ""
#DIFFICULTY 0
#PLAYLEVEL
#SONGID ""
#WAVE ""
#WAVEOFFSET 0
#JACKET ""
#REQUEST "ticks_per_beat 480"
#00002: 4
#BPM01: 192
#00008: 01
#TIL00: ""
#VOLUME: ""
#HISPEED 00
#MEASUREHS 00
#00018:14
#00214:14
#00419:14
#00410:41
#00613:14
#01318:16
#02818:14
#02810:41
#02918:14
#03014:14
#03114:14
#0321a:14
#0331a:14
#03412:14
#03512:14
#0351f:11
#03714:14
#0381a:14
#03914:14
#04018:14
#04112:14
#04518:16
#04512:0016
#04510:41
#04618:16
#04712:16
#04718:0016
#04812:16
#04918:16
#04912:0016
#05018:16
#05112:1616
#05312:16
#05318:0016
#05412:16
#05518:16
#05512:0016
#05618:16
#05712:16
#05718:0016
#05918:16
#05912:0016
#06414:14
#0661a:14
#06714:14
#06818:14
#06912:14
#07318:16
#07312:0016
#07418:16
#07512:16
#07518:0016
#07612:16
#07718:1616
#07918:16
#07912:0016
#08018:16
#08112:16
#08118:0016
#08212:16
#08318:16
#08312:0016
#08512:16
#08518:0016
#09018:14
#09212:14
#09218:0014
#09312:14
#0951a:14
#09612:14
#09618:0014
#09712:14
#0981a:14
#09814:0014
#0941a:14
#09414:0014
#01412:16
#01410:41
#01512:16
#01618:16
#01718:16
#01812:16
#01912:16
#0081a:14
#01012:14
#01218:26
#04412:26
#0441f:21
#06018:26
#06010:41
#06112:26
#06218:26
#07212:26
#07210:41
#08612:26
#08718:26
#08812:26
#0361a:24
#05218:26
#07812:26
#0991a:24
#09914:0024
#020380:14
#021380:24
#022340:14
#023340:24
#0243a0:14
#0253a0:24
#026320:14
#027320:24
#042380:14
#0433a0:24
#044320:1626
#052380:1626
#058320:1626
#062380:16363636
#063380:26
#070380:14
#0713a0:24
#078320:1626
#084380:1626
#088320:16363636
#089320:26
