This file was generated by Ched 2.7.0.0.
#TITLE ""
#ARTIST ""
#DESIGNER ""
#DIFFICULTY 0
#PLAYLEVEL
#SONGID ""
#WAVE ""
#WAVEOFFSET 0
#JACKET ""
#REQUEST "ticks_per_beat 480"
#00002: 4
#BPM01: 192
#00008: 01
#TIL00: ""
#VOLUME: ""
#HISPEED 00
#MEASUREHS 00
#04012:23131313
#04812:0013
#04815:0000000000130000
#04818:00000013
#0481b:13
#06618:1313
#06612:0013000000130000
#06615:0000001300000013
#0661a:00240024
#01212:0013000000000000
#01219:00130000
#01213:0000001300000000
#0121a:0013
#01214:0000000000130000
#0121b:00000013
#01215:0000000000000013
#01218:23
#01312:1313
#0131b:1300000013000013
#01318:0013001300001300
#01315:0000130000130000
#01618:0013001300001300
#01615:0000130000130013
#01612:0013
#0161b:1313
#01917:0013
#0191b:13130053
#01914:5300005300530000
#01919:0000000000530000
#01916:00530053
#01915:0053000000000000
#01912:0053
#02012:1313
#0201b:00000013
#02018:0000000000000013
#02015:00130000
#02115:13
#0211b:00130000
#02112:0013000000001300
#02312:13000013
#02315:0013000000000000
#02318:00130000
#02317:00000013
#02314:0000000000000033
#02416:13000013
#0241b:13000013
#02419:0000000000000033
#0251b:00000013
#02512:13000013
#02517:13
#0271b:1313
#02712:00130013
#02715:0000000000000013
#02812:0013
#02818:2300000000130000
#02815:00000013
#0281a:0000000000000014
#02810:41
#02916:0014000000001400
#02912:0000001400001400
#0291a:0014
#0301b:0013
#03015:0000000000130000
#03018:00000013
#03012:0000000000000014
#03116:0014000000000000
#0311a:0000001400001400
#03112:0014
#0321b:13
#03218:0000131300000000
#03212:0014
#0321a:00000014
#03216:13
#03312:13000014
#03315:0000131300000000
#0331a:0014
#03317:13
#03412:0000000000130000
#03415:00130000
#0341a:14
#03418:0000001300001300
#0411b:23131313
#04517:13
#04518:00130000
#04515:0013
#0451b:00000013
#04512:13
#04510:41
#04612:13000013
#04616:0013
#0461b:0013
#04617:00000013
#0491b:1313
#04916:13
#04918:0000000000130000
#04915:00000013
#05012:13000013
#05017:13000023
#05316:13000013
#05312:00131300
#0531b:13000013
#05317:00130000
#05417:13
#0541b:0013
#05412:0013
#05418:00000013
#0551b:00131300
#05512:13000013
#05516:00130000
#05517:00000013
#05812:1313000000000000
#0581b:0013
#05815:00000013
#05818:0000000000000013
#05816:00000000001300000000000000000000
#05817:1313000000000000
#05918:0013
#05915:00000013
#0591b:13
#05912:13130000
#06018:16
#0601b:0013
#06016:0013
#06014:00000013
#06010:41
#06112:1613
#06119:00130013
#06117:0013
#06718:1313
#06715:0013000000130000
#06712:0000001300000013
#0671a:00240024
#07015:13
#07012:0014
#07018:13
#0701b:00000023
#07412:2414
#07416:0000000000140000
#0741a:24001414
#07212:2414
#07217:0013
#0721b:00000013
#07216:00000014
#0721a:24
#07210:41
#07916:1314
#07912:00130013
#07917:00130013
#0791a:14
#08016:24001413
#0801b:23000013
#08012:0013
#08119:00130000
#08112:14140000
#08115:0014001400000000
#08114:00000013
#0811a:00001414
#08117:0000000000140014
#09212:0000001300000000
#09218:0013
#09215:0000000000130013
#0921a:00240024
#09217:62
#09415:1313
#0941b:1300001300000000
#09418:0013000000130013
#09412:00240024
#0421b:13
#04218:00130000
#04215:0013
#04212:24240013
#0421a:00002424
#07317:1313
#07316:00130013
#09318:1313
#09312:0013001300000013
#09315:0000000000130000
#0931a:00240024
#03518:00130013
#03515:0013000000130000
#03512:13
#0351b:0000001300000000
#0351f:11
#03715:1313
#03712:0000130000000013
#03718:00130013
#0371b:0013
#0361b:00130013
#03612:00130013
#03615:13
#03618:1313
#0471b:13
#04712:00000013
#04715:00130000
#04718:0013
#02618:13
#0261b:00130000
#02612:0013
#02615:00000013
#02619:0000003300000000
#02613:0000000000000033
#00017:12
#00019:0012
#00115:0012
#00219:0012
#00315:0012
#0041a:00120000
#00413:00000012
#00410:41
#0051a:00120000
#00514:00000012
#0061a:00120000
#00613:00000012
#0071a:00120000
#00714:00000012
#00813:12
#00818:0012000000000000
#00814:00120000
#00819:0000001200000000
#00815:0012
#0081a:0000000000120000
#00816:00000012
#0081b:0000000000000012
#00917:1212
#00913:00120012
#0091b:00120012
#0101b:12
#01016:0012000000000000
#0101a:00120000
#01015:0000001200000000
#01019:0012
#01014:0000000000120000
#01018:00000012
#01013:0000000000000012
#01117:12
#0111b:00120000
#01113:00120000
#01118:00002222
#01116:0000000000220022
#01415:13
#0141b:0013000000000000
#01414:00130000
#0141a:0000001300000000
#01413:0013
#01419:0000000000130000
#01412:00000013
#01418:0000000000000013
#01410:41
#0151b:1313
#01512:1300000013000013
#01515:0013001300001300
#01518:0000130000130000
#0171b:1313
#01718:0013001300001300
#01715:0000130000130013
#01712:1313
#0181b:13000013
#01812:13131313
#0181a:0053000000000000
#01819:00530000
#01818:0000005300000000
#01817:0053
#01813:0000000000000053
#0221b:00130000
#02212:00000013
#03918:1313
#0391b:00130000
#03915:00130013
#03912:0013
#03812:00130013
#0381b:00130013
#03818:13
#03815:1313
#04315:13
#0431a:24
#04316:00240000
#04312:0024
#0441a:14
#04416:0000001400000000
#04412:24000014
#0441f:21
#05612:0013
#05617:0013
#05619:00000013
#05614:00000013
#0561b:23
#05616:23
#05716:13
#0571b:1313
#05712:00130000
#05714:00000013
#05719:00000013
#0621b:13
#06215:00130013
#06218:00261326
#06212:2626
#0631b:13
#06313:00130000
#06319:0013
#06315:00000013
#06312:23
#0631a:00230000
#06314:0023
#06318:00000023
#06418:13
#06412:0013000000000000
#06415:23
#0641b:0023000000000000
#08818:26132613
#08815:0013
#08812:13260026
#08912:13241526
#0891a:00140000
#08918:00000016
#0891b:23
#08919:0025
#09012:1626000000000000
#09018:2616000000000000
#07512:13001414
#07516:1400000000140000
#0751a:0014
#0761b:13
#07616:14000023
#0761a:00000024
#07816:0000001400000000
#0781a:24000014
#07812:24
#08418:00000013
#08415:0013000000000013
#0841a:14140000
#08416:13
#08414:00130000
#08417:0000001400000000
#08412:0014
#08515:0033000013000000
#08518:0000003300001300
#08512:1300000000330000
#0851b:1300130000000033
#0821b:00001313
#08212:24001414
#08218:0000000000130000
#08215:0000000000000013
#0821a:24
#0831b:13
#08312:1413
#0831a:00140000
#08318:00000014
#08314:00000013
#08313:0000000000130000
#08319:0000000000000014
#09515:00131300
#0951b:0000000000000013
#09512:24000024
#0951a:0024000000240000
#09518:0000002400000000
#09618:1313
#09612:1300001300000000
#09615:0013000000130013
#0961a:00240024
#09712:13002424
#09715:00130000
#09718:0013
#0971b:00000013
#0971a:24240000
#09815:1313
#0981b:1300001300000000
#09818:0013000000130013
#09812:00240024
#09915:13000023
#09918:0000001300230000
#09912:0000240023000023
#0991b:0023
#0991a:0024000000000000
#08612:1613
#08617:0013
#08619:00000013
#0861a:24
#08718:16
#0871b:0013
#08714:00130013
#08716:0013
#09117:00000000000000001200520052525252
#05212:14
#05216:0000001400000000
#0521a:24000014
#05114:00130000
#05112:0013
#0511b:23
#05119:00230000
#05117:0023
#06815:1313
#0681b:0013000000130000
#06818:0000001300000013
#06812:00240024
#06915:1313
#06918:0013000000130000
#0691b:0000001300000013
#06912:00240024
#07118:23000023
#07112:00230000
#07115:0023
#07712:23
#07718:00240000
#07714:00230000
#0771a:0024
#07716:0023
#04858:00000053
#04855:13
#0485b:13
#02456:53
#0245b:53000063
#02452:00130000
#02457:00130000
#0275b:53
#02752:00630000
#02858:13
#0305a:14
#03056:14
#03152:0054
#03156:00000014
#0315a:00000014
#03252:0014
#0325a:00000014
#03256:53
#0335a:0014
#03352:00000014
#03357:53
#04656:0053
#04652:13000023
#04658:13
#0495b:53
#04956:63
#04955:00000063
#05052:63000053
#05057:53
#05852:0063000000000000
#05856:00000000002300000000000000000000
#05958:0063
#05955:00000053
#0595b:53
#05952:00630000
#06058:56
#0605b:0023
#06052:14
#06152:6623
#06252:1616
#06258:00160016
#0745a:14000054
#07452:14
#07252:1464
#0725a:14
#07256:00000024
#0795a:54
#07957:00230000
#07956:0054
#07952:00000023
#08056:1454
#0805b:13000023
#08152:64540000
#08155:0024002400000000
#0815a:00005464
#08157:0000000000240024
#04356:00140000
#04352:0014
#0435a:14
#07357:6363
#07356:00530053
#0975a:14140000
#09752:00001414
#02952:00000054
#02956:00000054
#0295a:0054
#03755:0013
#03655:5313
#03652:00230000
#03658:0063
#0365b:00000023
#04558:00630000
#04555:0053
#0455b:00000063
#04552:53
#0475b:63
#04752:00000053
#04755:00530000
#04758:0063
#0535b:53
#05357:00530000
#05352:0063
#05356:00000063
#05552:63
#05556:00630000
#0555b:0053
#05557:00000053
#05458:00000053
#05452:1353
#05457:13
#02552:63000063
#02557:63
#0255b:00130000
#02556:00130000
#02658:53
#0265b:00530000
#02652:0063
#02655:00000063
#02352:00000053
#03458:0000005300000000
#03858:6313
#0385b:00230000
#03855:0053
#03852:00000023
#03958:0013
#0445a:54
#04456:0000002400000000
#04452:14
#05656:13
#0565b:13
#0575b:53
#05752:00630000
#07055:53
#07052:0024
#08852:00160016
#08858:1616
#07556:54
#07552:53000064
#0765b:63
#07656:64
#0765a:00000054
#07856:0000002400000000
#0785a:14
#07852:54
#08555:0053
#08558:00000063
#08552:63
#0855b:00530000
#08352:64
#0835a:00540000
#08652:6623
#0865a:14
#08758:56
#0875b:0023
#09257:12
#05252:64
#05256:0000002400000000
#0525a:14
#0845a:00540000
#08457:0000002400000000
#07752:13
#07758:00140000
#07754:00130000
#0775a:0014
#07756:1413
#08252:34
#0825a:44
#000330:12
#000350:00320000
#000340:0032
#000360:00000032
#001350:22
#0013b1:12
#001391:00320000
#0013a1:0032
#001381:00000032
#002391:22
#002330:12
#002350:00320000
#002340:0032
#002360:00000032
#003350:22
#0033b1:12
#003391:00320000
#0033a1:0032
#003381:00000032
#004391:22
#004330:12
#004350:00320000
#004340:0022
#004381:0012
#0043a1:00000032
#005391:22
#005360:12
#005340:00320000
#005350:0022
#0053b1:0012
#005391:00000032
#0063a1:22
#006330:12
#006350:00320000
#006340:0022
#006381:0012
#0063a1:00000032
#007391:22
#007360:12
#007340:00320000
#007350:0022
#0073b1:0012
#007391:00000032
#0083a1:22
#0203b1:1323
#020381:00330000
#0213b1:00000013
#022381:23
#022350:1323
#022320:00330000
#0223b1:0013
#022381:00000033
#0233b1:23
#023321:00000013
#023341:0000000000000033
#024361:33
#024321:00230000
#0243b0:13
#024370:00230000
#0243b0:00000013
#024390:0000000000000033
#025370:33
#0253b0:00230000
#025321:13
#025361:00230000
#025321:00000013
#026351:23
#026380:1323
#0263b0:00330000
#026390:0000003300000000
#026321:0013
#026351:00000033
#026331:0000000000000033
#027321:23
#0273b0:13
#027380:00230000
#027321:00130000
#027351:0023
#0293a1:0014
#029361:00000034
#0303a1:24
#029320:00000014
#030360:24
#031320:0014
#031360:00000024
#032360:13
#032320:00230000
#033370:13
#0333b0:00230000
#034380:0000001300000000
#0343b0:0000000000230000
#036350:1323
#036320:00530000
#036381:0013
#0363b1:00000053
#037381:23
#038381:1323
#0383b1:00530000
#038350:0013
#038320:00000053
#039350:23
#040390:1333
#0403b0:00330000
#040370:00000023
#041360:13
#041340:00330023
#041320:0033
#0443a0:14000024
#044360:0000005400000000
#045320:13
#045350:00230000
#045381:00130000
#0453b1:0023
#045350:0013
#045320:00000023
#0453b1:00000013
#046381:23
#046361:0013
#046321:00000053
#047361:23
#0473b0:13
#047380:00230000
#047351:00130000
#047321:0023
#047380:0013
#0473b0:00000023
#047321:00000013
#048351:23
#048381:00000013
#0493b1:33
#049371:00230000
#049360:13
#049320:00230000
#049350:00000013
#050320:33
#050360:0023
#050371:13
#0503b1:0023
#050321:00000013
#051361:23
#052321:14000024
#052361:0000005400000000
#0533b1:1323
#053371:00330000
#053320:0013
#053360:00000033
#054320:23
#054320:0013
#054350:00000023
#054381:00000013
#0553b1:23
#055320:1323
#055360:00330000
#0553b1:0013
#055371:00000033
#0563b1:23
#0573b1:13
#057371:00230000
#057320:00130000
#057360:0023
#058320:0013000023000000
#058360:00000000005300000000000000000000
#0593b0:13
#059380:00230000
#059321:00130000
#059351:0023
#059380:0013
#0593b0:00000023
#059351:00000013
#060321:24
#060380:16
#0603b0:0053
#061380:26
#061321:1653
#062321:26
#070351:13
#070321:0054
#071351:23
#072321:0014
#072361:00000034
#073321:24
#073370:13
#0733a0:00240000
#073361:00130000
#073321:0024
#073370:0013
#0733a0:00000024
#073361:00000013
#074321:24
#0743a1:00000014
#075361:34
#0753a1:00240000
#075320:13
#075360:00230000
#075320:00000014
#076360:34
#076320:0024
#0763b1:13
#076371:0023
#0763a1:00000014
#077361:24
#078321:14000024
#078361:0000005400000000
#0793a1:1424
#079371:00330000
#079360:0014
#079320:00000033
#080360:24
#080360:0014
#0803b0:00000033
#081360:24
#081321:14342400
#081351:0054005400000000
#0813a0:00001434
#081370:0000000000540054
#0823a0:24
#083320:14
#083360:00240000
#0833a1:00140000
#083361:0024
#0843a1:00142400
#084371:0000005400000000
#085321:13
#085351:0033230000000000
#0853b0:00130000
#085380:0000003323000000
#085351:0013
#085321:0000000000332300
#085380:00000013
#0853b0:0000000000000033
#0863a0:24
#086321:1653
#087321:26
#087380:16
#0873b0:0053
#088380:26
#0189b0:13
#018970:000000000000000000000000000000000000000000000000000000000000000000000000000000000000000000000000000000000000000000000000000000000000000000000000000000000000000000000000000000000000000000000000000000000000000000000000000000000000000000000000000000000000000000000000000000000000000000000000000000000000000000000000000000000000000000000000000000000000000000000000000000000000000000000000000000000000000000000000000000000000000000000000000000000000000000000000000000000000000000000000000000000000000000000000000000000000000000000000000000000000000000000000000000000000000000000000000000000000000000000000000000000000000000000000000000000000000000000000000000000000000000000000000000000000000000000000000000000000000000000000000000000000000000000000000000000000000000000000000000000000000000000000000000000000000000000000000000000000000000000000000000000000000000000000000000000000000000000000000000000000000000000000000000000000000000000000000000000000000000000000000000000000000000000000000000000000000000000000000000000000000000000000000000000000000000000000000000000000000000000000000000000000000000000000000000000000000000000000000000000000000000000000000000000000000000000000000000000000000000000000000000000000000000000000000000000000000000000000000000000000000000000000000000000000000000000000000000000000000000000000000000000000000000000000000000000000000000000000000000000000000000000000000000000000000000000000000000000000000000000000000000000000000000000000000000000000000000000000000000000000000000000000000000000000000000000000000000000000000000000000000000000000000000000000000000000000000000000000000000000000000000000000000000000000000000000000000000000000000000000000000000000000000000000000000000000000000000000000000000000000000000000000000000000000000000000000000000000000000000000000000000000000000000000000000000000000000000000000000000000000000000000000000000000000000000000000000000000000000000005353230000000000000000000000000000000000000000000000000000000000000000000000000000000000000000000000000000000000000000000000000000000000000000000000000000000000000000000000000000000000000000000000000000000000000000000000000000000000000000000000000000000000000000000000000000000000000000000000000000000000000000000000000000000000000000000000000000000000000000000000000000000000000000000000000000000000000000000000000000000000000000000000000000000000000000000000000000000000000000000000000000000000000000000000000000000000000000000000000000000000000000000000000000000000000000000000000000000000000000000000000000000000000000000000000000000000000000000000000000000000000000000000000000000000000000000000000000000000000000000000000000000000000000000000000000000000000000000000000000000000000000000000000000000000000000000000000000000000000000000000000000000000000000000000000000000000000000000000000000000000000000000000000000000000000000000000000000000000000000000000000000000000000000000000000000000000000000000000000000000000000000000000000000000000000000000000000000000000000000000000000000000000000000000000000000000000000000000000000000000000000000000000000000000000000000000000000000000000000000000000000000000000000000000000000000000000000000000000000000000000000000000000000000000000000000000000000000000000000000000000000000000000000000000000000000000000000000000000000000000000000000000000000000000000000000000000000000000000000000000000000000000000000000000000000000000000000000000000000000000000000000000000000000000000000000000000000000000000000000000000000000000000000000000000000000000000000000000000000000000000000000000000000000000000000000000000000000000000000000000000000000000000000000000000000000000000000000000000000000000000000000000000000000000000000000000000000000000000000000000000000000000000000000000000000000000000000000000000000000000000000000000000000000000000000000000000000000000000000000000000
#018920:00000013
#019960:000000000000000000000000000000000000000000000000000000000000000000000000000000000000000000000000000000000000000000000000000000000000000000000000000000000000000000000000000000000000000000000000000000000000000000000000000000000000000000000000000000000000000000000000000000000000000000000000000000000000000000000000000000000000000000000000000000000000000000000000000000000000000000000000000000000000000000000000000000000000000000000000000000000000000000000000000000000000000000000000000000000000000000000000000000000000000000000000000000000000000000000000000000000000000000000000000000000000000000000000000000000000000000000000000000000000000000000000000000000000000000000000000000000000000000000000000000000000000000000000000000000000000000000000000000000000000000000000000000000000000000000000000000000000000000000000000000000000000000000000000000000000000000000000000000000000000000000000000000000000000000000000000000000000000000000000000000000000000000000000530000000000000000000000000000000000000000000000000000000000000000000000000000000000000000000000000000000000000000000000000000000000000000000000000000000000000000000000000000000000000000000000000000000000000000000000000000000000000000000000000000000000000000000000000000000000000000000000000000000000000000000000000000000000000000000000000000000000000000000000000000000000000000000000000000000000000000000000000000000000000000000000000000000000000000000000000000000000000000000000000000000000000000000000000000000000000000000000000000000000000000000000000000000000000000000000000000000000000000000000000000000000000000000000000000000000000000000000000000000000000000000000000000000000000000000000000000000000000000000000000000000000000000000000000000000000000000000000000000000000000000000000000000000000000000000000000000000000000000000000000000000000000000000000000000000000000000000000000000000000000000000000000000000000000000000000000000000000000000000000000000000000000000000000000000000000000000000000000000000000000000000000000000000000000000000000000000000000000000000000000000000000000000000000000000000000000000000000000000000000000000000000000000000000000000000000000000000000000000000000000000000000000000000000000000000000000000000000000000000000000000000000000000000000000000000000000000000000000000000000000000000000000000000000000000000000000000000000000000000000000000000000000000000000000000000000000000000000000000000000000000000000000000000000000000000000000000000000000000000000000000000000000000000000000000000000000000000000000000000000000000000000000000000000000000000000000000000000000000000000000000000000000000000000000000000000000000000000000000000000000000000000000000000000000000000000000000000000000000000000000000000000000000000000000000000000000000000000000000000000000000000000000000000000000000000000000000000000000000000000000000000000000000000000000000000000000000000000000000005353230000000000000000000000000000000000000000000000000000000000000000000000000000000000000000000000000000000000000000000000000000000000000000000000000000000000000000000000000000000000000000000000000000000000000000000000000000000000000000000000000000000000000000000000000000000000000000000000000000000000000000000000000000000000000000000000000000000000000000000000000000000000000000000000000000000000000000000000000000000000000000000000000000000000000000000000000000000000000000000000000000000000000000000000000000000000000000000000000000000000000000000000000000000000000000000000000000000000000000000000000000000000000000000000000000000000000000000000000000000000000000000000000000000000000000000000000000000000000000000000000000000000000000000000000000000000000000000000000000000000000000000000000000000000000000000000000000000000000000000000000000000000000000000000000000000000000000000000000000000000000000000000000000000000000000000000000000000000000000000000
#019920:0053
#019971:0013
#0199b1:000000000000000000000000000000000000000000000000000000000000000000000000000000000000000000000000000000000000000000000000000000000000000000000000000000000000000000000000000000000000000000000000000000000000000000000000000000000000000000000000000000000000000000000000000000000000000000000000000000000000000000000000000000000000000000000000000000000000000000000000000000000000000000000000000000000000000000000000000000000000000000000000000000000000000000000000000000000000000000000000000000000000000000000000000000000000000000000000000000000000000000000000000000000000000000000000000000000000000000000000000000000000000000000000000000000000000000000000000000000000000000000000000000000000000000000000000000000000000000000000000000000000000000000000000000000000000000000000000000000000000000000000000000000000000000000000000000000000000000000000000000000000000000000000000000000000000000000000000000000000000000000000000000000000000000000000000000000000000000000000000000000000000000000000000000000000000000000000000000000000000000000000000000000000000000000000000000000000000000000000000000000000000000000000000000000000000000000000000000000000000000000000000000000000000000000000000000000000000000000000000000000000000000000000000000000000000000000000000000000000000000000000000000000000000000000000000000000000000000000000000000000000000000000000000000000000000000000000000000000000000000000000000000000000000000000000000000000000000000000000000000000000000000000000000000000000000000000000000000000000000000000000000000000000000000000000000000000000000000000000000000000000000000000000000000000000000000000000000000000000000000000000000000000000000000000000000000000000000000000000000000000000000000000000000000000000000000000000000000000000000000000000000000000000000000000000000000000000000000000000000000000000000000000000000000000000000000000000000000000000000000000000000000000000000000000000000000000000000000000000000000000000000000000000000000000000000000000000000000000000000000000000000000000000000000000000000000000000000000000000000000000000000000000000000000000000000000000000000000000000000000000000000000000000000000000000000000000000000000000000000000000000000000000000000000000000000000000000000000000000000000000000000000000000000000000000000000000000000000000000000000000000000000000000000000000000000000000000000000000000000000000000000000000000000000000000000000000000000000000000000000000000000000000000000000000000000000000000000000000000000000000000000000000000000000000000000000000000000000000000000000000000000000000000000000000000000000000000000000000000000000000000000000000000000000000000000000000000000000000000000000000000000000000000000000000000000000000000000000000000000000000000000000000000000000000000000000000000000000000000000000000000000000000000000000000000000000000000000000000000000000000000000000000000000000000000000000000000000000005353230000000000000000000000000000000000000000000000000000000000000000000000000000000000000000000000000000000000000000000000000000000000000000000000000000000000000000000000000000000000000000000000000000000000000000000000000000000000000000000000000000000000000000000000000000000000000000000000000000000000000000000000000000000000000000000000000000000000000000000000000000000000000000000000000000000000000000000000000000000000000000000000000000000000000000000000000000000000000000000000000000000000000000000000000000000000000000000000000000000000000000000000000000000000000000000000000000000000000000000000000000000000000000000000000000000000000000000000000000000000000000000000000000000000000000000000000000000000000000000000000000000000000000000000000000000000000000000000000000000000000000000000000000000000000000000000000000000000000000000000000000000000000000000000000000000000000000000000000000000000000000000000000000000000000000000000000000000000000000000000
#091971:000000000000000000000000000000000000000000000000000000000000000000000000000000000000000000000000000000000000000000000000000000000000000000000000000000000000000000000000000000000000000000000000000000000000000000000000000000000000000000000000000000000000000000000000000000000000000000000000000000000000000000000000000000000000000000000000000000000000000000000000000000000000000000000000000000000000000000000000000000000000000000000000000000000000000000000000000000000000000000000000000000000000000000000000000000000000000000000000000000000000000000000000000000000000000000000000000000000000000000000000000000000000000000000000000000000000000000000000000000000000000000000000000000000000000000000000000000000000000000000000000000000000000000000000000000000000000000000000000000000000000000000000000000000000000000000000000000000000000000000000000000000000000000000000000000000000000000000000000000000000000000000000000000000000000000000000000000000000000000000000000000000000000000000000000000000000000000000000000000000000000000000000000000000000000000000000000000000000000000000000000000000000000000000000000000000000000000000000000000000000000000000000000000000000000000000000000000000000000000000000000000000000000000000000000000000000000000000000000000000000000000000000000000000000000000000000000000000000000000000000000000000000000000000000000000000000000000000000000000000000000000000000000000000000000000000000000000000000000000000000000000000000000000000000000000000000000000000000000000000000000000000000000000000000000000000000000000000000000000000000000000000000000000000000000000000000000000000000000000000000000000000000000000000000000000000000000000000000000000000000000000000000000000000000000000000000000000000000000000000000000000000000000000000000000000000000000000000000000000000000000000000000000000000000000000000000000000000000000000000000000000000000000000000000000000000000000000000000000000000000120000000000000000000000000000000000000000000000000000000000000000000000000000000000000000000000000000000000000000000000000000000000000000000000000000000000000000000000000000000000000000000000000000000000000000000000000000000000000000000000000000000000000000000000000000000000000000000000000000000000000000000000000000000000000000000000000000000000000000000000000000000000000000000000000000000000000000000000000000000000000000000000000000000000000000000000000000000000000000000000000000000000000000000000000000000000000000000000000000000000000000000000000000000000000000000000000000000000000000000000000000000000000000000000000000000000000000000000000000000000000000000000000000000000000000000000000000000000000000000000000000000000000000000000000000000000000000000000000000000000000000000000000000000000000000000000000000000000000000000000000000000000000000000000000000000000000000000000000000000000000000000000000000000000000000000000000000000000000000000000000000000000000000000000000000000000000000000000000000000000000000000000000000000000000000000000000000000000000000000000000000000000000000000000000000000000000000000000000000000000000000000000000000000000000000000000000000000000000000000000000000000000000000000000000000000000000000000000000000000000000000000000000000000000000000000000000000000000000000000000000000000000000000000000000000000000000000000000000000000000000000000000000000000000000000000000000000000000000000000000000000000000000000000000000000000000000000000000000000000000000000000000000000000000000000000000000000000000000000000000000000000000000000000000000000000000000000000000000000000000000000000000000000000000000000000000000000000000000000000000000000000000000000000000000000000000000000000000000000000000000000000000000000000000000000000000000000000000000000000000000000000000000000000000000000000000000000000000000000000000000000000000000000000000000000000000000000000000000000005252
#092971:22
