This file was generated by Ched 2.7.0.0.
#TITLE ""
#ARTIST ""
#DESIGNER ""
#DIFFICULTY 0
#PLAYLEVEL
#SONGID ""
#WAVE ""
#WAVEOFFSET 0
#JACKET ""
#REQUEST "ticks_per_beat 480"
#00002: 4
#BPM01: 192
#00008: 01
#TIL00: ""
#VOLUME: ""
#HISPEED 00
#MEASUREHS 00
#00012:13
#00015:00130000
#00018:0013
#0001b:00000013
#00112:13
#00115:00130000
#0011b:0013
#00118:00000013
#00212:13
#00215:00130000
#00218:0013
#0021b:00000013
#01215:00130013
#01218:0013
#0121b:23000013
#01212:23
#01312:13000013
#01318:00130013
#01315:0013
#0141b:13
#01418:00130013
#01415:0013
#01412:00000013
#01410:41
#01815:13
#01812:00130013
#0181b:00130013
#01818:0013
#02515:00000013
#02518:13
#02618:13
#0261b:0013
#02718:13
#0271b:0013
#02712:13
#02715:0013
#02815:00001313
#02818:0000000000130000
#0281b:0000000000000013
#02810:41
#02918:0000001300000000
#02915:0013000000000000
#03518:0013000000001300
#03515:0000130000000013
#03512:1313
#0351b:0000001300000000
#0351f:11
#0361b:13
#03712:13
#0381b:13
#03912:13
#04012:13
#0401b:13
#04018:00130013
#04015:0013
#04112:13
#0411b:13
#04115:00130013
#04118:0013
#04212:13000013
#04218:13000013
#04615:00000013
#04618:0013
#04812:0013
#04818:0000000000130000
#04815:00000013
#04918:1300000000130000
#04915:0013
#04912:00000013
#0501b:13
#05018:00000013
#05012:00000023
#0451b:13
#04515:0013
#04519:00330000
#04513:00000033
#04510:41
#0561b:0013
#05612:2313
#05618:00000013
#05715:1313
#05712:00130000
#05718:00000013
#05815:13000013
#05818:0013000000000013
#09218:0013
#09212:00000013
#09215:00130000
#0921b:23
#0931b:13
#09318:00001313
#09315:0000130000130013
#09612:00130000
#0961b:0013
#09615:00000013
#09618:23
#09718:1313
#09712:0000130000000013
#09715:0000000000130000
#0971b:00000013
#02315:00000013
#02318:1300000000000013
#0231b:0033000000000000
#02012:13
#02015:00130000
#02018:0013
#0201b:00000013
#02115:13
#02118:00000013
#02112:0033000000000000
#0221b:13
#02218:00130000
#02215:0013
#02212:00000013
#02415:1300000000000013
#02418:00000013
#00315:13
#00312:00130000
#00318:0013
#0031b:00000013
#00418:0013
#00410:41
#00515:0013
#00618:0013
#00715:0013
#00812:13
#00815:00130000
#00818:0013
#0081b:00000013
#00912:13
#00915:00130013
#00918:0013
#0101b:13
#01018:00130000
#01015:0013
#01012:00000013
#0111b:13
#01118:00130013
#01115:0013
#0151b:13000013
#01515:00130013
#01518:0013
#01612:13
#01615:00130013
#01618:0013
#0161b:00000013
#01712:13000013
#01715:00130000
#01718:0013
#0171b:00000013
#03018:00001313
#03015:0000000000130000
#03012:0000000000000013
#03115:0000001300000000
#03118:0013000000000000
#03215:00130000
#03218:0000001300000000
#03318:00130000
#03315:0000001300000000
#0431b:13
#04315:13
#04318:00330000
#04312:00330000
#04415:00130013
#0441b:00130000
#04418:23
#04412:23
#0441f:21
#04712:13
#04718:0013
#04714:00330000
#0471a:00000033
#05119:13
#0511a:00130000
#0511b:0013
#05113:23
#05114:00230000
#05115:0023
#05418:00000013
#05415:0013
#05312:13
#05318:0013
#05314:00330000
#0531a:00000033
#05218:00130013
#05212:00130000
#05215:23
#0521b:23
#0551b:13
#05515:0013
#05519:00330000
#05513:00000033
#05915:13
#05918:0013
#06018:0013
#06015:00000013
#06012:26
#06010:41
#06115:0013
#06118:26000013
#06615:00130013
#06618:0013
#0661b:23000013
#06612:23
#06712:13000013
#06718:00130013
#06715:0013
#0681b:13
#06818:00130013
#06815:0013
#06812:00000013
#0691b:13000013
#06915:00130013
#06918:0013
#07012:13
#0701b:13
#07118:13333333
#07115:13333333
#07218:00000013
#07215:0013
#0721a:24
#07212:24
#07210:41
#0741b:0013
#07415:2300000000130000
#07418:00000013
#07515:1300000000130000
#07518:0013
#0751b:00000013
#07612:13
#0761b:00000023
#07615:00000023
#0731b:13
#07315:0013
#07318:00130000
#07312:00000013
#08212:0013
#0821b:0013
#08215:00000013
#08218:23
#08318:1313
#0831b:00130000
#08315:00000013
#08418:13000013
#08415:0013000000000013
#08015:23000013
#08018:0013
#07815:00130013
#0781b:00130000
#07818:23
#07812:23
#08518:13
#08515:0013
#08615:0013
#08618:26000013
#08718:0013
#08715:00000013
#08712:26
#09418:0013
#09412:00000013
#09415:00130000
#0941b:23
#0951b:13
#09518:00001313
#09515:0000130000130013
#09812:00130000
#0981b:0013
#09815:00000013
#09818:23
#0791b:13
#07915:0013
#07918:00130000
#07912:00000013
#08112:13
#08118:0013
#08115:00130000
#0811b:00000013
#06212:24
#06216:00240024
#0621a:0024
#09918:23
#09915:0023000000000000
#09919:00230000
#09914:0000002300000000
#0991a:0023
#09913:0000000000230000
#0991b:00000023
#09912:0000000000000023
#0191b:00000023
#0191a:0023
#01915:0000000000230000
#01914:0000002300000000
#01919:00230000
#01913:0023000000000000
#01918:23
#06312:24
#0631a:0024
#0881a:24
#08816:00240024
#08812:0024
#0891a:24
#08912:0024
#0771a:23
#07719:00230000
#07718:0023
#07714:23
#07713:00230000
#07712:0023
#04458:63
#04452:63
#04455:00230000
#0445b:00230000
#06052:16
#06158:16
#02658:53
#0265b:0053
#02758:53
#0275b:0053
#02752:53
#02755:0053
#03052:13
#0365b:53
#03657:0014
#03752:63
#03755:0014
#0385b:53
#03857:0014
#03952:63
#03955:0014
#04958:53
#0505b:53
#0455b:63
#04555:0063
#05858:0053000000000000
#02155:53
#02358:63
#02455:53
#02452:00130000
#02558:63
#0255b:00130000
#02852:13
#02858:13
#0325b:13
#03355:13
#03458:13
#04252:53
#04258:53
#0435b:63
#04355:63
#04358:0013
#04352:0013
#04652:13
#04752:53
#04758:0053
#0485b:13
#05352:53
#05358:0053
#05252:00230000
#05258:00230000
#05255:53
#0525b:53
#0555b:63
#05555:0063
#0545b:13
#05955:53
#05958:0053
#0645a:14
#07052:63
#0705b:53
#07158:23
#07155:23
#0725a:44
#07252:34
#07555:63
#07652:63
#0735b:63
#07355:0063
#07358:00630000
#07352:00000063
#08455:0063000000000000
#0785b:00230000
#07855:00230000
#07858:63
#07852:63
#08558:63
#08555:0063
#08658:16
#08752:16
#09052:14
#07455:13
#0795b:63
#07955:0063
#07958:00630000
#07952:00000063
#08055:13
#08152:53
#08158:0053
#08155:00530000
#0815b:00000053
#08258:13
#05652:13
#004320:13333333
#005320:23
#0053b1:13333333
#0063b1:23
#006350:13333333
#007350:23
#007381:13333333
#008381:23
#021351:13
#021321:0033230000000000
#023381:13
#0233b1:0033230000000000
#024351:13
#024321:00230000
#025381:13
#0253b1:00230000
#026381:13000033
#0263b1:00333300
#027381:33000033
#0273b1:00333300
#028381:23
#027320:13000033
#027350:00333300
#028320:23
#029350:0013
#029320:00000033
#030320:23
#031380:0013
#0313b0:00000033
#0323b0:23
#032320:0013
#032350:00000033
#033350:23
#0333b0:0013
#033380:00000033
#034380:23
#0363b0:13
#036370:0024
#037320:13
#037350:0024
#0383b0:13
#038370:0024
#039320:13
#039350:0024
#042320:13
#042350:0023
#042381:13
#0423b1:0023
#0433b1:13
#043381:00332300
#043350:13
#043320:00332300
#044380:1323
#0443b0:00530000
#044321:1323
#044351:00530000
#0453b1:13
#045391:00330000
#045381:0023
#045350:0013
#045330:00000033
#046320:23
#047320:13
#047340:00330000
#047350:0023
#047381:0013
#0473a1:00000033
#0483b1:23
#049381:13
#0493b1:00230000
#0503b1:13
#050381:00230000
#052351:1323
#052321:00530000
#0523b0:1323
#052380:00530000
#053320:13
#053340:00330000
#053350:0023
#053381:0013
#0533a1:00000033
#0543b1:23
#0553b1:13
#055391:00330000
#055381:0023
#055350:0013
#055330:00000033
#056320:23
#058380:0013000000000000
#0583b0:0023
#059350:13
#059320:00230000
#059380:0013
#0593b0:00000023
#063320:1424
#063340:00340000
#0633a1:0014
#063381:00000034
#0643a1:24
#070321:13
#071351:33333333
#072321:24
#0703b0:13
#071380:33333333
#0723a0:24
#0733b0:1323
#073380:00330000
#073351:0013
#073321:00000033
#074351:23
#075351:13
#075321:00230000
#076321:13
#076351:00230000
#078381:1323
#0783b1:00530000
#078320:1323
#078350:00530000
#0793b0:1323
#079380:00330000
#079351:0013
#079321:00000033
#080351:23
#081321:1323
#081351:00330000
#081380:0013
#0813b0:00000033
#082380:23
#084350:0013000000000000
#084320:0023
#085380:13
#0853b0:00230000
#085350:0013
#085320:00000023
#0893a0:1424
#089380:00340000
#089321:0014
#089341:00000034
#090321:24
