This file was generated by Ched 2.7.0.0.
#TITLE ""
#ARTIST ""
#DESIGNER ""
#DIFFICULTY 0
#PLAYLEVEL
#SONGID ""
#WAVE ""
#WAVEOFFSET 0
#JACKET ""
#REQUEST "ticks_per_beat 480"
#00002: 4
#BPM01: 192
#00008: 01
#TIL00: ""
#VOLUME: ""
#HISPEED 00
#MEASUREHS 00
#0131a:14
#01314:0014
#0281a:14
#02812:0014
#02810:41
#0291a:14
#02914:0014
#02918:00000014
#03014:14
#0301a:0014
#03112:14
#03118:0014
#03114:00000014
#03718:14
#03714:0014
#0381a:14
#03812:0014
#01214:0014
#0121a:24
#01418:14
#01412:0014
#01410:41
#01518:14
#01512:0014
#0161a:14
#01614:0014
#0171a:14
#01714:0014
#01818:14
#01812:0014
#01918:14
#01912:0014
#02018:14
#0201a:0014
#02214:14
#02212:0014
#0341a:14
#03514:1414
#03518:00140000
#0351f:11
#03614:0014
#0361a:24
#03912:0014
#03918:14
#0401a:1414
#04014:00140000
#04112:1414
#04118:00140000
#04218:14
#04512:14
#04518:00140000
#04514:0014
#0451a:00000014
#04510:41
#04612:14
#04618:0014
#04614:00000014
#04812:0014
#04818:00000014
#0481a:14
#04912:14
#0491a:0014
#04914:00000014
#05012:00000014
#05118:14
#05114:00140000
#0511a:0014
#05312:14
#05318:00140000
#05314:0014
#0531a:00000014
#05412:14
#05418:0014
#05414:00000014
#05612:0014
#05618:00000014
#05713:14
#05719:00140000
#05714:0014
#0571a:00000014
#0591a:14
#05914:00140000
#05918:0014
#05912:00000014
#06614:0014
#0661a:14
#06712:0014
#06718:14
#0681a:14
#06814:0014
#06918:14
#06912:0014
#07018:14
#0741a:0014
#07414:00000014
#07412:14
#0751a:14
#07512:0014
#07518:00000014
#0761a:00000014
#07714:14
#07718:00140000
#07712:0014
#0821a:0014
#08214:00000014
#08319:14
#08313:00140000
#08318:0014
#08312:00000014
#08512:14
#08518:00140000
#08514:0014
#0851a:00000014
#0641a:14
#06412:14
#09012:14
#0901a:14
#0921a:1414
#09214:00140000
#09312:1414
#09318:00140000
#0941a:1414
#09414:00140000
#09512:1414
#09518:00140000
#0961a:14
#09614:00140000
#09618:0014
#09712:14
#09718:00140000
#09714:0014
#0981a:14
#09814:00140000
#09818:0014
#02414:14
#0241a:14
#02512:14
#02518:14
#07214:0014
#07218:00000014
#0721a:24
#07210:41
#0471a:14
#04714:00140000
#04718:0014
#04712:00000014
#07312:14
#07318:00140000
#07314:0014
#0731a:00000014
#08417:14
#05815:14
#0441a:00000014
#04414:24
#0441f:21
#0521a:00000014
#05212:24
#0791a:14
#07914:00140000
#07918:0014
#07912:00000014
#0801a:14
#08014:0014
#08018:00000014
#07812:00000014
#0781a:24
#06018:26
#06010:41
#06112:26
#06218:2424
#06214:00240024
#06318:24
#08612:26
#08718:26
#08814:2424
#08818:00240024
#08914:24
#09912:24
#09918:00240000
#09914:0024
#0991a:00000024
#05519:00340034
#08113:00340034
#00410:41
#02058:54
#0205a:0024
#02254:64
#02252:0024
#0345a:14
#03654:0014
#03754:0014
#03952:0014
#03852:0014
#0435a:14
#04258:54
#04454:54
#05252:64
#06058:16
#06152:16
#0725a:14
#07058:54
#08652:16
#08758:16
#08457:54
#0565a:14
#05855:64
#0785a:54
#08252:14
#000380:14
#0013a0:24
#002340:14
#003320:24
#0043a0:14
#005380:24
#006320:14
#007340:24
#008380:14
#0093a0:24
#010340:14
#011320:24
#020380:14
#0203a0:0054
#021380:24
#022340:14
#022320:0054
#023340:24
#026380:1424
#027340:1424
#032380:1424
#033340:1424
#042380:14
#0433a0:24
#044340:14
#044320:0024
#0503a0:1424
#052320:14
#052340:0024
#0553a0:14
#055390:00340034
#055380:0034
#0563a0:24
#058350:14
#058320:0024
#070380:14
#0713a0:34343434
#0723a0:24
#076320:1424
#0783a0:14
#078380:0024
#081320:14
#081330:00340034
#081340:0034
#082320:24
#084370:14
#0843a0:0024
