This file was generated by Ched 2.7.0.0.
#TITLE ""
#ARTIST ""
#DESIGNER ""
#DIFFICULTY 0
#PLAYLEVEL
#SONGID ""
#WAVE ""
#WAVEOFFSET 0
#JACKET ""
#REQUEST "ticks_per_beat 480"
#00002: 4
#BPM01: 196
#00008: 01
#TIL00: ""
#VOLUME: ""
#HISPEED 00
#MEASUREHS 00
#00914:14
#0101a:14
#01114:14
#01218:14
#01312:14
#01714:14
#01818:14
#01912:14
#0201a:14
#02010:41
#02114:14
#02514:14
#02618:14
#02712:14
#0281a:14
#02914:14
#03018:14
#03112:14
#03618:14
#03614:0014
#03718:14
#03714:0014
#04012:0016
#04118:16
#04112:0016
#04218:1616
#04418:0016
#04412:16
#04512:16
#04518:0016
#04612:1616
#04610:41
#05218:16
#05212:0016
#05318:16
#05312:0016
#05418:1616
#05612:14
#0561f:11
#0581a:14
#0641a:14
#06618:14
#06514:14
#06712:14
#06818:14
#06814:0014
#06918:14
#06914:0014
#07418:0016
#07412:16
#07410:0041
#07512:1616
#07718:16
#07712:0016
#07818:16
#07812:0016
#07918:1616
#08512:16
#08518:0016
#08612:16
#08618:0016
#08712:1616
#08918:16
#08912:0016
#09018:16
#09012:0016
#09512:14
#09518:0014
#09612:14
#0971a:14
#09714:0014
#0981a:14
#09912:14
#09918:0014
#10012:14
#00018:14
#00214:14
#01418:14
#02218:14
#07318:0016
#07312:26
#0731f:21
#00418:24
#03818:24
#06014:24
#07018:24
#09118:26
#09110:41
#0481a:0034
#0491a:34
#05012:0034
#05112:34
#08112:0034
#08212:34
#0831a:0034
#0841a:34
#00810:41
#03210:41
#00458:54
#03858:54
#01458:54
#02258:54
#09158:66
#004380:14
#0063a0:0000000000000034
#0073a0:0034003400000000
#0083a0:24
#014380:14
#0143a0:0000000000000034
#0163a0:24
#022380:14
#0223a0:0000000000000034
#0243a0:24
#032380:14
#0333a0:24
#034340:14
#035320:24
#038380:14
#0383a0:0000000000000034
#0393a0:0034003400000000
#040380:26
#043380:1626
#047320:1626
#048380:14
#0483a0:0034
#0493a0:3424
#050340:14
#050320:0034
#051320:3424
#055380:1626
#060340:14
#063320:24
#070380:14
#0703a0:0000000000000034
#0713a0:0034003400340024
#076320:1626
#080380:1626
#081340:14
#081320:0034
#082320:3424
#083380:14
#0833a0:0034
#0843a0:3424
#088320:1626
#091380:16
#091360:0000000000000026
#101380:1400000000000036
#102380:0036003600360036
#1073a0:24
