This file was generated by Ched 2.7.0.0.
#TITLE ""
#ARTIST ""
#DESIGNER ""
#DIFFICULTY 0
#PLAYLEVEL
#SONGID ""
#WAVE ""
#WAVEOFFSET 0
#JACKET ""
#REQUEST "ticks_per_beat 480"
#00002: 4
#BPM01: 196
#00008: 01
#TIL00: ""
#VOLUME: ""
#HISPEED 00
#MEASUREHS 00
#02218:0000000000131300
#02212:2300130000000013
#02215:00000000000000000000001300000000
#0221b:1300000013000013
#02619:0000000000130013
#02614:0000000000130013
#0261b:0013
#02612:23
#02712:1300001300000000
#02715:0013000000000013
#02718:00130013
#0271b:1300001300130000
#02812:14001313
#02816:0014000000140000
#0281b:23130000
#0281a:0014
#02912:1300001300000000
#02915:0013000000000013
#02918:00130013
#0291b:1300001300130000
#0301b:1313
#03018:00001300000000000000001300001300
#03015:0000130000131300
#03012:2300001300000000
#04212:0000000014000014
#0421a:0000000000140014
#04217:14
#04214:0014000000000000
#04218:00140000
#04215:0000001400000000
#04216:00000014
#04316:00001400000000000000001400000000
#0431a:0000001400000000
#04012:2300000000140000
#04018:0013
#0401a:0000000000000014
#0401b:2313000000130000
#04015:0000131300000000
#04912:1400141400000000
#0491a:0000141400000000
#04915:0000000000000013
#04918:00000000000000000000000000000013
#05116:0014000000000000
#05112:0000141400000000
#0511a:1400141400000000
#06412:24141414
#06417:0000000000130013
#0641b:13130000
#09417:12121200
#09419:00000025
#09412:00000025
#00012:13130000
#00018:00130000
#00015:0000000000130000
#01418:00001300000000130000000000001300
#01415:1300001300130013
#01412:00131313
#0141b:00230023
#01512:00001326
#0151b:0013
#01518:00000026
#01615:0000001300130000
#01618:0000130013000013
#0161b:1300000000130000
#01612:23130000
#01715:1300130000000013
#01718:0013000000001300
#0171b:0000001300130000
#01712:0000001300000000
#01812:1300000013000013
#0181b:2300130000130013
#01815:0000000000130000
#0191b:0000001300130000
#01918:0013000000001300
#01915:1300130000000013
#01912:0000001300000000
#0231a:0012000024000000
#02316:0000121200140000
#02318:00000000001200000000000000000000
#02314:0012000000000000
#02312:00002414
#02417:0013000000000000
#02419:0000001300000000
#0241b:0000000000130000
#02418:00000013
#02415:0000000000000013
#03116:0014001323000000
#03119:00000000000000130000000000006300
#0311a:24000000140000000000000000000063
#03117:00000023
#03112:24000063
#03115:00000000000000000063000000000000
#03114:0000000000630000
#03113:00000000000000000000006300000000
#03118:00000000000000000000000000630000
#03212:17
#03210:41
#0321b:63
#03317:17
#03412:17
#03417:00000013
#0351b:0013
#03512:0013
#03612:13231323
#0361b:23132313
#03618:0013000000130000
#03615:0000001300000013
#03818:0000000000131300
#03815:00000000000000000000001300000000
#0381b:0000000000000013
#0381a:2424000000000000
#03812:0000002424000026
#03816:2323000000000000
#03817:0000002323000000
#03912:0013002600000000
#0391b:0000001300000000
#03918:0026000023000000
#03915:0000000000230000
#04112:0014001400000000
#0411a:0000000000140014
#04116:0014
#04718:0000000000001313
#04715:00000000000000000000000000130013
#04717:00000013000000000000000000000000
#04712:00242400
#04812:00140000
#0481a:0000000000140000
#04816:0000000000000014
#07015:00130000000000000000000000000000
#0701a:0013000000000000
#07014:00000013000000000000000000000000
#07013:00000000001300000000000000000000
#07018:0000001323242526
#07012:00000000000000130014001500160000
#0701b:23
#07019:00230000
#07318:2400001323000000
#07315:00000000000000130000000000000000
#07314:24
#0731a:0000240000240000
#07312:0000000000240024
#07316:0000000000000024
#0731f:21
#07416:0014000014000000
#0741a:0000001400000000
#07412:0000000000140014
#07410:0041
#0901b:0000000000000013
#09012:0014002400000013
#09016:0024
#0901a:0000000000240000
#09112:001400150000002c
#09119:0000001500000000
#0911a:0014000000000000
#09115:2400000026262600
#09117:00240000
#09110:41
#10118:0013001300001300
#10115:13000000000000130000000000000000
#1011b:00131300
#1011a:0000000000000024
#10112:0000260000260000
#10114:0000000000000024
#0681b:13130013
#06812:24131313
#06818:0013000000130000
#06815:0000001300000013
#0681a:0024
#00115:1313001300130000
#0021b:13130000
#00215:00130000
#00218:0000000000130000
#00318:1313001300130000
#00412:1600140000140000
#00418:26
#0041b:00333333333333332333333333333333
#0051a:0014001400140000
#00512:26333333333333332333333333333333
#00816:13130000
#0081b:00130000
#00817:0000000000131300
#00810:41
#00919:1313000000000000
#0091b:0000001300131300
#01017:13130000
#01012:00130000
#01016:0000000000131300
#01114:1313000000000000
#01112:0000001300131300
#01216:13130000
#0121b:00130000
#01217:0000000000131300
#01312:1313000000000000
#01316:0000001300131300
#01317:1313000000000000
#0201b:13130000
#02018:0000001300130000
#02015:0000130013000013
#02012:2300000000130000
#02010:41
#02118:1300130000000013
#02115:0013000000001300
#02112:0000001300130000
#0211b:0000001300000000
#02516:0013000000000000
#02514:0000001300000000
#02512:0000000000130000
#02515:00000013
#02518:0000000000000013
#03712:1324
#03718:0014000000000014
#03714:0000001400140000
#0371b:0013
#0371a:24
#03716:00240024
#0441a:0000000000140000
#04415:0013
#04412:2313000000130014
#04418:0000131300000000
#0451a:0014002400000000
#04518:0000000000000013
#04516:0024
#04512:0000000000240000
#0501a:00140000
#05012:0000000000140000
#05016:0000000000000014
#0521b:0013
#0521a:2414000000000014
#05218:0000000000130000
#05215:0000131300001300
#05212:2400000000000013
#05312:0014002400000000
#05315:0000000000000013
#05316:0024
#0531a:0000000000240000
#05412:1300130013000013
#05418:1300130000130000
#0541b:0013000013000013
#05415:0000001300001300
#05617:13130000
#05612:00130000
#05616:0000000000131300
#0561f:11
#05714:1313000000000000
#05712:0000001300131300
#05816:13130000
#0581b:00130000
#05817:0000000000131300
#05919:1313000000000000
#0591b:0000001300131300
#06017:13130000
#06012:00130000
#06016:0000000000131300
#0611b:1313000000000000
#06117:0000001300131300
#06116:1313000000000000
#06216:13130000
#0621b:00130000
#06217:0000000000131300
#06312:1313000000000000
#06316:0000001300131300
#06317:1313000000000000
#0651a:24141414
#06516:0000000000130013
#06512:13130000
#06612:24141414
#06617:0000000000130013
#0661b:13130000
#0671a:24141414
#06716:0000000000130013
#06712:13130000
#0691b:13130013
#06912:24131313
#06918:0013000000130000
#06915:0000001300000013
#0691a:0024
#0751a:0000000014000014
#07512:0000000000140014
#07515:14
#07518:0014000000000000
#07514:00140000
#07517:0000001400000000
#07516:00000014
#07616:00001400000000000000001400000000
#07612:0000001400000000
#07815:0000000000000013
#07812:0014002400000000
#07816:0024
#0781a:0000000000240000
#0821a:1400141400000000
#08212:0000141400000000
#08218:0000000000000013
#08215:00000000000000000000000000000013
#08416:0014000000000000
#0841a:0000141400000000
#08412:1400141400000000
#08417:00000000000000000014000000000000
#08415:000000000000000000000000000000000000000000000000000000000000000000000000000000000000000000000000000000000000000000000000000000000000000000000000000000000000000000000000000000000000000000000000000000000000000000000000000000000000000000000000000000000000000000000000000000000000000000000000000000000000000000000000000000000000000000000000000000000000000000000000000000000000000000000000000000000000000000000000000000000000000000000000000000000000000000000000000000000000000000000000000000000000000000000000000000000000000000000000000000000000000000000000000000000000000000000000000000000000000000000000000000000000000000000000000000000000000000000000000000000000000000000000000000000000000000000000000000000000000000000000000000000000000000000000000000000000000000000000000000000000000000000000000000000000000000000000000000000000000000000000000000000000000000000000000000000000000000000000000000000000000000000000000000000000000000000000000000000000000000000000000000000000000000000000000000000000000000000000000000000000000000000000000000000000000000000000000000000000000000000000000000000000000000000000000000000000000000000000000000000000000000000000000000000000000000000000000000000000000000000000000000000000000000000000000000000000000000000000000000000000000000000000000000000000000000000000000000000000000000000000000000000000000000000000000000000000000000000000000000000000000000000000000000000000000000000000000000000000000000000000000000000000000000000000000000000000000000000000000000000000000000000000000000000000000000000000000000000000000000000000000000000000000000000000000000000000000000000000000000000000000000000000000000000000000000000000000000000000000000000000000000000000000000000000000000000000000000000000000000000000000000000000000000000000000000000000000000000000000000000000000000000000000000000000000000000000000000000000000000000000000000000000000000000000000000000000000000000000000000000000000000000000000000000000000000000000000000000000000000000000000000000000000000000000000000000000000000000000000000000000000000000000000000000000000000000000000000000000000000000000000000000000000000000000000000000000000000000000000000000000001400000000000000000000000000000000000000000000000000000000000000000000000000000000000000000000000000000000000000000000000000000000000000000000000000000000000000000000000000000000000000000000000000000000000000000000000000000000000000000000000000000000000000000000000000000000000000000000000000000000000000000000000000000000000000000000000000000000000000000000000000000000000000000000000000000000000000000000000000000000000000000000000000000000000000000000000000000000000000000000000000000000000000000000000000000000000000000000000000000000000000000000000000000000000000000000000000000000000000000000000000000000000000000000000000000000000000000000000000000000000000000000000000000000000000000000000000000000000000000000000000000000000000000000000000000000000000000000000000000000000000000000000000000000000000000000000000000000000000000000000000000000000000000000000000000000000000000000000000000000000000000000000000000000000000000000000000000000000000000000000000000000000000000000000000000000000000000000000000000000000000000000000000000000000000000000000000000000000000000000000000000000000000000000000000000000000000000000000000000000000000000000000000000000000000000000000000000000000000000000000000000000000000000000000000000000000000000000000000000000000000000000000000000000000000000000000000000000000000000000000000000000000000000000000000000000000000000000000000000000000000000000000000000000000000000000000000000000000000000000000000000000000000000000000000000000000000000000000000000000000000000000000000000000000000000000000000000000000000000000000000000000000000000000000000000000000000000000000000000000000000000000000000000000000000000000000000000000000000000000
#07918:1400001300130000
#07915:00130013
#07912:0013000014000013
#0791a:0000000000000014
#08016:00000013000000000000000000000000
#08015:0000000000001313
#08018:00000000000000000000000000130013
#0801a:00242400
#0811a:00140000
#08112:0000000000140000
#08116:0000000000000014
#07712:0000000000140000
#07718:0013
#0771a:2414000000000014
#0771b:0000000000130000
#07714:0000141400000000
#08312:00140000
#0831a:0000000000140000
#08316:0000000000000014
#08512:2400000013000014
#08515:0014001400130000
#08518:00140013
#0851b:0000000000000013
#0851a:2414
#0861a:0014002400000000
#08618:0000000000000013
#08616:0024
#08612:0000000000240000
#0871b:1300130013000013
#08715:1300130000130000
#08712:0013000013000013
#08718:0000001300001300
#04614:14
#04618:00130013
#0461b:0013000000000013
#04615:0000001300130000
#0461a:0014
#04612:0000000000000014
#04610:41
#0891b:0013
#0891a:2400000000000014
#08918:0000000000130000
#08914:00140000
#08917:0014001400000000
#08915:00000013
#08912:2400000014000013
#09516:1300130000141400
#0951a:00140000
#09612:1313000000000000
#09616:1414001300131300
#0961a:0000001400000000
#09617:0014
#09717:13130000
#09712:00140000
#09716:0000000000141400
#0981b:1313000000000000
#09817:0000001300131300
#09816:1414000000000000
#09812:0000001400000000
#09815:0014
#09916:1300130000141400
#0991a:00140000
#10012:1313000000000000
#10016:1414001300131300
#1001a:0000001400000000
#10017:0014
#07118:0000000000000026
#07115:0026000000260000
#07112:0000002600000000
#10218:0024000000000026
#10216:0000002400240000
#10212:0024000000240026
#1021a:0000002400000000
#00712:0026000000000000
#00718:0000002600230000
#00715:0023
#00618:26
#0061b:00333333333333332333333333330000
#05515:00000023
#05518:00000023
#08818:00000023
#08815:00000023
#10712:52
#1071c:52
#07158:0000000000000016
#07155:0016000000160000
#07152:0000001600000000
#01552:00002316
#01558:00000016
#0155b:0023
#02252:0000530000000013
#0225b:6300000000000013
#02852:64340000
#02856:0024000000240000
#0285a:00005444
#04252:0000000000000064
#04052:0000000000540000
#0405a:0000000000000054
#0495a:0000006400000000
#04956:0000000000140000
#09452:00000015
#09459:00000015
#1015a:0000000000000014
#10152:0000160000160000
#10154:0000000000000014
#10258:0014000000000056
#10256:0000001400140000
#10252:0014000000140056
#1025a:0000001400000000
#00552:6623
#00752:0016000000003600
#00758:0000001600004600
#01455:0000000000000053
#01458:0000000000000053
#01852:53
#0185b:00630000
#03252:67
#03357:57
#03452:67
#03457:00000063
#0355b:0063
#03552:0053
#03852:0000000000000036
#03958:0046000000004600
#03952:0000003600003600
#04152:0014000000000000
#04156:0014000000000000
#04352:0000003400000000
#0435a:0000005400000000
#04356:00002400000000000000002400000000
#07058:0000000000000016
#07354:54
#07352:0000000000000014
#07358:14
#07356:0000000000000054
#09152:000000000000001c
#05152:0000005400000000
#00058:00530000
#0015b:0000000000130000
#00255:00630000
#00352:0000000000130000
#00458:56
#0045b:0023
#00658:56
#0065b:0023
#00652:000000000000001c
#00856:00530000
#0085b:00530000
#00952:00000013
#01052:00630000
#01057:00630000
#0115b:00000013
#0125b:00530000
#01256:00530000
#01357:0053000000000000
#0135b:00000013
#0205b:13
#0445a:0000000000640000
#04452:0000000000000064
#0455a:0014000000000000
#04556:0014000000000000
#0525a:0000000000000054
#05352:0014000000000000
#05356:0014000000000000
#0545b:0000000000000053
#05452:0000000000000053
#05555:00000013
#05558:00000013
#05652:00630000
#05657:00630000
#0585b:00530000
#05856:00530000
#06052:00630000
#06057:00630000
#06156:0063000000000000
#06152:00000013
#0575b:00000013
#05952:00000013
#0625b:00530000
#06256:00530000
#06357:0053000000000000
#0635b:00000013
#0755a:0000000000000054
#07656:00002400000000000000002400000000
#07652:0000006400000000
#0765a:0000004400000000
#08252:0000005400000000
#08255:0000000000130000
#0825a:0000006400000000
#08258:0000000000130000
#07958:14
#07952:0000000014000053
#0795a:0000000000000014
#08056:00000023000000000000000000000000
#0845a:0000006400000000
#08457:00000000000000000024000000000000
#08452:0000005400000000
#08455:000000000000000000000000000000000000000000000000000000000000000000000000000000000000000000000000000000000000000000000000000000000000000000000000000000000000000000000000000000000000000000000000000000000000000000000000000000000000000000000000000000000000000000000000000000000000000000000000000000000000000000000000000000000000000000000000000000000000000000000000000000000000000000000000000000000000000000000000000000000000000000000000000000000000000000000000000000000000000000000000000000000000000000000000000000000000000000000000000000000000000000000000000000000000000000000000000000000000000000000000000000000000000000000000000000000000000000000000000000000000000000000000000000000000000000000000000000000000000000000000000000000000000000000000000000000000000000000000000000000000000000000000000000000000000000000000000000000000000000000000000000000000000000000000000000000000000000000000000000000000000000000000000000000000000000000000000000000000000000000000000000000000000000000000000000000000000000000000000000000000000000000000000000000000000000000000000000000000000000000000000000000000000000000000000000000000000000000000000000000000000000000000000000000000000000000000000000000000000000000000000000000000000000000000000000000000000000000000000000000000000000000000000000000000000000000000000000000000000000000000000000000000000000000000000000000000000000000000000000000000000000000000000000000000000000000000000000000000000000000000000000000000000000000000000000000000000000000000000000000000000000000000000000000000000000000000000000000000000000000000000000000000000000000000000000000000000000000000000000000000000000000000000000000000000000000000000000000000000000000000000000000000000000000000000000000000000000000000000000000000000000000000000000000000000000000000000000000000000000000000000000000000000000000000000000000000000000000000000000000000000000000000000000000000000000000000000000000000000000000000000000000000000000000000000000000000000000000000000000000000000000000000000000000000000000000000000000000000000000000000000000000000000000000000000000000000000000000000000000000000000000000000000000000000000000000000000000000000000000000000002400000000000000000000000000000000000000000000000000000000000000000000000000000000000000000000000000000000000000000000000000000000000000000000000000000000000000000000000000000000000000000000000000000000000000000000000000000000000000000000000000000000000000000000000000000000000000000000000000000000000000000000000000000000000000000000000000000000000000000000000000000000000000000000000000000000000000000000000000000000000000000000000000000000000000000000000000000000000000000000000000000000000000000000000000000000000000000000000000000000000000000000000000000000000000000000000000000000000000000000000000000000000000000000000000000000000000000000000000000000000000000000000000000000000000000000000000000000000000000000000000000000000000000000000000000000000000000000000000000000000000000000000000000000000000000000000000000000000000000000000000000000000000000000000000000000000000000000000000000000000000000000000000000000000000000000000000000000000000000000000000000000000000000000000000000000000000000000000000000000000000000000000000000000000000000000000000000000000000000000000000000000000000000000000000000000000000000000000000000000000000000000000000000000000000000000000000000000000000000000000000000000000000000000000000000000000000000000000000000000000000000000000000000000000000000000000000000000000000000000000000000000000000000000000000000000000000000000000000000000000000000000000000000000000000000000000000000000000000000000000000000000000000000000000000000000000000000000000000000000000000000000000000000000000000000000000000000000000000000000000000000000000000000000000000000000000000000000000000000000000000000000000000000000000000000000000000000000000000000000
#07752:0000000000540000
#0775a:0000000000000054
#07852:0014000000000000
#07856:0014000000000000
#08552:0000000000000064
#0865a:0014000000000000
#08656:0014000000000000
#0875b:0000000000000063
#08752:0000000000000063
#08858:00000013
#08855:00000013
#04654:14
#0465a:0014
#0465b:0000000000000063
#04652:0000000000000014
#04757:00000023000000000000000000000000
#0895a:0000000000000054
#09052:0014000000000000
#09056:0014000000000000
#0955a:00540000
#09556:00530000
#09656:0054000000000000
#0965a:0000005400001400
#09657:0024
#09752:00640000
#09757:00630000
#09856:0064000000000000
#09852:0000006400001400
#09855:0024
#0995a:00540000
#09956:00530000
#10056:0054000000000000
#1005a:0000005400001400
#10057:0024
#0745a:0014000000000000
#000380:13330000
#0003b0:00000000005300000000335353530000
#0003a0:0000000000000000000000000000000000000000005300530053000000000000
#0013b0:3333003300230000
#002350:13330000
#002320:00000000005300000000335353530000
#002330:0000000000000000000000000000000000000000005300530053000000000000
#003320:3333003300230000
#004380:16
#0043b0:00333333333333333333333333333333
#005380:26
#005321:16333333333333333333333333333333
#006321:26
#006380:16
#0063b0:00333333333333333333333333330000
#006320:000000000000002c
#007350:00000000000000001300005300000000
#007320:00000026
#007381:00000000000000000000135326000000
#0083b1:13330000
#008371:00000000005300002300000000000000
#008360:00130000
#008320:00000000005300000000330033000000
#009320:3333003300332300
#010320:13330000
#010360:00000000005300002300000000000000
#010371:00130000
#0103b1:00000000005300000000330033000000
#0113b1:3333003300332300
#0123b1:13330000
#012371:00000000005300002300000000000000
#012360:00130000
#012320:00000000005300000000330023000000
#013370:0013000000000000
#0133b0:00000053000033000000330023000000
#014350:0000000000000013
#015320:00005326
#014381:0000000000000013
#0153b1:0053
#015381:00000026
#018321:13
#018351:0033230000000000
#0183b0:00130000
#018380:0000003323000000
#0223b0:13
#022380:0033230000000000
#022321:00130000
#022351:0000003323000000
#0233a1:0000000000001434
#023391:00000000000000000000000000340034
#0243a1:24
#024320:1323000000000000
#024340:0000132300000000
#024360:0000000013230000
#0253b0:1323000000000000
#025390:0000132300000000
#025370:0000000013230000
#0263b0:13
#026380:0033230000000000
#026351:00130000
#026321:0000003323000000
#028321:14240000
#028361:0054000000000000
#0283a1:00001424
#028361:0000000000540000
#032321:17
#033321:23
#033370:17
#0343b0:23
#034321:17
#035321:0033
#035331:00000025
#034370:00000013
#0353b0:0033
#035380:00000025
#039380:00000000000000001300005326000000
#039351:00000000000000000000135300000000
#039321:00000026
#040321:0000000000140000
#040361:0000000000000024
#0403a0:0000000000000014
#041360:0024000000000000
#042320:0000000000000014
#043360:0054000000000000
#043320:0000002400000000
#0433a1:0000001400000000
#043361:00000000000000000000005400000000
#0443a1:24
#0443a1:0000000000140000
#044361:0000000000000024
#044320:0000000000000014
#045360:0024000000000000
#0463b0:0000000000000013
#047370:00000053000000000000000000000000
#0473b0:0023
#0483a0:1400000000540000340000000054000024000000000000000000000000000000
#048380:0054000034000000005400003400000000000000000000000000000000000000
#048361:0014
#048321:00000000000000000054340024000000
#048360:00000014
#0483a0:00000000000000000000000000543400
#0493a0:24
#0493a0:0000001400000000
#049360:0000000000240000
#050320:1400000000540000340000000054000024000000000000000000000000000000
#050340:0054000034000000005400003400000000000000000000000000000000000000
#050361:0014
#0503a1:00000000000000000054340024000000
#050360:00000014
#050320:00000000000000000000000000543400
#051320:24
#051320:0000001400000000
#051360:00000024
#0523a0:0000000000000014
#053360:0024000000000000
#054320:0000000000000013
#055350:00000023
#0543b1:0000000000000013
#055381:00000023
#056321:13330000
#056361:00000000005300002300000000000000
#056370:00130000
#0563b0:00000000005300000000330033000000
#0573b0:3333003300332300
#0583b0:13330000
#058370:00000000005300002300000000000000
#058361:00130000
#058321:00000000005300000000330033000000
#059321:3333003300332300
#060321:13330000
#060361:00000000005300002300000000000000
#060370:00130000
#0603b0:00000000005300000000330023000000
#061360:0013000000000000
#061320:00000053000033000000330023000000
#0623b0:13330000
#062370:00000000005300002300000000000000
#062361:00130000
#062321:00000000005300000000330023000000
#063371:0013000000000000
#0633b1:00000053000033000000330023000000
#073341:14
#073321:00540000240000000000000000000000
#073361:0000000000000014
#0743a1:0024000000000000
#0753a1:0000000000000014
#076361:0054000000000000
#0763a1:0000002400000000
#076320:0000001400000000
#076360:00000000000000000000005400000000
#077320:24
#077320:0000000000140000
#077360:0000000000000024
#0773a1:0000000000000014
#078361:0024000000000000
#079321:0000000000000013
#080361:00000053000000000000000000000000
#080321:0023
#081321:1400000000540000340000000054000024000000000000000000000000000000
#081341:0054000034000000005400003400000000000000000000000000000000000000
#081360:0014
#0813a0:00000000000000000054340024000000
#081361:00000014
#081321:00000000000000000000000000543400
#082321:24
#082321:0000001400000000
#082351:0000000000230000
#0823a0:0000001400000000
#082380:0000000000230000
#0833a0:1400000000540000340000000054000024000000000000000000000000000000
#083380:0054000034000000005400003400000000000000000000000000000000000000
#083361:0014
#083321:00000000000000000054340024000000
#083360:00000014
#0833a0:00000000000000000000000000543400
#0843a0:24
#0843a0:0000001400002400
#084370:00000000000000000054000000000000
#084321:0000001400002400
#084351:000000000000000000000000000000000000000000000000000000000000000000000000000000000000000000000000000000000000000000000000000000000000000000000000000000000000000000000000000000000000000000000000000000000000000000000000000000000000000000000000000000000000000000000000000000000000000000000000000000000000000000000000000000000000000000000000000000000000000000000000000000000000000000000000000000000000000000000000000000000000000000000000000000000000000000000000000000000000000000000000000000000000000000000000000000000000000000000000000000000000000000000000000000000000000000000000000000000000000000000000000000000000000000000000000000000000000000000000000000000000000000000000000000000000000000000000000000000000000000000000000000000000000000000000000000000000000000000000000000000000000000000000000000000000000000000000000000000000000000000000000000000000000000000000000000000000000000000000000000000000000000000000000000000000000000000000000000000000000000000000000000000000000000000000000000000000000000000000000000000000000000000000000000000000000000000000000000000000000000000000000000000000000000000000000000000000000000000000000000000000000000000000000000000000000000000000000000000000000000000000000000000000000000000000000000000000000000000000000000000000000000000000000000000000000000000000000000000000000000000000000000000000000000000000000000000000000000000000000000000000000000000000000000000000000000000000000000000000000000000000000000000000000000000000000000000000000000000000000000000000000000000000000000000000000000000000000000000000000000000000000000000000000000000000000000000000000000000000000000000000000000000000000000000000000000000000000000000000000000000000000000000000000000000000000000000000000000000000000000000000000000000000000000000000000000000000000000000000000000000000000000000000000000000000000000000000000000000000000000000000000000000000000000000000000000000000000000000000000000000000000000000000000000000000000000000000000000000000000000000000000000000000000000000000000000000000000000000000000000000000000000000000000000000000000000000000000000000000000000000000000000000000000000000000000000000000000000000000000000000000005400000000000000000000000000000000000000000000000000000000000000000000000000000000000000000000000000000000000000000000000000000000000000000000000000000000000000000000000000000000000000000000000000000000000000000000000000000000000000000000000000000000000000000000000000000000000000000000000000000000000000000000000000000000000000000000000000000000000000000000000000000000000000000000000000000000000000000000000000000000000000000000000000000000000000000000000000000000000000000000000000000000000000000000000000000000000000000000000000000000000000000000000000000000000000000000000000000000000000000000000000000000000000000000000000000000000000000000000000000000000000000000000000000000000000000000000000000000000000000000000000000000000000000000000000000000000000000000000000000000000000000000000000000000000000000000000000000000000000000000000000000000000000000000000000000000000000000000000000000000000000000000000000000000000000000000000000000000000000000000000000000000000000000000000000000000000000000000000000000000000000000000000000000000000000000000000000000000000000000000000000000000000000000000000000000000000000000000000000000000000000000000000000000000000000000000000000000000000000000000000000000000000000000000000000000000000000000000000000000000000000000000000000000000000000000000000000000000000000000000000000000000000000000000000000000000000000000000000000000000000000000000000000000000000000000000000000000000000000000000000000000000000000000000000000000000000000000000000000000000000000000000000000000000000000000000000000000000000000000000000000000000000000000000000000000000000000000000000000000000000000000000000000000000000000000000000000000000000000000000
#085321:0000000000000014
#086361:0024000000000000
#0873b1:0000000000000013
#088381:00000023
#087320:0000000000000013
#088350:00000023
#0893a0:0000000000000014
#090360:0024000000000000
#0953a0:14340000
#095360:00000000005400002400000000000000
#095361:00130000
#095321:00000000005300000000330023000000
#096361:0014000000000000
#0963a1:00000054000034000000340024000000
#096371:0054
#097321:14340000
#097361:00000000005400002400000000000000
#097370:00130000
#0973b0:00000000005300000000330023000000
#098360:0014000000000000
#098320:00000054000034000000340024000000
#098350:0054
#0993a0:14340000
#099360:00000000005400002400000000000000
#099361:00130000
#099321:00000000005300000000330023000000
#100361:0014000000000000
#1003a1:00000054000034000000340024000000
#100371:0054
#102321:0000000000000016
#107321:22
#102380:0000000000000016
#1073c0:22
#031960:0013
#031920:00000023
#031971:00000013
#0329b1:23
