This file was generated by Ched 2.7.0.0.
#TITLE ""
#ARTIST ""
#DESIGNER ""
#DIFFICULTY 0
#PLAYLEVEL
#SONGID ""
#WAVE ""
#WAVEOFFSET 0
#JACKET ""
#REQUEST "ticks_per_beat 480"
#00002: 4
#BPM01: 196
#00008: 01
#TIL00: ""
#VOLUME: ""
#HISPEED 00
#MEASUREHS 00
#04612:0000001300000014
#04618:13130013
#04615:0013000000130000
#0461b:0013
#04610:41
#0541a:0000000000000014
#0541b:1313
#05415:0013000000130000
#05418:00130013
#05412:0000001300000014
#01618:0000130000000013
#01612:0000001300000000
#0161b:0013
#01615:1300000000130000
#01712:1300000000130000
#01718:0013000000001300
#01715:0000130000000013
#0171b:0000001300000000
#01812:0013
#01818:0000000000130000
#0181b:13
#01815:0000000000000013
#0191b:1300000000130000
#01915:0013000000001300
#01918:0000130000000013
#01912:0000001300000000
#0201b:0013
#02015:0000000000130000
#02018:0000130000000013
#02012:1300001300000000
#02010:41
#02112:1300000000130000
#02118:0013000000001300
#02115:0000130000000013
#0211b:0000001300000000
#0221b:1300000000000013
#02212:0000130000000013
#02218:0000001300130000
#02215:0013
#02412:1300000013000013
#0241b:0013001300000000
#02415:00130000
#02418:0000000000130000
#0251b:1300000000130000
#02515:0013000000001300
#02518:0000130000000013
#02512:0000001300000000
#02612:1300000013000013
#02615:00130000
#0261b:00130000
#02618:0000000000130000
#02718:1300000000000013
#02715:0013000000001300
#0271b:0000130000130000
#02712:0000001300000000
#02812:14
#0281a:0014
#02912:1300000000000013
#02918:0013000000001300
#02915:0000130000130000
#0291b:0000001300000000
#0301b:1313000000000013
#03015:0000131300000000
#03018:0013
#03012:0000000000130000
#03115:13
#03118:0000130000000033
#03112:0000001300000000
#0311b:0000000000130000
#0321b:0013
#03218:13
#03210:41
#03312:0013
#03315:13
#0341b:13
#03418:00333313
#03415:00000013
#03512:0000000000000013
#03618:1300000013000013
#03615:0013000000130000
#0361b:00130000
#03612:0000001300000000
#03712:00130013
#0371b:0013000000001300
#03715:13
#0381b:1313000000000000
#03818:0000001313001300
#03815:1313000000000000
#03812:0000001313000000
#03814:0000000000000024
#04012:1313
#04018:0013001300000013
#04015:00130000
#0401b:0000000000130000
#04115:0000001300000000
#04118:0000000013000013
#04112:0000000000130000
#04212:1313
#04218:0013000000130000
#04215:00130013
#0421b:0000001300000013
#04312:0000001300000000
#04318:0000001300000000
#04512:0000000000000013
#04518:0000001300000000
#04515:0013
#0451b:0000000000130000
#04715:00000014000000000000000000000000
#04918:00130000
#04915:0000001300000000
#04912:13
#05115:0013000000000000
#05118:00130000
#05112:0000001300000000
#0511b:13
#0521b:1300000000000013
#05215:0013000000001300
#05218:0000130000130000
#05212:0013
#0531b:0000001300000000
#05315:0013000013000000
#05318:0000000000130000
#05312:0000000000000013
#05514:00000000001400000000000000000000
#05518:00000000001400000000000000000000
#05512:00000024
#0551a:00000024
#05615:13
#0561b:0013
#05618:13
#0561f:11
#0571b:0013
#05718:13
#05812:0013
#05815:13
#05915:13
#05912:0013
#05916:0024
#06016:13
#0601a:24
#06412:13131313
#06416:24
#06518:13131313
#06512:24
#06614:13131313
#0661a:24
#0671b:13131313
#06716:24
#06818:0013000000000000
#06813:00130000
#06819:0000001300000000
#06815:00000013
#0681a:0000000000130000
#0681b:0000000000000013
#06812:23
#06814:0023
#0691b:0013000000000000
#06915:00130000
#0691a:0000001300000000
#06919:0000000000130000
#06913:00000013
#06918:0000000000000013
#06916:23
#06914:0023
#07412:0014000000000000
#0741a:0014000000000000
#07418:0000001300000000
#07415:0000000013000013
#0741b:0000000000130000
#07410:0041
#09415:1313
#09418:00130000
#0941a:00000024
#09412:00000024
#00018:0000000000140000
#00214:0000000000140000
#0041a:0000000000140000
#00618:14
#00614:14
#0081a:14
#00818:00140000
#00810:41
#00915:1300000000130000
#00918:0013001300001300
#01012:14
#01014:00140000
#01118:1300000000130000
#01115:0013001300001300
#01218:14
#0121a:00140000
#01312:14
#01318:0014001400000000
#01314:0000000000140000
#0131a:00000014
#01412:1434343434343400
#01416:00000000000000140000000000000000
#01518:0000000000000013
#0441b:1313
#04415:0013001300000013
#04418:00130000
#04412:0000000000130000
#04815:00000013
#04818:0000000000000013
#05015:0000000000130000
#05018:00000013
#05012:0000000000000013
#07318:14141400
#07314:0014001400140000
#07312:0000000000000024
#0731f:21
#0791a:0000000000000014
#07915:13130013
#07918:0013000000130000
#0791b:0000001300000000
#07912:0013
#08712:1300000013000014
#08718:0013000000130000
#08715:00130013
#0871a:0000000000000014
#0871b:0000001300000000
#0751b:1313
#07515:0013000000130000
#07518:00130013
#07512:0000001300000013
#0761b:0000001300000000
#07615:0000001300000000
#0781b:0000000000000013
#07815:0000001300000000
#07818:0013
#07812:0000000000130000
#08017:00000014000000000000000000000000
#08215:00130000
#08218:0000001300000000
#0821b:13
#08418:0013000000000000
#08415:00130000
#0841b:0000001300000000
#08412:13
#08512:1300000000000013
#08518:0013000000001300
#08515:0000130000130000
#0851b:0013
#08612:0000001300000000
#08618:0013000013000000
#08615:0000000000130000
#0861b:0000000000000013
#08818:00000000001400000000000000000000
#08814:00000000001400000000000000000000
#0881a:00000024
#08812:00000024
#07712:1313
#07718:0013001300000013
#07715:00130000
#0771b:0000000000130000
#08118:00000013
#08115:0000000000000013
#08318:0000000000130000
#08315:00000013
#0831b:0000000000000013
#0891b:1300000000000013
#08915:0013000000001300
#08918:0000130000130000
#08912:0013
#0901b:0000001300000000
#09015:0013000013000000
#09018:0000000000130000
#09012:0000000000000013
#0911b:13
#09115:0013000000000000
#09118:00240000
#09110:41
#09514:1400000000140000
#09518:00140000
#09912:0000000000140000
#09914:14
#09918:00140000
#10114:14
#10118:14
#09718:1400000000140000
#09714:00140000
#02318:0000000000000013
#03918:0024000023002600
#03914:0000002400000000
#03915:0000000000230000
#07012:24
#07014:00343434343434343434343434340000
#07118:0024000000240000
#07114:0000002400000000
#0711a:0000000000000024
#07112:0000000000000024
#0071a:0000002400000000
#00714:0023000000000000
#00719:0023000000000000
#00712:0000002400000000
#1021a:0024000000000024
#10212:0000000000240000
#10214:0000000000000024
#10216:0000002400000000
#06312:00000054
#06316:00000064
#10712:52
#10718:52
#04652:0000000000000064
#0545a:0000000000000054
#05452:0000000000000064
#07052:54
#07054:0000000000000014
#07154:0000001400000000
#07158:0014000000140000
#0715a:0000000000000014
#07152:0000000000000014
#0185b:53
#02252:0000000000000013
#0225b:0000000000000013
#02852:54
#02855:00140000
#0285a:0064
#02857:00000014
#0315b:0000000000530000
#03258:53
#0325b:0023
#03352:0023
#03355:63
#0345b:53
#03458:00000053
#03455:00000063
#04058:0000000000000053
#0405b:0000000000630000
#0425b:0000000000000053
#04358:0000005300000000
#04352:0000005300000000
#04755:00000024000000000000000000000000
#04752:0034
#04955:0000005300000000
#04952:0000000000130000
#05152:0000005300000000
#05155:00000013
#05554:00000000002400000000000000000000
#05558:00000000002400000000000000000000
#05552:00000034
#0555a:00000044
#0565b:0023
#05658:53
#0575b:0023
#05758:53
#05852:0023
#05855:63
#05955:63
#05952:0063
#05956:0054
#06056:53
#0605a:54
#07352:0000000000000014
#07354:0000000000540000
#09452:00000014
#0945a:00000014
#00058:0000000000540000
#00254:0000000000640000
#0045a:0000000000640000
#00654:54
#00658:54
#0075a:0000005400000000
#00758:00000014
#00752:0000006400000000
#00754:00000014
#0085a:54000014
#00858:00540000
#01052:64000014
#01054:00640000
#01258:64000014
#0125a:00640000
#01452:5400000000000034
#01456:00000000000000240000000000000000
#02052:13
#0175b:0000001300000000
#0215b:0000001300000000
#02552:0000001300000000
#03752:00530000
#03854:0000000000000014
#03958:0014000000001600
#03954:0000001400000000
#0415b:0013000000000000
#04455:0000000000000063
#04452:0000000000530000
#04552:0013000000000000
#0795a:0000000000000054
#08752:0000000000000064
#0875a:0000000000000054
#07552:0000000000000063
#0765b:0000006300000000
#07655:0000006300000000
#08057:00000024000000000000000000000000
#0805a:0044
#08258:0000006300000000
#0825b:0000000000130000
#0845b:0000006300000000
#08458:00000013
#08858:00000000002400000000000000000000
#08854:00000000002400000000000000000000
#0885a:00000044
#08852:00000034
#07758:0000000000000053
#0775b:0000000000630000
#0785b:0013000000000000
#09158:00540000
#09554:0000000000640000
#09952:0000000000540000
#10154:64
#10158:64
#1025a:0000000000000054
#10254:0000000000000054
#09652:0000000000140000
#09758:0000000000540000
#0985a:0000000000140000
#000380:1400340000340000
#0013a0:3434003400240000
#002340:1400340000340000
#003320:3434003400240000
#0043a0:1400340000340000
#005380:3434003400340034
#006380:34
#0063a0:0000000000000024
#006341:14
#006321:0000000000000024
#0073a1:0000001400000000
#007381:0000000034342400
#007320:0000001400000000
#007340:0000000034342400
#0083a0:1400005400342400
#008380:0054340000000000
#010320:1400005400342400
#010340:0054340000000000
#012380:1400005400342400
#0123a0:0054340000000000
#014320:1434343434343424
#014360:00000000000000540000000000000000
#0183b0:13
#018380:00230000
#028320:14
#028350:00240000
#0283a0:0014
#028370:00000024
#0313b0:0000000000130000
#031380:0000000000000033
#032380:33
#0323b0:0053
#033380:23
#033351:13
#033321:0053
#034351:23
#0343b0:13
#034380:00333333
#0353b0:0023
#034351:00000013
#035321:0023
#037321:00130000
#037351:0023
#0403b1:0000000000130000
#040381:0000000000000033
#0413b1:0023000000000000
#0423b1:0000000000000013
#043381:0000003300000000
#0433b1:00000023
#043320:0000001300000000
#043350:00000023
#044320:0000000000130000
#044350:0000000000000033
#045320:0023000000000000
#046320:0000000000000014
#047350:00000054000000000000000000000000
#047320:0024
#0483a0:14342400
#048380:0034003400000000
#049350:0000001300000000
#049320:0000000000230000
#050380:14342400
#0503a0:0034003400000000
#051320:0000001300000000
#051350:00000023
#0543a0:0000000000000014
#055380:00000000005400000000000000000000
#0553a0:00000024
#054321:0000000000000014
#055341:00000000005400000000000000000000
#055321:00000024
#056381:13
#0563b1:0053
#057381:53
#0573b1:0053
#058381:23
#058350:13
#058320:0053
#059350:53
#059320:0033
#060360:33
#063320:00000024
#059361:0014
#0603a1:34
#063361:00000024
#070321:14
#070341:00343434343434343434343434342400
#073341:0000000000140000
#073321:0000000000000024
#075321:0000000000000013
#076351:0000003300000000
#076321:00000023
#0763b0:0000001300000000
#076380:00000023
#0773b0:0000000000130000
#077380:0000000000000033
#0783b0:0023000000000000
#0793a0:0000000000000014
#080370:00000054000000000000000000000000
#0803a0:0024
#081320:14342400
#081340:0034003400000000
#082380:0000001300000000
#0823b0:0000000000230000
#083340:14342400
#083320:0034003400000000
#0843b0:0000001300000000
#084380:00000023
#087320:0000000000000014
#088340:00000000005400000000000000000000
#088320:00000024
#0873a1:0000000000000014
#088381:00000000005400000000000000000000
#0883a1:00000024
#091381:00140000
#0913a1:0000000000000024
#095341:0000000000140000
#096321:3434003400240000
#097381:0000000000140000
#0983a1:3434003400240000
#099321:0000000000140000
#100341:3434003400340034
#101341:34
#101321:0000000000000024
#101380:14
#1013a0:0000000000000024
#102340:0000000000000014
#107320:22
#1023a1:0000000000000014
#107381:22
