This file was generated by Ched 2.7.0.0.
#TITLE ""
#ARTIST ""
#DESIGNER ""
#DIFFICULTY 0
#PLAYLEVEL
#SONGID ""
#WAVE ""
#WAVEOFFSET 0
#JACKET ""
#REQUEST "ticks_per_beat 480"
#00002: 4
#BPM01: 196
#00008: 01
#TIL00: ""
#VOLUME: ""
#HISPEED 00
#MEASUREHS 00
#00914:14
#00918:0014
#01114:14
#0111a:0014
#0161a:14
#01612:0014
#01718:1414
#01714:00140000
#0201a:14
#02014:0014
#02010:41
#02118:1414
#02112:00140000
#0561a:14
#0561f:11
#06412:1414
#00812:14
#00818:0014
#00810:41
#01012:14
#0101a:0014
#01314:14
#01318:0014
#01212:14
#01218:0014
#01414:14
#01812:14
#0181a:0014
#01914:1414
#01918:00140000
#02214:14
#0241a:1414
#02414:00140000
#02512:1414
#02518:00140000
#0261a:1414
#02614:00140000
#02712:1414
#02718:00140000
#02918:1414
#02914:00140000
#03012:1414
#0301a:00140000
#0361a:1414
#03614:00140014
#03718:1414
#03712:00140014
#0381a:1414
#03814:00140000
#0401a:14
#04012:00140000
#04018:0014
#04014:00000014
#04212:14
#04218:00140000
#04214:0014
#0421a:00000014
#05212:14
#05218:00140000
#05214:0014
#0521a:00000014
#0541a:14
#05414:0000140000001434
#05418:0014
#05814:14
#06514:1414
#06616:1414
#06718:1414
#0681a:14
#06812:00140000
#06819:0014
#06813:00000014
#06918:1414
#06914:00140014
#07418:0014
#07410:0041
#07512:14
#07518:00140000
#07514:0014
#0751a:00000014
#0771a:14
#07714:00140000
#07718:0014
#07712:00000014
#09414:1414
#09418:00140026
#0411a:14
#03914:0000001400000000
#03912:00000024
#04412:14
#0441a:00140000
#04414:0014
#04418:00000014
#04512:14
#0461a:14
#04612:00140000
#04618:0014
#04614:00000014
#04610:41
#0471a:14
#04712:00140000
#04718:0014
#05314:14
#05318:00140000
#05312:0014
#0601a:14
#07612:14
#0791a:14
#07914:00140000
#07918:0014
#07912:00000014
#0801a:14
#08512:14
#08518:00140000
#08514:0014
#0851a:00000014
#0871a:14
#08714:0000140000001434
#08718:0014
#08614:14
#08618:00140000
#08612:0014
#0891a:14
#08914:00140000
#08918:0014
#08912:00000014
#09114:14
#09118:00140000
#09110:41
#09018:14
#09014:00140000
#0901a:0014
#00418:24
#05918:0024
#07018:24
#07314:24
#0731f:21
#1011a:24
#04813:00340034
#04913:00340000
#05019:00340034
#05119:00340000
#08113:00340034
#08213:00340000
#08319:00340034
#08419:00340000
#03210:41
#1071b:53
#00458:54
#01454:54
#01452:0000000000000014
#02254:64
#02252:0000000000000014
#03952:00000014
#03954:0000005400000000
#0565a:54
#05854:54
#07058:54
#09458:00000016
#0415a:54
#04552:64
#05454:00000054
#0605a:54
#07352:0000000000000014
#07354:54
#07652:54
#0805a:64
#08754:00000054
#09158:00540000
#1015a:54
#0075a:0000001400000000
#000380:14
#001380:24
#002340:14
#003340:24
#004380:14
#0063a0:0000000000000034
#0073a0:0034002400000000
#014340:14
#014320:0000000000000024
#022340:14
#022320:0000000000000024
#0283a0:14240000
#028320:00001424
#0313a0:14
#031380:0034
#0323a0:34
#032380:0024
#033340:14
#033320:0024
#034380:14
#0343a0:0024
#035320:14
#035340:0024
#038340:0000000000001434
#039340:0034003400000000
#039320:00000024
#0413a0:14
#041380:0024
#043320:14240000
#043380:00001424
#045320:14
#045340:0024
#048320:14
#048330:00340034
#048350:0034
#049320:34
#049330:00340000
#049350:0024
#0503a0:14
#050390:00340034
#050370:0034
#0513a0:34
#051390:00340000
#051370:0024
#054340:0000000000001434
#055320:00000024
#0563a0:14
#057380:24
#058340:14
#059320:24
#059380:0014
#0603a0:34
#063370:0024
#070380:14
#0703a0:0000000000000034
#0713a0:0034003400340024
#073340:14
#073320:0000000034340024
#076320:14
#076340:0024
#0783a0:14240000
#078340:00001424
#0803a0:14
#080380:0024
#081320:14
#081330:00340034
#081350:0034
#082320:34
#082330:00340000
#082350:0024
#0833a0:14
#083390:00340034
#083370:0034
#0843a0:34
#084390:00340000
#084370:0024
#087340:0000000000001434
#088320:00000024
#091380:00140000
#0913a0:0000000000000024
#095320:14
#095340:0034
#096320:34
#096340:0024
#0973a0:14
#097380:0034
#0983a0:34
#098380:0024
#099340:14
#099320:0034
#100340:34
#100320:0024
#1013a0:14
#101380:0000000000000034
#102380:0034003400340034
#1073b0:23
