This file was generated by Ched 2.7.0.0.
#TITLE ""
#ARTIST ""
#DESIGNER ""
#DIFFICULTY 0
#PLAYLEVEL
#SONGID ""
#WAVE ""
#WAVEOFFSET 0
#JACKET ""
#REQUEST "ticks_per_beat 480"
#00002: 4
#BPM01: 185
#00008: 01
#TIL00: "97'960:1, 97'959:10000"
#VOLUME: ""
#HISPEED 00
#MEASUREHS 00
#0051a:14
#00510:41
#0061a:14
#00712:14
#00812:14
#00918:14
#01018:14
#01114:14
#01214:14
#01514:14
#0181a:14
#01614:14
#0171a:14
#01912:14
#02012:14
#0211a:14
#02114:0014
#0221a:14
#02312:14
#02318:0014
#02412:14
#02518:14
#02514:0014
#02618:14
#0291a:1414
#02910:41
#0301a:14
#03114:1414
#03214:14
#03318:1414
#03418:14
#03512:1414
#03612:14
#04518:14
#04514:0014
#04812:14
#04918:14
#05014:14
#05212:14
#0521f:11
#05312:14
#05418:14
#05518:14
#05614:14
#05714:14
#0581a:14
#06018:0016
#06012:26
#0601f:21
#06112:16
#06118:0016
#06110:41
#06418:16
#06412:0016
#06518:16
#06512:0016
#06212:1616
#06618:1616
#06812:1616
#06918:1616
#07212:16
#07218:0016
#07312:16
#07318:0016
#07618:14
#07614:0014
#07610:41
#0771a:14
#07814:14
#07818:0014
#07912:14
#0801a:14
#08014:0014
#08118:14
#08212:14
#08218:0014
#08314:14
#01318:26
#0461a:24
#03710:41
#08410:41
#013380:16
#014380:26
#027320:16
#028330:0024
#0373a0:14
#0383a0:24
#039340:14
#040340:24
#041380:14
#042380:24
#043320:14
#044320:24
#0463a0:14
#0473a0:24
#051380:16
#051390:0024
#0593a0:1424
#063320:1626
#067380:1626
#070320:1626
#071380:1626
#074320:16
#075320:26
#0843a0:14
#0853a0:24
#086320:14
#087320:24
#088380:14
#089380:24
#090340:14
#091340:24
#0979d0:000000000000000000000000000000000000000000000000000000000000000000000000000000000000000000000000000000000000000000000000000000000000000000000000000000000000000000000000000000000000000000000000000000000000000000000000000000000000000000000000000000000000000000000000000000000000000000000000000000000000000000000000000000000000000000000000000000000000000000000000000000000000000000000000000000000000000000000000000000000000000000000000000000000000000000000000000000000000000000000000000000000000000000000000000000000000000000000000000000000000000000000000000000000000000000000000000000000000000000000000000000000000000000000000000000000000000000000000000000000000000000000000000000000000000000000000000000000000000000000000000000000000000000000000000000000000000000000000000000000000000000000000000000000000000000000000000000000000000000000000000000000000000000000000000000000000000000000000000000000000000000000000000000000000000000000000000000000000000000000000000000000000000000000000000000000000000000000000000000000000000000000000000000000000000000000000000000000000000000000000000000000000000000000000000000000000000000000000000000000000000000000000000000000000000000000000000000000000000000000000000000000000000000000000000000000000000000000000000000000000000000000000000000000000000000000000000000000000000000000000000000000000000000000000000000000000000000000000000000000000000000000000000000000000000000000000000000000000000000000000000000000000000000000000000000000000000000000000000000000000000000000000000000000000000000000000000000000000000000000000000000000000000000000000000000000000000000000000000000000000000000000000000000000000000000000000000000000000000000000000000000000000000000000000000000000000000000000000000000000000000000000000000000000000000000000000000000000000000000000000000000000000000000000000000000000000000000000000000000000000000000000000000000000000000000000000000000000000000000000000112100000000000000000000000000000000000000000000000000000000000000000000000000000000000000000000000000000000000000000000000000000000000000000000000000000000000000000000000000000000000000000000000000000000000000000000000000000000000000000000000000000000000000000000000000000000000000000000000000000000000000000000000000000000000000000000000000000000000000000000000000000000000000000000000000000000000000000000000000000000000000000000000000000000000000000000000000000000000000000000000000000000000000000000000000000000000000000000000000000000000000000000000000000000000000000000000000000000000000000000000000000000000000000000000000000000000000000000000000000000000000000000000000000000000000000000000000000000000000000000000000000000000000000000000000000000000000000000000000000000000000000000000000000000000000000000000000000000000000000000000000000000000000000000000000000000000000000000000000000000000000000000000000000000000000000000000000000000000000000000000000000000000000000000000000000000000000000000000000000000000000000000000000000000000000000000000000000000000000000000000000000000000000000000000000000000000000000000000000000000000000000000000000000000000000000000000000000000000000000000000000000000000000000000000000000000000000000000000000000000000000000000000000000000000000000000000000000000000000000000000000000000000000000000000000000000000000000000000000000000000000000000000000000000000000000000000000000000000000000000000000000000000000000000000000000000000000000000000000000000000000000000000000000000000000000000000000000000000000000000000000000000000000000000000000000000000000000000000000000000000000000000000000000000000000000000000000000000000000000000000000000000000000000000000000000000000000000000000000000000000000000000000000000000000000000000000000000000000000000000000000000000000000000000000000000000000000000000000000000000000000000000000000000000000000000000000000000000000000000000
