This file was generated by Ched 2.7.0.0.
#TITLE ""
#ARTIST ""
#DESIGNER ""
#DIFFICULTY 0
#PLAYLEVEL
#SONGID ""
#WAVE ""
#WAVEOFFSET 0
#JACKET ""
#REQUEST "ticks_per_beat 480"
#00002: 4
#BPM01: 185
#00008: 01
#TIL00: "97'960:1, 97'959:10000"
#VOLUME: ""
#HISPEED 00
#MEASUREHS 00
#00512:14
#00518:0014
#00510:41
#00614:14
#0061a:0014
#00912:14
#00918:0014
#01014:14
#0101a:0014
#0151a:14
#01514:0014
#01618:14
#01612:0014
#0171a:1414
#01814:1414
#01918:1414
#02012:1414
#0211a:14
#02114:0014
#0221a:14
#02214:0014
#02318:14
#02312:0014
#02418:14
#02412:0014
#02518:0014
#0251a:14
#02614:14
#02612:0014
#03014:1414
#03018:00140000
#0291a:0014
#02912:24
#02910:41
#0311a:14
#03112:0014
#03218:1414
#03214:00140000
#03312:14
#0331a:0014
#03414:14
#03418:00140000
#03412:0014
#0351a:14
#03512:0014
#03618:14
#03614:00140000
#0361a:0014
#03612:00000014
#03718:1414
#03710:41
#03914:1414
#0411a:1414
#04312:1414
#0471a:1414
#04812:1414
#04918:14
#04914:0014
#05018:14
#05014:0014
#05212:14
#05218:0014
#0521f:11
#05312:14141400
#0541a:14
#05414:0014
#0551a:14141400
#05614:14
#05618:0014
#05712:14141400
#05818:14
#05814:0014
#06018:00140000
#06014:0014
#0601a:00000014
#06012:24
#0601f:21
#06114:14
#06118:00140000
#06112:0014
#06110:41
#0621a:14
#06214:00140000
#06218:0014
#06212:00000014
#06318:14
#06314:00140000
#0631a:0014
#06412:14
#06418:00140000
#06414:0014
#0641a:00000014
#06512:14
#06518:00140000
#06514:0014
#0651a:00000014
#06612:14140000
#06618:00001414
#06714:14140000
#0671a:0014
#06818:00140000
#06814:0014
#0681a:00000014
#06812:24
#06916:14
#06912:00140000
#06918:0014
#06914:00000014
#07014:00140000
#07018:0014
#07012:00000014
#0701a:24
#07116:14
#0711a:00140000
#07114:0014
#07118:00000014
#07319:0014
#07313:00000014
#07612:14140000
#07618:0014
#07614:00000014
#07610:41
#0771a:14
#07716:00140000
#07712:0014
#0781a:14140000
#07814:0014
#07818:00000014
#07912:14
#07916:00140000
#0791a:0014
#08014:14140000
#0801a:0014
#08016:00000014
#08112:14
#08118:00140000
#08114:0014
#08218:14140000
#08212:0014
#08216:00000014
#0831a:14
#08314:00140000
#08318:0014
#01314:24
#04614:24
#07518:00000026
#07519:00340000
#02718:26
#0271a:00343434
#05118:26
#0281a:34340000
#08410:41
#0285a:00000014
#0515a:00000014
#06152:0014
#0635a:0014
#0675a:0014
#07252:00140000
#0725a:00000014
#07353:00140000
#07558:00000016
#07752:0014
#0795a:0014
#08154:0014
#08358:0014
#0915a:00000014
#007320:1424
#0083a0:1424
#011320:1424
#0123a0:1424
#013340:14
#014340:24
#027380:16
#0273a0:00343434
#0283a0:34343424
#038380:1424
#040340:1424
#0423a0:1424
#044320:1424
#045380:1424
#046340:1424
#051380:16
#051390:00350000
#0513a0:00003424
#0593a0:14343424
#072320:14240000
#0723a0:00001424
#073330:14240000
#074390:14
#075390:34340000
#075380:00003626
#084320:14340000
#084340:00000034
#085320:00340000
#085340:00000024
#0863a0:14340000
#086380:00000034
#0873a0:00340000
#087380:00000024
#088340:14340000
#088320:00000034
#089340:00340000
#089320:00000024
#090380:14340000
#0903a0:00000034
#091380:00340000
#0913a0:00000024
#0979d0:000000000000000000000000000000000000000000000000000000000000000000000000000000000000000000000000000000000000000000000000000000000000000000000000000000000000000000000000000000000000000000000000000000000000000000000000000000000000000000000000000000000000000000000000000000000000000000000000000000000000000000000000000000000000000000000000000000000000000000000000000000000000000000000000000000000000000000000000000000000000000000000000000000000000000000000000000000000000000000000000000000000000000000000000000000000000000000000000000000000000000000000000000000000000000000000000000000000000000000000000000000000000000000000000000000000000000000000000000000000000000000000000000000000000000000000000000000000000000000000000000000000000000000000000000000000000000000000000000000000000000000000000000000000000000000000000000000000000000000000000000000000000000000000000000000000000000000000000000000000000000000000000000000000000000000000000000000000000000000000000000000000000000000000000000000000000000000000000000000000000000000000000000000000000000000000000000000000000000000000000000000000000000000000000000000000000000000000000000000000000000000000000000000000000000000000000000000000000000000000000000000000000000000000000000000000000000000000000000000000000000000000000000000000000000000000000000000000000000000000000000000000000000000000000000000000000000000000000000000000000000000000000000000000000000000000000000000000000000000000000000000000000000000000000000000000000000000000000000000000000000000000000000000000000000000000000000000000000000000000000000000000000000000000000000000000000000000000000000000000000000000000000000000000000000000000000000000000000000000000000000000000000000000000000000000000000000000000000000000000000000000000000000000000000000000000000000000000000000000000000000000000000000000000000000000000000000000000000000000000000000000000000000000000000000000000000000000000000000000000000112100000000000000000000000000000000000000000000000000000000000000000000000000000000000000000000000000000000000000000000000000000000000000000000000000000000000000000000000000000000000000000000000000000000000000000000000000000000000000000000000000000000000000000000000000000000000000000000000000000000000000000000000000000000000000000000000000000000000000000000000000000000000000000000000000000000000000000000000000000000000000000000000000000000000000000000000000000000000000000000000000000000000000000000000000000000000000000000000000000000000000000000000000000000000000000000000000000000000000000000000000000000000000000000000000000000000000000000000000000000000000000000000000000000000000000000000000000000000000000000000000000000000000000000000000000000000000000000000000000000000000000000000000000000000000000000000000000000000000000000000000000000000000000000000000000000000000000000000000000000000000000000000000000000000000000000000000000000000000000000000000000000000000000000000000000000000000000000000000000000000000000000000000000000000000000000000000000000000000000000000000000000000000000000000000000000000000000000000000000000000000000000000000000000000000000000000000000000000000000000000000000000000000000000000000000000000000000000000000000000000000000000000000000000000000000000000000000000000000000000000000000000000000000000000000000000000000000000000000000000000000000000000000000000000000000000000000000000000000000000000000000000000000000000000000000000000000000000000000000000000000000000000000000000000000000000000000000000000000000000000000000000000000000000000000000000000000000000000000000000000000000000000000000000000000000000000000000000000000000000000000000000000000000000000000000000000000000000000000000000000000000000000000000000000000000000000000000000000000000000000000000000000000000000000000000000000000000000000000000000000000000000000000000000000000000000000000000000000000000000
