This file was generated by Ched 2.7.0.0.
#TITLE ""
#ARTIST ""
#DESIGNER ""
#DIFFICULTY 0
#PLAYLEVEL
#SONGID ""
#WAVE ""
#WAVEOFFSET 0
#JACKET ""
#REQUEST "ticks_per_beat 480"
#00002: 4
#BPM01: 200
#00008: 01
#TIL00: ""
#VOLUME: ""
#HISPEED 00
#MEASUREHS 00
#01018:14
#01014:0014
#01010:41
#01214:14
#01218:0014
#01314:14
#01418:14
#01414:0014
#01118:14
#01518:14
#01614:14
#01618:0014
#01714:14
#00218:14
#00314:14
#00618:14
#00714:14
#01818:14
#01814:0014
#02014:14
#02018:0014
#02010:41
#02218:14
#02214:0014
#02414:14
#02418:0014
#04218:16
#04210:41
#04312:16
#04418:16
#04512:16
#04618:16
#04612:0016
#0461f:11
#04812:16
#04818:0016
#04912:16
#04718:16
#06112:1616
#0611f:21
#06212:16
#06218:0026
#06210:41
#06312:1616
#06412:16
#06418:0026
#06512:16
#06518:0026
#06612:16
#06618:0026
#06712:16
#06718:0026
#06812:16
#06918:1616
#07018:16
#07012:0026
#07118:1616
#07218:16
#07212:0026
#07318:16
#07312:0026
#07418:16
#07412:0026
#07518:16
#07512:0026
#07618:16
#07712:1616
#07710:41
#07812:16
#07818:0026
#07912:1616
#08012:16
#08018:0026
#08112:16
#08118:0026
#08212:16
#08218:0026
#08312:16
#08318:0026
#08412:16
#08518:14
#08514:0014
#08714:14
#08718:0014
#08814:14
#08818:0014
#08914:14
#08918:0014
#09118:14
#09114:0014
#09218:14
#09214:0014
#0041a:24
#00512:24
#0081a:24
#00912:24
#0191a:24
#02112:24
#0231a:24
#02512:24
#0261a:24
#02712:24
#0281a:24
#02912:24
#0301a:24
#03010:41
#03112:24
#0321a:24
#03212:0024
#0331a:24
#03312:0024
#05018:26
#05112:26
#05218:26
#05312:26
#05518:26
#05612:26
#05718:26
#0861a:24
#09012:24
#0931a:24
#034380:16
#035380:26
#036320:16
#037320:26
#038380:16
#039380:26
#040320:16
#041320:26
#053320:16
#054320:26
#057380:16
#058380:26
