This file was generated by Ched 2.7.0.0.
#TITLE ""
#ARTIST ""
#DESIGNER ""
#DIFFICULTY 0
#PLAYLEVEL
#SONGID ""
#WAVE ""
#WAVEOFFSET 0
#JACKET ""
#REQUEST "ticks_per_beat 480"
#00002: 4
#BPM01: 200
#00008: 01
#TIL00: "58'0:10000, 60'0:1"
#VOLUME: ""
#HISPEED 00
#MEASUREHS 00
#00615:12121212
#00619:12121212
#01015:1300000000230000
#01012:00001323
#01018:0013002300000013
#0101b:00231313
#01010:41
#0111b:13230013
#01112:13001313
#01118:00000000000000000000001300000000
#01115:0000000000130000
#01114:0013000000000000
#01116:00130000
#01117:0013
#01119:0000002300000000
#02617:12
#0261a:00120012
#02618:0012
#02616:0000000000120000
#02614:00120012
#02714:1200001200001200
#02718:0012000000120000
#02716:00000012000000001200000000000000
#0271a:00120012
#0351a:1414141414141400
#03516:0000130000001314
#03512:0013
#0421a:14
#04212:1414
#04214:00140014
#04216:0000000000000014
#04213:0014001400140000
#0421b:00130013
#04217:0013
#04210:41
#05015:0016
#05018:2626262600262600
#06119:1300000013130000
#06114:1300000013130000
#06112:00240024
#0611a:00240024
#0611f:21
#06214:1300000000130000
#0621a:00001313000014000000000000000000
#06213:00000000000000000000000013130000
#06219:1300000000130000
#06212:0000001400000000
#06216:0000240024000024
#06210:41
#06319:00130000
#06314:00130000
#0631a:2414
#06312:2424
#06316:0000000000240024
#0641a:00140024
#06415:00000000001300130000000000000000
#06418:0000002313000000
#06419:0000000000130000
#06414:0000000000130000
#06416:0024000000000000
#06412:00000024
#06519:13
#06515:0013
#06518:0000000000130000
#06516:0000000000000013
#06514:13
#06512:00240024
#0651a:00240024
#06618:0000000013130000
#06615:00000000000000000013000000000000
#06616:0000001300000014
#06617:0013000000000000
#0661a:24240024
#06612:24240024
#06715:00130000
#06716:0000002400140014
#06712:24002424
#0671a:24002424
#06718:00002323000000000000000000000000
#06812:1300000000240024
#06813:0013000000000000
#06815:0000001300000000
#06816:0013
#06817:00000013
#0681b:13
#0681a:00000023000000000000240000002400
#06814:00230000
#06819:00000000002300000000000000000000
#06818:00000000000000230000000000000000
#08515:1200000012120000
#08519:1200000012120000
#0851a:00220022
#08514:00220022
#08616:00000012000000000000000012000000
#08618:00001200000000000000000000120000
#08617:0000001200120000
#08615:12
#08619:12
#08614:0000220022000022
#0861a:0000220022000022
#08715:00120000
#08719:00120012
#0871b:2300000023230023
#08712:2300000023230023
#08818:00121200
#08816:00000000001200120000120000000000
#08815:12
#08812:0023000000002300
#08819:0000002300000000
#0881b:0023000000002300
#08916:0000000000000014
#08915:1200000012120000
#08919:1200000012120000
#0891a:00220022
#08914:00220022
#09016:0014001412120014
#09018:00000000000000000012000000000000
#09014:22220022
#0901a:22220022
#09119:00120000
#09115:00000023000000000000120000000000
#09118:0023000000000012
#0911b:2300002323002300
#09112:2300002323002300
#09216:12
#09218:0012001200000000
#0921a:0000000012240024
#09219:00000013
#09214:00000013
#09215:00000023000000230000000000000000
#0921b:00230000
#09212:00000000002300000000240000002400
#09319:13
#09314:13
#00116:1454545454545454000000000000000000000000000000000000000000000000
#00115:0000000000000000565656565656565656565656565656560000000000000000
#00114:0000000000000000000000000000000000000000000000005858585858585858
#00715:12120000
#00719:12120000
#0071b:00002323
#00712:00002323
#00815:12121212
#00819:12121212
#00915:12120000
#00919:12120000
#00912:00002323
#0091b:00002323
#01816:0014002400240014
#01819:1313
#01814:1313
#01812:00130013
#0181b:00230023
#0191a:0000000013141400
#0191b:0013000000000000
#01919:13
#01914:13231300
#01912:0013000000001400
#01916:00000000000000000000001400000000
#01917:0000002300000000
#03019:12
#0301b:00120012
#03018:0012
#03017:0000000000120000
#03013:00120012
#03015:12
#03010:41
#03116:12000012000000000000000000000000
#03118:0012120000000000
#03113:0000001200000000
#03115:00001212
#03117:0000000000120000
#03119:00000012
#0311b:0000001200000000
#03316:0012120000000000
#03318:12000012000000000000000000000000
#0331b:0000001200000000
#03319:0012
#03317:0000000000120000
#03313:0000001200000000
#03312:00000024
#0331a:00000024
#03412:0000141414141400
#03417:00130013
#0341b:0013
#03416:0000000000000014
#0371a:14
#03719:0014000000000000
#03718:00140000
#03717:0000001400000000
#03716:0014
#03715:0000000000140000
#03714:00000014
#03713:0000000000000014
#03712:14
#03612:1414141414141414
#03617:00130013
#0361b:0013
#0381a:2414141414141400
#03816:0000130000001314
#03812:2413
#03912:2414141414141400
#03917:00130013
#0391b:0013
#03916:0000000000000014
#0401a:2414141414141414
#04016:00130013
#04012:0013
#04113:0014000000000000
#04114:00140000
#04115:0000001400000000
#04116:0014
#04117:0000000000140000
#04118:00000014
#04119:0000000000000014
#0411a:24000000000000130000000000000000
#04112:24
#0431a:1414
#04318:00140014
#04316:0000000013000014
#04319:0014001400140000
#04312:00130013
#04413:0014001400140014
#04412:1414
#04414:00140014
#0441b:00130013
#04417:0013
#0451a:14
#04519:0015000000000000
#04518:00160000
#04517:0000001700000000
#04516:0018
#04515:0000000000190000
#04514:0000001a
#04513:000000000000001b
#04512:14
#04616:0000140000140014
#04612:26001414
#0461a:24141414
#04618:0014000000000000
#04614:0000001400000000
#0461f:11
#04712:14141414
#04716:0000140000140014
#04714:0014000000000000
#0471a:00001414
#04718:2600001400000000
#0481a:14141414
#04818:0014000000000000
#04816:0000140000140014
#04812:26001414
#04814:0000001400000000
#05115:0015
#05112:2525252500252500
#05217:0000000014000014
#0521a:2424242400242400
#05416:0015
#05419:2525252500252500
#05412:53
#05515:0014
#05512:2424242400242400
#05618:0000000013000013
#0561b:2323232300232300
#0571b:13
#05716:00130000
#05719:00531300
#05714:00005313
#0571a:0053000000000000
#05715:0000005300000000
#05718:0000000000530000
#05717:00000053
#05713:0000000000000053
#0531b:13
#05316:00130000
#05319:00531300
#05314:00005313
#0531a:0053000000000000
#05315:0000005300000000
#05318:0000000000530000
#05317:00000053
#05313:0000000000000053
#01415:1313
#01418:0013002300000000
#0141a:0013
#01419:00000013
#01416:0000000000000013
#0141b:00230000
#01414:00000023
#01417:0000000000230000
#01518:13000000000000001300001300000000
#01513:1313000013000000
#01512:00000013
#01515:0000130000130000
#0151b:00000013
#0151a:0000232300000000
#01618:1313
#01615:0013002300000000
#01613:0013
#01614:00000013
#01617:0000000000000013
#01612:00230000
#01619:00000023
#01616:0000000000230000
#01715:13000000000000001300001300000000
#0171a:1313000013000000
#0171b:00000013
#01718:0000130000130000
#01712:00000013
#01713:0000232300000000
#01218:1300000000230000
#0121b:00001323
#01215:0013002300000013
#01212:00231313
#01312:13230013
#0131b:13001313
#01315:00000000000000000000001300000000
#01318:0000000000130000
#01319:0013000000000000
#01317:00130000
#01316:0013
#01314:0000002300000000
#02016:0014002400240014
#02014:1313
#02019:1313
#0201b:00130013
#02012:00230023
#02010:41
#02112:0013000000141400
#02113:0013
#02114:13
#02119:13231300
#0211b:0013000000000000
#02116:00000000000023000000001400000000
#0211a:00000014
#02216:0014002400240014
#02219:13231300
#02214:13001313
#02212:0000130000130000
#0221b:0013000000002300
#0231a:00000014
#02316:00000000000000000000141400000000
#02319:13131300
#0231b:0013000000000000
#02314:13231300
#02312:0013000000001400
#02315:0000001300000000
#02318:0000002300000000
#02416:0014002400240014
#02414:13231300
#02419:13001313
#0241b:0000130000130000
#02412:0013000000002300
#02512:0013000000001400
#02516:00000000000000000000141400000000
#02514:13131300
#02519:13231300
#0251b:0013000000000000
#0251a:00000014
#02518:0000001300000000
#02515:0000002300000000
#04912:2415161718191a1b
#0491a:00000000000000130000000000000000
#04918:26
#07019:1300000000130000
#07013:00001313000000000000000000000000
#0701a:00000000000014000000000013130000
#07014:1300000000130000
#07012:0000001400000000
#07015:0000260026000026
#07114:00130000
#07119:00130000
#07112:2400000014280000
#0711a:2424
#07116:0000000000000028
#07212:0028140000002400
#07218:00000000001300130000000000000000
#07215:0000002313000000
#07214:0000000000130000
#07219:0000000000130000
#0721a:00000024
#07318:1313
#07315:1300000000130000
#07314:0000000000000016
#0731a:00240024
#07312:00240024
#07415:0016000013130016
#07418:00000000000000000013000000000000
#07416:0000001600000000
#07412:24240024
#0741a:24240024
#07515:00002323160000000000000000000000
#07516:0000002400140014
#0751a:24002424
#07512:24002424
#0761b:13
#0761a:0014000000240024
#07618:0000001600000000
#07617:0017
#07616:00000014
#07612:13000024002500260000240000002400
#07619:00250000
#06918:1313
#06915:1300000013130000
#0691a:00240024
#06912:00240024
#07814:13
#07818:00001313000000000000000000000000
#07812:00002c142c14002c
#07815:00000000000000000000000013130000
#07819:13
#0781a:0000001400140000
#07919:00130000
#07914:00130000
#0791a:2414
#07912:24000000002c002c
#07915:0024
#08017:00140000
#08012:00002c00001300000000000025000000
#08018:00000000000000130000000000000000
#0801b:0013
#08019:0000000000132500
#08014:0000000000130000
#08015:0000002300000000
#08115:0013
#08118:0000000000130000
#08112:000025000000001c
#08119:13250000
#08114:13
#08116:0014000000002400
#0811a:00000024
#08218:0000000013130000
#08215:00000000000000000013000000000000
#08212:241c241c0000241c
#0821a:24000024
#08216:00240000
#08312:2400000000000000000000000000000000000000000000000000000000000000000000000000000000000000000000000000000000000000000000000000000000000000000000000000000000000000000000000000000000000000000000000000000000000000000000000000000000000000000000000000000000000000000000000000000000000000000000000000000000000000000000000000000000000000000000000000000000000000000000000000000000000000000000000000000000000000000000000000000000000000000000000000000000000000000000000000000000000000000000000000000000000000000000000000000000000000000000000000000000000000000000000000000000000000000000000000000000000000000000000000000000000000000000000000000000000000000000000000000000000000000000000000000000000000000000000000000000000000000000000000000000000000000000000000000000000000000000000000000000000000000000000000000000000000000000000000000000000000000000000000000000000000000000000000000000000000000000000000000000000000000000000000000000000000000000000000000000000000000000001c00000000000000000000000000000000000000000000000000000000000000000000000000000000000000000000000000000000000000000000000000000000000000000000000000000000000000000000000000000000000000000000000000000000000000000000000000000000000000000000000000000000000000000000000000000000000000000000000000000000000000000000000000000000000000000000000000000000000000000000000000000000000000000000000000000000000000000000000000000000000000000000000000000000000000000000000000000000000000000000000000000000000000000000000000000000000000000000000000000000000000000000000000000000000000000000000000000000000000000000000000000000000000000000000000000000000000000000000000000000000000000000000000000000000000000000000000000000000000000000000000000000000000000000000000000000000000000000000000000000000000000000000000000000000000000000000000000000000000000000000000000000000000000000000000000000000000000000000000000000000000000000000000000000000000000000000000000000000000000000002400000000000000000000000000000000000000000000000000000000000000000000000000000000000000000000000000000000000000000000000000000000000000000000000000000000000000000000000000000000000000000000000000000000000000000000000000000000000000000000000000000000000000000000000000000000000000000000000000000000000000000000000000000000000000000000000000000000000000000000000000000000000000000000000000000000000000000000000000000000000000000000000000000000000000000000000000000000000000000000741c00000000000000000000000000000000000000000000000000000000000000000000000000000000000000000000000000000000000000000000000000000000000000000000000000000000000000000000000000000000000000000000000000000000000000000000000000000000000000000000000000000000000000000000000000000000000000000000000000000000000000000000000000000000000000000000000000000000000000000000000000000000000000000000000000000000000000000000000000000000000000000000000000000000000000000000000000000000000000000000002400000000000000000000000000000000000000000000000000000000000000000000000000000000000000000000000000000000000000000000000000000000000000000000000000000000000000000000000000000000000000000000000000000000000000000000000000000000000000000000000000000000000000000000000000000000000000000000000000000000000000000000000000000000000000000000000000000000000000000000000000000000000000000000000000000000000000000000000000000000000000000000000000000000000000000000000000000000000000000000001c0000000000000000000000000000000000000000000000000000000000000000000000000000000000000000000000000000000000000000000000000000000000000000000000000000000000000000000000000000000000000000000000000000000000000000000000000000000000000000000000000000000000000000000000000000000000000000000000000000000000000000000000000000000000000000000000000000000000000000000000000000000000000000000000000000000000000000000000000000000000000000000000000000000000000000000000000000000000000000000000
#08316:0000002400000000
#0831a:240000000000000000000000000000000000000000000000000000000000000000000000000000000000000000000000000000000000000000000000000000000000000000000000000000000000000000000000000000000000000000000000000000000000000000000000000000000000000000000000000000000000000000000000000000000000000000000000000000000000000000000000000000000000000000000000000000000000000000000000000000000000000000000000000000000000000000000000000000000000000000000000000000000000000000000000000000000000000000000000000000000000000000000000000000000000000000000000000000000000000000000000000000000000000000000000000000000000000000000000000000000000000000000000000000000000000000000000000000000000000000000000000000000000000000000000000000000000000000000000000000000000000000000000000000000000000000000000000000000000000000000000000000000000000000000000000000000000000000000000000000000000000000000000000000000000000000000000000000000000000000000000000000000000000000000000000000000000000000000000000000000000000000000000000000000000000000000000000000000000000000000000000000000000000000000000000000000000000000000000000000000000000000000000000000000000000000000000000000000000000000000000000000000000000000000000000000000000000000000000000000000000000000000000000000000000000000000000000000000000000000000000000000000000000000000000000000000000000000000000000000000000000000000000000000000000000000000000000000000000000000000000000000000000000000000000000000000000000000000000000000000000000000000000000000000000000000000000000000000000000000000000000000000000000000000000000000000000000000000000000000000000000000000000000000000000000000000000000000000000000000000000000000000000000000000000000000000000000000000000000000000000000000000000000000000000000000000000000000000000000000000000000000000000000000000000000000000000000000000000000000000000000000000000000000000000000000000000000000000000000000000000000000000000000000000000000000000000000000000000240000000000000000000000000000000000000000000000000000000000000000000000000000000000000000000000000000000000000000000000000000000000000000000000000000000000000000000000000000000000000000000000000000000000000000000000000000000000000000000000000000000000000000000000000000000000000000000000000000000000000000000000000000000000000000000000000000000000000000000000000000000000000000000000000000000000000000000000000000000000000000000000000000000000000000000000000000000000000000000000000000000000000000000000000000000000000000000000000000000000000000000000000000000000000000000000000000000000000000000000000000000000000000000000000000000000000000000000000000000000000000000000000000000000000000000000000000000000000000000000000000000000000000000000000000000000000000000000000000000000000000000000000000000000000000000000000000000000000000000000000000000000000000000000000000000000000000000000000000000000000000000000000000000000000000000000000000000000000000000000240000000000000000000000000000000000000000000000000000000000000000000000000000000000000000000000000000000000000000000000000000000000000000000000000000000000000000000000000000000000000000000000000000000000000000000000000000000000000000000000000000000000000000000000000000000000000000000000000000000000000000000000000000000000000000000000000000000000000000000000000000000000000000000000000000000000000000000000000000000000000000000000000000000000000000000000000000000000000000000074000000000000000000000000000000000000000000000000000000000000000000000000000000000000000000000000000000000000000000000000000000000000000000000000000000000000000000000000000000000000000000000000000000000000000000000000000000000000000000000000000000000000000000000000000000000000000000000000000000000000000000000000000000000000000000000000000000000000000000000000000000000000000000000000000000000000000000000000000000000000000000000000000000000000000000000000000000000000000000000000
#08315:0023000000000000
#08318:00000023000000000000000000000000
#08412:1314251617240024
#08416:00000014
#0841b:13
#0841a:00000024000000000000240000002400
#08419:00000000002500000000000000000000
#08418:00000000000000260000000000000000
#07714:1313
#07719:13251325
#07716:0014000000140000
#0771b:0000000000130000
#07712:00250025
#07710:41
#02817:12
#02814:00120012
#02816:0012
#02818:0000000000120000
#0281a:00120012
#0291a:1200001200001200
#02916:0012000000120000
#02918:00000012000000001200000000000000
#02914:00120012
#03215:12
#03213:00120012
#03216:0012
#03217:0000000000120000
#0321b:00120012
#03219:12
#00312:5c
#00214:5858585858585858585858585858585800000000000000000000000000000000
#00213:000000000000000000000000000000005a5a5a5a5a5a5a5a5a5a5a5a5a5a5a5a
#0095b:00000013
#00952:00000013
#0345a:14
#03452:14000054
#03456:0000000000000024
#0355a:00000064
#03556:0000000000000024
#04254:00000064
#04256:0000000000000024
#0425b:00130013
#04257:0013
#04358:00000054
#04356:0000000013000024
#04352:00130013
#0465a:00141454
#04656:0000000000000024
#04652:36000014
#04756:0000000000000024
#04758:46
#04752:00141464
#0475a:00000014
#04852:36000014
#0485a:00141400
#03856:0000130000001324
#0385a:00000054
#03852:0013
#03952:00000064
#03956:0000000000000024
#03957:00130013
#0395b:0013
#01152:00000013
#0135b:00000013
#01552:00000013
#0175b:00000013
#0195a:00000014
#02152:00000014
#0235a:00000014
#02552:00000014
#0265a:00120052
#02654:00520012
#0275a:00120000
#02754:00000012
#0305b:00120052
#03053:00520012
#03158:00120000
#03155:00000012
#03356:00120000
#04056:00130013
#04052:0013
#06452:00000014
#0645a:00000014
#0735a:00440000
#07358:23
#0725a:00000014
#07252:00000014
#0695a:00000044
#06958:0023
#06952:00340000
#06955:23
#0785a:0000000000140000
#07852:0000001400000000
#08154:63
#08156:0024000000001400
#08152:00350000
#07759:53450000
#07756:0024000000240000
#07754:0063
#07752:00000035
#08059:00000045
#08052:00000035
#0825a:14
#08252:00140000
#02854:00120062
#0285a:00620012
#02954:00120000
#0295a:00000012
#03253:00120062
#0325b:00620012
#0615a:00140000
#06152:00000014
#0445b:00130013
#04457:0013
#026340:00120000
#026360:0022
#0263a0:00000012
#027380:22
#0283a0:00120000
#028380:0022
#028340:00000012
#029360:22
#030330:00120000
#030360:0022
#0303b0:00000012
#031380:22
#0323b0:00120000
#032380:0022
#032330:00000012
#033360:22
#0333a0:0000000000000000000000000000000000000000000000001454545454545454
#033390:00000000000000000000000000000000000000000000000000000000000000000000000000000000000000000000000000540054005400540054005400540054
#0343a0:24
#033321:0000000000000000000000000000000000000000000000001454545454545454
#033331:00000000000000000000000000000000000000000000000000000000000000000000000000000000000000000000000000540054005400540054005400540054
#034321:24
#034321:00000014
#034361:0000000000000054
#035321:24
#0353a1:00000014
#035361:0000000000000054
#0363a1:24
#0383a1:00000014
#038361:0000000000000054
#0393a1:24
#039321:00000014
#039361:0000000000000054
#040321:24
#042341:00000014
#042361:0000000000000054
#043321:26
#043381:00000014
#043361:0000000000000054
#044381:26
#0463a1:00000014
#046361:0000000000000054
#047381:26
#047321:00000014
#047361:0000000000000054
#048321:26
#050381:00000016
#051381:26
#051321:00000015
#052321:25
#054391:00000015
#055391:25
#055321:00000014
#056321:24
#063321:00001424
#0633a0:00000014
#0643a0:24
#064321:14240000
#069351:13
#069321:00240000
#069381:0013
#0693a1:00000024
#0713a1:00001424
#071320:00000014
#072320:24
#0723a1:14240000
#073381:13
#0733a1:00240000
#077391:13250000
#077361:0054000000000000
#077341:0013
#077361:0000000000540000
#077321:00000025
#079351:000000000000000000000000000000000000000000000000000000000000000000000000000000000000000000000000000000000000000000000000000000000000000000000000000000000000000000000000000000000000000000000000000000000000000000000000000000000000000000000000000000000000000000000000000000000000000000000000000000000000000000000000000000000000000000000000000000000000000000000000000000000000000000000000000000000000000000000000000000000000000000000000000000000000000000000000000000000000000000000000000000000000000000000000000000000000000000000000000000000000000000000000000000000000000000000000000000000000000000000000000000000000000000000000000000000000000000000000000000000000000000000000000000000000000000000000000000000000000000000000000000000000000000000000000000000000000000000000000000000000000000000000000000000000000000000000000000000000000000000000000000000000000000000000000000000000000000000000000000000000000000000000000000000000000000000000000000000000000000000000000000000000000000000000000000000000000000000000000000000000000000000000000000000000000000000000000000000000000000000000000000000000000000000000000000000000000000000000000000000000000000000000000000000000000000000000000000000000000000000000000000000000000000000000000000000000000000000000000000000000000000000000000000000000000000000000000000000000000000000000000000000000000000000000000000000000000000000000000000000000000000000000000000000000000000000000000000000000000000000000000000000000000000000000000000000000000000000000000000000000000000000000000000000000000000000000000000000000000000000000000000000000000000000000000000000000000000000000000000000000000000000000000000000000000000000000000000000000000000000000000000000000000000000000000000000000000000000000000000000000000000000000000000000000000000000000000000000000000000000000000000000000000000000000000000000000000000000000000000000000000000000000000000000000000000000000000000000000000000000000140000000000000000000000000000000000000000000000000000000000000000000000000000000000000000000000000000000000000000000000000000000000000000000000000000000000000000000000000000000000000000000000000000000000000000000000000000000000000000000000000000000000000000000000000000000000000000000000000000000000000000000000000000000000000000000000000000000000000000000000000000000000000000000000000000000000000000000000000000000000000000000000000000000000000000000000000000000000000000000000000000000000000000000000000000000000000000000000000000000000000000000000000000000000000000000000000000000000000000000000000000000000000000000000000000000000000000000000000000000000000000000000000000000000000000000000000000000000000000000000000000000000000000000000000000000000000000000000000000000000000000000000000000000000000000000000000000000000000000000000000000000000000000000000000000000000000000000000000000000000000000000000000000000000000000000000000000000000000000000054220000000000000000000000000000000000000000000000000000000000000000000000000000000000000000000000000000000000000000000000000000000000000000000000000000000000000000000000000000000000000000000000000000000000000000000000000000000000000000000000000000000000000000000000000000000000000000000000000000000000000000000000000000000000000000000000000000000000000000000000000000000000000000000000000000000000000000000000000000000000000000000000000000000000000000000000000000000000000000000000000000000000000000000000000000000000000000000000000000000000000000000000000000000000000000000000000000000000000000000000000000000000000000000000000000000000000000000000000000000000000000000000000000000000000000000000000000000000000000000000000000000000000000000000000000000000000000000000000000000000000000000000000000000000000000000000000000000000000000000000000000000000000000000000000000000000000000000000000000000000000000000000000000000000000000000000000000000000000000000000
#079370:000000000000000000000000000000000000000000000000000000000000000000000000000000000000000000000000000000000000000000000000000000000000000000000000000000000000000000000000000000000000000000000000000000000000000000000000000000000000000000000000000000000000000000000000000000000000000000000000000000000000000000000000000000000000000000000000000000000000000000000000000000000000000000000000000000000000000000000000000000000000000000000000000000000000000000000000000000000000000000000000000000000000000000000000000000000000000000000000000000000000000000000000000000000000000000000000000000000000000000000000000000000000000000000000000000000000000000000000000000000000000000000000000000000000000000000000000000000000000000000000000000000000000000000000000000000000000000000000000000000000000000000000000000000000000000000000000000000000000000000000000000000000000000000000000000000000000000000000000000000000000000000000000000000000000000000000000000000000000000000000000000000000000000000000000000000000000000000000000000000000000000000000000000000000000000000000000000000000000000000000000000000000000000000000000000000000000000000000000000000000000000000000000000000000000000000000000000000000000000000000000000000000000000000000000000000000000000000000000000000000000000000000000000000000000000000000000000000000000000000000000000000000000000000000000000000000000000000000000000000000000000000000000000000000000000000000000000000000000000000000000000000000000000000000000000000000000000000000000000000000000000000000000000000000000000000000000000000000000000000000000000000000000000000000000000000000000000000000000000000000000000000000000000000000000000000000000000000000000000000000000000000000000000000000000000000000000000000000000000000000000000000000000000000000000000000000000000000000000000000000000000000000000000000000000000000000000000000000000000000000000000000000000000000000000000000000000000000000000000000000000000000000000000000000000000000000000000000000000000000000000000000000000000000000000000000000000000000000000000000000000000000000000000000000000000000000000000000000000000000000000000000000000000000000000000000000000000000000000000000000000000000000000000000000000000000000000000000000000000000000000000000000000000000000000000000000000000000000000000000000000000000000000000000000000000000000000000000000000000000000000000000000000000000000000000000000000000000000000000000000000000000000000000000000000000000000000000000000000000000000000000000000000000000000000000000000000000000000000000000000000000000000000000000000000000000000000000000000000000000000000000000000000000000000000000000000000000000000000000000000000000000000000000000000000000000000000000000000000000000000000000000000000000000000000000000000000000000000000000000000000000000000000000000000000000000000000000000000000000000000000000000000000000000000000000000000000000000000000000000000140000000000000000000000000000000000000000000000000000000000000000000000000000000000000000000000000000000000000000000000000000000000000000000000000000000000000000000000000000000000000000000000000000000000000000000000000000000000000000000000000000000000000000000000000000000000000000000000000000000000000000000000000000000000000000000000000000000000000000000000000000000000000000000000000000000000000000000000000000000000000000000000000000000000000000000000000000000000000000000000000000000000000000000000000000000000000000000000000000000000000000000000000000000000000000000000000000000000000000000000000000000000000000000000000000000000000000000000000000000000000000000000000000000000000000000000000000000000000000000000000000000000000000000000000000000000000000000000000000000000000000000000000000000000000000000000000000000000000000000000000000000000000000000000000000000000000000000000000000000000000000000000000000000000000000000000000000000000000000000054
#080390:22
#080351:140000000000000000000000000000000000000000000000000000000000000000000000000000000000000000000000000000000000000000000000000000000000000000000000000000000000000000000000000000000000000000000000000000000000000000000000000000000000000000000000000000000000000000000000000000000000000000000000000000000000000000000000000000000000000000000000000000000000000000000000000000000000000000000000000000000000000000000000000000000000000000000000000000000000000000000000000000000000000000000000000000000000000000000000000000000000000000000000000000000000000000000000000000000000000000000000000000000000000000000000000000000000000000000000000000000000000000000000000000000000000000000000000000000000000000000000000000000000000000000000000000000000000000000000000000000000000000000000000000000000000000000000000000000000000000000000000000000000000000000000000000000000000000000000000000000000000000000000000000000000000000000000000000000000000000000000000000000000000000000054220000000000000000000000000000000000000000000000000000000000000000000000000000000000000000000000000000000000000000000000000000000000000000000000000000000000000000000000000000000000000000000000000000000000000000000000000000000000000000000000000000000000000000000000000000000000000000000000000000000000000000000000000000000000000000000000000000000000000000000000000000000000000000000000000000000000000000000000000000000000000000000000000000000000000000000000000000000000000000000000000000000000000000000000000000000000000000000000000000000000000000000000000000000000000000000000000000000000000000000000000000000000000000000000000000000000000000000000000000000000000000000000000000000000000000000000000000000000000000000000000000000000000000000000000000000000000000000000000000000000000000000000000000000000000000000000000000000000000000000000000000000000000000000000000000000000000000000000000000000000000000000000000000000000000000000000000000000000000000000000000000000000000000000000000000000000000000000000000000000000000000000000000000000000000000000000000000000000000000000000000000000000000000000000000000000000000000000000000000000000000000000000000000000000000000000000000000000000000000000000000000000000000000000000000000000000000000000000000000000000000000000000000000000000000000000000000000000000000000000000000000000000000000000000000000000000000000000000000000000000000000000000000000000000000000000000000000000000000000000000000000000000000000000000000000000000000000000000000000000000000000000000000000000000000000000000000000000000000000000000000000000000000000000000000000000000000000000000000000000000000000000000000000000000000000000000000000000000000000000000000000000000000000000000000000000000000000000000000000000000000000000000000000000000000000000000000000000000000000000000000000000000000000000000000000000000000000000000000000000000000000000000000000000000000000000000000000000000000000000000000000000000000000000000000000000000000000000000000000000000000000000000000000000000000000000000000000000000000000000000000000000000000000000000000000000000000000000000000000000000000000000000000000000000000000000000000000000000000000000000000000000000000000000000000000000000000000000000000000000000000000000000000000000000000000000000000000000000000000000000000000000000000000000000000000000000000000000000000000000000000000000000000000000000000000000000000000000000000000000000000000000000000000000000000000000000000000000000000000000000000000000000000000000000000000000000000000000000000000000000000000000000000000000000000000000000000000000000000000000000000000000000000000000000000000000000000000000000000000000000000000000000000000000000000000000000000000000000000000000000000000000000000000000000000000000000000000000000000000000000000000000000000000000000000000000000000000000000000000000000000000000000000000000000000000000000000000000000000000000000
#081341:13
#081361:0054000000000000
#081321:00250000
#083321:000000000000000000000000000000000000000000000000000000000000000000000000000000000000000000000000000000000000000000000000000000000000000000000000000000000000000000000000000000000000000000000000000000000000000000000000000000000000000000000000000000000000000000000000000000000000000000000000000000000000000000000000000000000000000000000000000000000000000000000000000000000000000000000000000000000000000000000000000000000000000000000000000000000000000000000000000000000000000000000000000000000000000000000000000000000000000000000000000000000000000000000000000000000000000000000000000000000000000000000000000000000000000000000000000000000000000000000000000000000000000000000000000000000000000000000000000000000000000000000000000000000000000000000000000000000000000000000000000000000000000000000000000000000000000000000000000000000000000000000000000000000000000000000000000000000000000000000000000000000000000000000000000000000000000000000000000000000000000000000000000000000000000000000000000000000000000000000000000000000000000000000000000000000000000000000000000000000000000000000000000000000000000000000000000000000000000000000000000000000000000000000000000000000000000000000000000000000000000000000000000000000000000000000000000000000000000000000000000000000000000000000000000000000000000000000000000000000000000000000000000000000000000000000000000000000000000000000000000000000000000000000000000000000000000000000000000000000000000000000000000000000000000000000000000000000000000000000000000000000000000000000000000000000000000000000000000000000000000000000000000000000000000000000000000000000000000000000000000000000000000000000000000000000000000000000000000000000000000000000000000000000000000000000000000000000000000000000000000000000000000000000000000000000000000000000000000000000000000000000000000000000000000000000000000000000000000000000000000000000000000000000000000000000000000000000000000000000000000000000000140000000000000000000000000000000000000000000000000000000000000000000000000000000000000000000000000000000000000000000000000000000000000000000000000000000000000000000000000000000000000000000000000000000000000000000000000000000000000000000000000000000000000000000000000000000000000000000000000000000000000000000000000000000000000000000000000000000000000000000000000000000000000000000000000000000000000000000000000000000000000000000000000000000000000000000000000000000000000000000024000000000000000000000000000000000000000000000000000000000000000000000000000000000000000000000000000000000000000000000000000000000000000000000000000000000000000000000000000000000000000000000000000000000000000000000000000000000000000000000000000000000000000000000000000000000000000000000000000000000000000000000000000000000000000000000000000000000000000000000000000000000000000000000000000000000000000000000000000000000000000000000000000000000000000000000000000000000000000000000000000000000000000000000000000000000000000000000000000000000000000000000000000000000000000000000000000000000000000000000000000000000000000000000000000000000000000000000000000000000000000000000000000000000000000000000000000000000000000000000000000000000000000000000000000000000000000000000000000000000000000000000000000000000000000000000000000000000000000000000000000000000000000000000000000000000000000000000000000000000000000000000000000000000000000000000000000000000000000000000000000000000000000000000000000000000000000000000000000000000000000000000000000000000000000000000000000000000000000000000000000000000000000000000000000000000000000000000000000000000000000000000000000000000000000000000000000000000000000000000000000000000000000000000000000000000000000000000000000000000000000000000000000000000000000000000000000000000000000000000000000000000000000000000000000000000000000000000000000000000000000000000000000000000000000000000000000000000000000000000000
#0833a1:000000000000000000000000000000000000000000000000000000000000000000000000000000000000000000000000000000000000000000000000000000000000000000000000000000000000000000000000000000000000000000000000000000000000000000000000000000000000000000000000000000000000000000000000000000000000000000000000000000000000000000000000000000000000000000000000000000000000000000000000000000000000000000000000000000000000000000000000000000000000000000000000000000000000000000000000000000000000000000000000000000000000000000000000000000000000000000000000000000000000000000000000000000000000000000000000000000000000000000000000000000000000000000000000000000000000000000000000000000000000000000000000000000000000000000000000000000000000000000000000000000000000000000000000000000000000000000000000000000000000000000000000000000000000000000000000000000000000000000000000000000000000000000000000000000000000000000000000000000000000000000000000000000000000000000000000000000000000000000000000000000000000000000000000000000000000000000000000000000000000000000000000000000000000000000000000000000000000000000000000000000000000000000000000000000000000000000000000000000000000000000000000000000000000000000000000000000000000000000000000000000000000000000000000000000000000000000000000000000000000000000000000000000000000000000000000000000000000000000000000000000000000000000000000000000000000000000000000000000000000000000000000000000000000000000000000000000000000000000000000000000000000000000000000000000000000000000000000000000000000000000000000000000000000000000000000000000000000000000000000000000000000000000000000000000000000000000000000000000000000000000000000000000000000000000000000000000000000000000000000000000000000000000000000000000000000000000000000000000000000000000000000000000000000000000000000000000000000000000000000000000000000000000000000000000000000000000000000000000000000000000000000000000000000000000000000000000000000000000000000000000000000000000000000000000000000000000000000000000000000000000000000000000000000000000000000000000000000000000000000000000000000000000000000000000000000000000000000000000000000000000000000000000000000000000000000000000000000000000000000000000000000000000000000000000000000000000000000000000000000000000000000000000000000000000000000000000000000000000000000000000000000000000000000000000000000000000000000000000000000000000000000000000000000000000000000000000000000000000000000000000000000000000000000000000000000000000000000000000000000000000000000000000000000000000000000000000000000000000000000000000000000000000000000000000000000000000000000000000000000000000000000000000000000000000000000000000000000000000000000000000000000000000000000000000000000000000000000000000000000000000000000000000000000000000000000000000000000000000000000000000000000000000000000000000000000000000000000000000000000000000000000000000000000000000000000000000000000000000000000140000000000000000000000000000000000000000000000000000000000000000000000000000000000000000000000000000000000000000000000000000000000000000000000000000000000000000000000000000000000000000000000000000000000000000000000000000000000000000000000000000000000000000000000000000000000000000000000000000000000000000000000000000000000000000000000000000000000000000000000000000000000000000000000000000000000000000000000000000000000000000000000000000000000000000000000000000000000000000000024000000000000000000000000000000000000000000000000000000000000000000000000000000000000000000000000000000000000000000000000000000000000000000000000000000000000000000000000000000000000000000000000000000000000000000000000000000000000000000000000000000000000000000000000000000000000000000000000000000000000000000000000000000000000000000000000000000000000000000000000000000000000000000000000000000000000000000000000000000000000000000000000000000000000000000000000000000000000000000000000
#001960:14
#002920:000000000000000000000000000000000000000000000000000000000000000000000000000000000000000000000000000000000000000000000000000000000000000000000000000000000000000000000000000000000000000000000000000000000000000000000000000000000000000000000000000000000000000000000000000000000000000000000000000000000000000000000000000000000000000000000000000000000000000000000000000000000000000000000000000000000000000000000000000000000000000000000000000000000000000000000000000000000000000000000000000000000000000000000000000000000000000000000000000000000000000000000000000000000000000000000000000000000000000000000000000000000000000000000000000000000000000000000000000000000000000000000000000000000000000000000000000000000000000000000000000000000000000000000000000000000000000000000000000000000000000000000000000000000000000000000000000000000000000000000000000000000000000000000000000000000000000000000000000000000000000000000000000000000000000000000000000000000000000000000000000000000000000000000000000000000000000000000000000000000000000000000000000000000000000000000000000000000000000000000000000000000000000000000000000000000000000000000000000000000000000000000000000000000000000000000000000000000000000000000000000000000000000000000000000000000000000000000000000000000000000000000000000000000000000000000000000000000000000000000000000000000000000000000000000000000000000000000000000000000000000000000000000000000000000000000000000000000000000000000000000000000000000000000000000000000000000000000000000000000000000000000000000000000000000000000000000000000000000000000000000000000000000000000000000000000000000000000000000000000000000000000000000000000000000000000000000000000000000000000000000000000000000000000000000000000000000000000000000000000000000000000000000000000000000000000000000000000000000000000000000000000000000000000000000000000000000000000000000000000000000000000000000000000000000000000000000000000000000000000000000000000000000000000000000000000000000000000000000000000000000000000000000000000000000000000000000000000000000000000000000000000000000000000000000000000000000000000000000000000000000000000000000000000000000000000000000000000000000000000000000000000000000000000000000000000000000000000000000000000000000000000000000000000000000000000000000000000000000000000000000000000000000000000000000000000000000000000000000000000000000000000000000000000000000000000000000000000000000000000000000000000000000000000000000000000000000000000000000000000000000000000000000000000000000000000000000000000000000000000000000000000000000000000000000000000000000000000000000000000000000000000000000000000000000000000000000000000000000000000000000000000000000000000000000000000000000000000000000000000000000000000000000000000000000000000000000000000000000000000000000000000000000000000000000000000000000000000000000000000000000000000000000000000000000000000000000000000000000000000000000000000000000000000000000000000000000000000000000000000000000000000000000000000000000000000000000000000000000000000000000000000000000000000000000000000000000000000000000000000000000000000000000000000000000000000000000000000000000000000000000000000000000000000000000000000000000000000000000000000000000000000000000000000000000000000000000000000000000000000000000000000000000000000000000000000000000000000000000000000000000000000000000000000000000000000000000000000000000000000000000000000000000000000000000000000000000000000000000000000000000000000000000000000000000000000000000000000000000000000000000000000000000000000000000000000000000000000000000000000000000000000000000000000000000000000000000000000000000000000000000000000000000000000000000000000000000000000000000000000000000000000000000000000000000000000000000000000000000000000000000000000000000000000000000000000000000000000000000000000000000000000000000000000000000000000000000000000000000000005c5c
#003920:2c
#0539b0:13
#053990:00230000
#053961:00130000
#053941:0023
#053990:0013
#053970:00000023
#053941:00000013
#054921:23
#0579b1:13
#057991:00230000
#057960:00130000
#057940:0023
#057991:0013
#057971:00000023
#057940:00000013
#057930:0000000000000023
#059970:120000000000000000000000000000000000000000000000000000000000000000000000000000000000000000000000000000000000000000000000000000000000000000000000000000000000000000000000000000000000000000000000000000000000000000000000000000000000000000000000520000000000000000000000000000000000000000000000000000000000000000000000000000000000000000000000000000000000000000000000000000000000000000000000000000000000000000000000000000000000000000000000000000000000000000000000000000000000000000000000000000000000000000000000000000000000000000000000000000000000000000000000000000000000000000000000000000000000000000000000000000000000000000000000000000000000000000000000000000000000000000000000000000000000000000000000000000000000000000000000000000000000000000000000000000000000000000000000000000000000000000000000000000000000000000000000000000000000000000000000000000000000000000000000000000000000000000000000000000000000000000000000000000000000000000000000000000000000000000000000000000000000000000000000000000000000000000000000000000000000000000000000000000000000000000000000000000000000000000000000000000000000000000000000000000000000000000000000000000000000000000000000000000000000000000000000000000000000000000000000000000000000000000000000000000000000000000000000000000000000000000000000000000000000000000000000000000000000000000000000000000000000000000000000000000000000000000000000000000000000000000000000000000000000000000000000000000000000000000000000000000000000000000000000000000000000000000000000000000000000000000000000000000000000000000000000000000000000000000000000000000000000000000000000000000000000000000000000000000000000000000000000000000000000000000000000000000000000000000000000000000000000000000000000000000000000000000000000000000000000000000000000000000000000000000000000000000000000000000000000000000000000000000000000000000000000000000000000000000000000000000000000000000000000000000000000000000000000000000000000000000000000000000000000000000000000000000000000000000000000000000000000000000000000000000000000000000000000000000000000000000000000000000000000000000000000000000000000000000000000000000000000000000000000000000000000000000000000000000000000000000000000000000000000000000000000000000000000000000000000000000000000000000000000000000000000000000000000000000000000000000000000000000000000000000000000000000000000000000000000000000000000000000000000000000000000000000000000000000000000520000000000000000000000000000000000000000000000000000000000000000000000000000000000000000000000000000000000000000000000000000000000000000000000000000000000000000000000000000000000000000000000000000000000000000000000000000000000000000000000000000000000000000000000000000000000000000000000000000000000000000000000000000000000000000000000000000000000000000000000000000000000000000000000000000000000000000000000000000000000000000000000000000000000000000000000000000000000000000000000520000000000000000000000000000000000000000000000000000000000000000000000000000000000000000000000000000000000000000000000000000000000000000000000000000000000000000000000000000000000000000000000000000000000000000000000000000000000000000000000000000000000000000000000000000000000000000000000000000000000000000000000000000000000000000000000000000000000000000000000000000000000000000000000000000000000000000000000000000000000000000000000000000000000000000000000000000000000000000000000000000000000000000000000000000000000000000000000000000000000000000000000000000000000000000000000000000000000000000000000000000000000000000000000000000000000000000000000000000000000000000000000000000000000000000000000000000000000000000000000000000000000000000000000000000000000000000000000000000000000000000000000000000000000000000000000000000000000000000000000000000000000000000000000000000000000000000000000000000000052525252525252525252525252525252525252525252525252525252525252
#059950:00000000005200520052005200520052005200520052005200520052005200520052005200520052000000000000000000005200520052005200520052005200
#059990:00000000000052005200520052005200520052005200520052005200520052005200520052005200000000000000000000520052005200520052005200520000
#060970:22
