This file was generated by Ched 2.7.0.0.
#TITLE ""
#ARTIST ""
#DESIGNER ""
#DIFFICULTY 0
#PLAYLEVEL
#SONGID ""
#WAVE ""
#WAVEOFFSET 0
#JACKET ""
#REQUEST "ticks_per_beat 480"
#00002: 4
#BPM01: 200
#00008: 01
#TIL00: ""
#VOLUME: ""
#HISPEED 00
#MEASUREHS 00
#00218:1414
#00214:00140000
#00314:14
#00318:00140000
#00312:0024
#00418:1414
#00414:00140000
#00514:14
#00518:00140000
#00512:0024
#00618:1414
#00614:00140000
#00714:14
#00718:00140000
#00712:0024
#00818:1414
#00814:00140000
#00914:14
#00918:00140000
#00912:0024
#0091a:0024
#01014:1414
#01018:00140000
#01010:41
#01118:1414
#01114:00140000
#01112:00000024
#01218:1414
#01214:00140000
#01314:14
#01318:00140000
#01312:0024
#0131a:0024
#01414:1414
#01418:00140000
#01518:1414
#01514:00140000
#01512:00000024
#01618:1414
#01614:00140000
#01714:14
#01718:00140000
#01713:0014
#01719:0014
#01814:0014
#0181a:00240000
#01812:24
#01918:0014
#01914:00000014
#0191a:24
#01912:00240000
#02018:0014
#0201a:24
#02012:00240000
#02010:41
#02113:0014
#02119:0014
#02112:24
#0211a:00240000
#02214:0014
#0221a:00240000
#02212:24
#02318:0014
#02314:00000014
#0231a:24
#02312:00240000
#02418:0014
#0241a:24
#02412:00240000
#02513:0014
#02519:0014
#02512:24
#0251a:00240000
#03814:0014
#03818:16
#04018:0014
#04012:16
#04618:1614
#04614:00140014
#0461f:11
#04714:0014
#04718:16000014
#03418:16
#03512:16
#03618:16
#03712:16
#03918:16
#04112:16
#04218:16000014
#04214:0014
#04210:41
#04312:16
#04318:0014
#04314:00000014
#04418:16000014
#04414:0014
#04512:16
#04518:0014
#04514:00000014
#04814:0014
#04818:00140014
#04812:16
#04912:16
#04918:0014
#04914:00000014
#06114:1414
#0611a:00240024
#0611f:21
#06214:14
#06218:00140000
#06212:0024
#06210:41
#06314:00140014
#0631a:2424
#06418:14
#06414:00140000
#0641a:0024
#06514:1414
#0651a:00240024
#06614:14
#06618:00140000
#06612:0024
#06714:00140014
#0671a:2424
#06914:14
#06912:0014
#0691a:00240000
#06918:00000024
#07014:14
#07018:00140000
#07012:0024
#07114:00140000
#07112:00000014
#0711a:24
#07118:0024
#07218:14
#07214:00140000
#0721a:0024
#07314:14
#07312:0014
#07318:00240000
#0731a:00000024
#07414:14
#07418:00140000
#07412:0024
#07514:00140000
#07512:00000014
#0751a:24
#07518:0024
#07714:14
#07712:0014
#0771a:00240000
#07718:00000024
#07710:41
#07814:14
#07818:00140000
#07812:0024
#07914:00140000
#07912:00000014
#0791a:24
#07918:0024
#08018:14
#08014:00140000
#0801a:0024
#08114:14
#08112:0014
#08118:00240000
#0811a:00000024
#08214:14
#08218:00140000
#08212:0024
#08314:00140000
#08312:00000014
#0831a:24
#08318:0024
#08514:14
#0851a:0024
#08614:14
#08618:00140000
#08612:0024
#08718:14
#08712:0024
#08818:14
#08814:00140000
#0881a:0024
#08914:14
#0891a:0024
#09014:14
#09018:00140014
#09012:0024
#09114:14
#0911a:0024
#09214:14
#09218:00140014
#09212:0024
#02612:24
#0261a:0024
#02712:24
#0271a:0024
#02812:24
#0281a:0024
#02912:2626
#02918:00260000
#0301a:24
#03014:0024
#03018:0000000000240000
#03010:41
#03112:24
#03114:0000000000240000
#03118:0024
#0321a:24
#03218:0000000000240000
#03214:0024
#03312:2626
#03318:00260000
#0501a:24
#05012:0024
#0511a:24
#05112:0024
#05219:2424
#05213:00240000
#05312:24
#0541a:0024
#05513:2424
#05519:00240000
#0561a:24
#05612:0024
#0571a:24
#09312:26
#07852:0014
#0805a:0014
#08252:0014
#09352:16
#02952:0016
#03352:0016
#053320:14
#054320:24
#0573a0:14
#0583a0:24
#068380:14342400
#0763a0:14342400
#0843a0:14342400
