This file was generated by Ched 2.7.0.0.
#TITLE ""
#ARTIST ""
#DESIGNER ""
#DIFFICULTY 0
#PLAYLEVEL
#SONGID ""
#WAVE ""
#WAVEOFFSET 0
#JACKET ""
#REQUEST "ticks_per_beat 480"
#00002: 4
#BPM01: 160
#BPM02: 300
#00008: 01
#01208: 02
#TIL00: "0'0:1"
#VOLUME: ""
#HISPEED 00
#MEASUREHS 00
#02018:16
#02212:16
#02412:16
#02618:16
#02818:16
#02810:41
#03212:16
#03418:16
#03618:16
#05212:0016
#05414:00160000
#05718:16
#05710:41
#05812:16
#05818:0016
#07514:16
#07812:0016
#07818:16
#07810:41
#07918:16
#07912:0016
#09818:16
#10114:001600000000000000000000
#09912:00000016
#11012:0016
#11112:0016
#11212:0016
#11312:0016
#11318:26
#11418:0016
#11518:0016
#11618:0016
#11718:0016
#11712:26
#12212:0016
#12318:0016
#13518:0016
#13612:0016
#13712:0016
#13718:26
#14018:0016
#00918:16
#04012:16
#02318:16
#02712:16
#02912:16
#03812:16
#10612:0016
#06018:16
#06112:16
#06218:16
#06212:0016
#06412:16
#06518:16
#06612:16
#06618:0016
#06818:16
#06912:16
#07018:16
#07012:0016
#08212:0016
#08218:16
#08318:16
#08312:0016
#08618:1616
#08712:1616
#09018:1616
#09112:1616
#12918:00000016
#13116:0016
#13412:0016
#13818:0016
#13912:0016
#0431f:11
#01218:26
#01418:26
#01612:26
#01610:41
#01812:26
#03918:26
#05912:26
#08112:26
#09612:26
#10418:0026
#10818:0026
#12118:0026
#12412:0026
#12618:0026
#12812:0026
#14112:26
#00418:0026
#00812:0026
#03512:26
#06318:26
#06712:26
#07118:26
#08912:26
#08512:26
#09312:26
#0561f:21
#07414:36
#07313:36
#04210:41
#10210:0041
#05252:0056
#05454:00260000
#07554:56
#09952:00000056
#10154:002600000000000000000000
#12958:00000066
#13156:0066
#001380:16
#002380:26
#003320:16
#004320:26
#005320:16
#006320:26
#007380:16
#008380:26
#009320:0016
#010320:000000000000000000000026
#030380:16
#031380:26
#043380:16
#045360:36
#047380:36
#049360:26
#050320:16
#052320:0036
#054340:00560000
#056320:26
#059320:1626
#063380:1626
#067320:1626
#071380:1626
#072320:16
#073330:36
#074340:36
#075340:36
#077320:26
#080380:1626
#081320:1626
#084380:1626
#085320:1626
#088380:1626
#089320:1626
#092380:1626
#093320:1626
#094380:16
#095380:26
#096320:16
#097320:26
#099320:16000036
#101340:005600000000000000000000
#102320:0026
#118320:0016
#119340:0036
#120320:0026
#124320:0016
#125340:00360000
#126320:26
#126380:0016
#127360:00360000
#128380:26
#128320:0016
#129340:00260000
#129380:00000016
#131360:0036
#133380:0026
#141380:0016
#143380:0026
