This file was generated by Ched 2.7.0.0.
#TITLE ""
#ARTIST ""
#DESIGNER ""
#DIFFICULTY 0
#PLAYLEVEL
#SONGID ""
#WAVE ""
#WAVEOFFSET 0
#JACKET ""
#REQUEST "ticks_per_beat 480"
#00002: 4
#BPM01: 160
#BPM02: 300
#00008: 01
#01208: 02
#TIL00: "11'0:1, 0'0:0.7"
#VOLUME: ""
#HISPEED 00
#MEASUREHS 00
#00115:001300130000000000000000
#00118:131300000000
#00114:000000000000001300130000
#00119:000000131300
#00918:001400002313
#00915:002400000000002300000013
#0091a:000000000014000000000000
#0091b:00000013
#00912:2423
#00917:002400
#00914:00240000
#01015:002300000013002400000000
#0101a:000014
#01018:000023001300000000000016
#01017:00000014
#01014:000000000014
#0101b:00130000
#01012:2324
#01213:0000001400000000
#01212:0000000000140000
#0121a:00000014
#01214:0014000000000000
#01218:26
#01217:00260000
#01216:0026
#01616:0014001400000000
#01612:0000260000140000
#01618:26002614
#01610:41
#03215:0013000000000000
#03218:13130000
#03212:00002323
#0321b:0000000000230000
#03318:13130063
#03315:00001300000000000000006300000000
#03313:00000000000000000063000000000000
#03314:0000000000630000
#03319:00000000000000000000000000630000
#0331a:0000000000000063
#0331b:00000000000000000000000000000063
#03312:0063
#0521a:0014
#05212:0024
#06218:0014001400140014
#06214:14140014
#06212:0023
#06314:1414001400000000
#06318:0000000014140000
#0631b:00230000
#06312:00000023
#02818:13
#02814:0013000000000013
#02817:00130013
#02812:0000001300130000
#02816:0013
#02810:41
#02918:13
#02916:00130013
#0291b:0000001300130000
#02917:0013
#02919:00530000000000000000000000001300
#0291a:0053000000000000
#03112:0000000000161600
#03116:14
#03114:00150000
#03118:0000000000262600
#03119:00250000
#0311a:24
#07317:13
#07312:0013000000000000
#0731b:0000001300130013
#07316:00531313
#07314:00000053000000000000000000000000
#07415:00001414
#0741a:0000000000140014
#07412:24240000
#07417:0024002400000000
#0761a:00140000
#07616:0064001400640014
#07612:26000014
#07618:0026
#07614:00650000000000000000000000000000
#07617:00000000000000000065000000000000
#07915:13130000
#07912:00002424
#07918:0000002400000024
#09415:00120012
#09413:0022
#1041b:0013
#10416:0014
#10412:0063000000000000
#10417:0064000000000000
#11812:00002213
#11814:0014001400000000
#11818:14140000
#1181c:0012
#1181b:00000023
#1191a:14
#11912:2400150000260027
#11918:0016
#11917:00000017
#11919:00250000
#12118:0000000000001414
#12112:246c
#1211a:54
#12113:006500000000006b0000000000000000
#12114:0066006a00000000
#12115:00000067006900000000000000000000
#12116:00680000
#12214:0000141400000000
#12218:0000000000001414
#12212:23
#1221b:0023
#12412:1514
#12414:0000000000180000
#1241a:0000000000000014
#12419:25
#13019:15
#13017:00140000
#13016:00001414
#13012:0026002500240024
#13117:1400000000000027
#13118:00140000
#13112:0025002700001600
#13116:0028
#13612:0015001500000000
#13619:0015000000000000
#14112:00000000250000001434343434343434
#14114:2500002500000000
#14115:0026000000000000
#14117:0027
#00213:001300130000000000000000
#0021a:131300000000
#0021b:00000023
#00212:0023
#00218:0023
#00215:00000023
#00318:001300130000000000000000
#00315:131300000000
#00319:000000000000001300130000
#00314:000000131300
#0041a:001300130000240000000000
#00413:131300000000
#00414:000014
#00412:000000000000000000000014
#00417:000000000000002400000000
#00415:000000000024
#00418:00000024
#00516:001300130000000000000000
#0051b:131300000000
#00514:000000000000001300130000
#00519:000000131300
#00612:001300130000000000230000
#00617:131300000000
#00615:0023
#0061b:0023
#00618:00000023
#00717:001300130000000000000000
#00712:131300000000
#00719:000000000000001300130000
#00714:000000131300
#0081b:001300130000000000000000
#00816:131300000000
#00818:000014
#0081a:000000000000000000000014
#00812:0024
#00815:000000000000002400000000
#00817:000000000024
#00814:00000024
#01716:0014001400000000
#01712:26002626
#01718:0000260000260000
#02015:00130013
#02012:0024
#02119:00130013
#02116:0024
#02215:00130013
#02212:0024
#02319:0013
#02316:00240024
#02414:00130013
#02416:0024
#02518:00130013
#0251a:0024
#02614:00130013
#02616:0024
#02718:0013
#0271a:00240024
#03418:0014000000000000
#03414:14140000
#0341a:00002424
#03412:0000000000240000
#03514:14000000140000000000000000640000
#03518:0014000000640000
#03519:00000000000000000064000000000000
#03517:00000000000000000000006400000000
#03513:0000000000000064
#03512:00000000000000000000000000000064
#0351a:0064
#03515:00000064
#03616:0014000000240000
#0361a:14140000
#03612:00002424
#0371a:14140000
#03716:0014000000006500
#03713:00000000000000000065000000000000
#03714:0000000000650000
#03715:00000000000000000000006500000000
#03717:00000000000000000000000000650000
#03718:0000000000000065
#03719:00000000000000000000000000000065
#03712:0065
#03815:0015000000000000
#03812:15150000
#03819:00002525
#03816:0000000000250000
#03912:15152500
#03915:0015000000000000
#03919:0000002500000000
#03918:00000023
#04416:0012
#04412:12
#04418:22
#04517:0013
#0451b:13
#04617:0013
#0461b:13
#04615:23
#04716:0014
#04712:14
#04816:0014
#04812:14
#04818:24
#04915:0015
#04919:15
#05014:00000015
#05019:15
#05013:25
#05118:0014
#05114:0024
#05113:00000034
#05119:00000034
#05417:12
#05317:000000000000000000000000000000000000000000000000000000000000000000000000000000000000000000000000000000000000000000000000000000000000000000000000000000000000000000000000000000000000000000000000000000000000000000000000000000000000000000000000000000000000000000000000000000000000000000000000000000000000000000000000000000000000000000000000000000000000000000000000000000000000000000000000000000000000000000000000000000000000000000000000000000000000000000000000000000000000000000000000000000000000000000000000000000000000000000000000000000000000000000000000000000000000000000000000000000000000000000000000000000000000000000000000000000000000000000000000000000000000000000000000000000000000000000000000000000000000000000000000000000000000000000000000000000000000000000000012
#07515:00001515
#07519:0000000000150015
#07512:25250000
#07516:0025002500000000
#08015:13130000
#08012:00002424
#08018:0000002400000024
#08115:1300000000130000
#08118:0013
#0811a:00240024
#08112:0000002400000000
#08114:00530000000000000000000000000000
#08113:0053000000000000
#08218:13130000
#08212:24
#08214:0000002400000024
#0821a:00002424
#08318:13130000
#08314:0000002400000024
#0831a:00002424
#08418:13130000
#08414:0000002400000024
#0841a:00002424
#08518:1300001300130000
#08515:0013
#0851b:00000013
#08512:00240024
#08519:00530000000000000000000000000000
#0851a:0053000000000000
#09519:00120012
#0951b:0022
#10112:000000000000000000000000000000000000000000000000000000000000000000000000000000000000000000000000000000000000000000000000000000000000000000000000000000000000000000000000000000000000000000000000000000000000000000000000000000000000000000000000000000000000000000000000000000000000000000000000000000000000000000000000000000000000000000000000000000000000000000000000000000000000000000000000001900000000000000000000000000000000000000000000000000000000000000000000000000000000000000000000000000000000000000000000000000000000000000000000000000000000000000000000000000000000000000000000000000000000000000000000000000000000000000000000000000000000000000000000000000000000000000000000000000000000000000000000000000000000000000000000000000000000000000000000000000000000000000000000
#10115:0019
#1011b:33333333333333330033333333333333
#0991b:00000000000000000000000013333333
#09915:00190000
#09912:23230000
#1061b:0013
#10616:0064000014000000
#10612:0063000000000000
#1081b:0013
#10812:0063000014000000
#1081a:0064000000000000
#10918:00000014
#1091b:0053000023000000
#10916:0054000000230000
#10912:0000000000000023
#11018:0014
#1101a:00000014
#11012:00000014
#11014:0014000000000000
#11017:23
#1101b:00230000
#11016:0000002300000000
#1111a:00140014
#11114:0014
#11112:00000014
#11115:2323000000000000
#11118:00230000000000000000000000000000
#11212:00140014
#11218:2323000014000000
#1121a:00000014
#11215:00230000000000000000000000000000
#1131a:00140014
#11314:0014
#11312:00000014
#11315:2323000000000000
#11318:00230000000000000000000000000000
#11416:0014
#1141a:00000014
#11412:00000014
#11418:23230000
#11415:0023002300000000
#1151a:00140014
#11516:0014
#11512:00000014
#11515:2323000000000000
#11518:00230000000000000000000000000000
#11612:00140014
#11616:0014
#1161a:00000014
#11618:2323000000000000
#11615:00230000000000000000000000000000
#1171a:00140014
#11716:0014
#11712:00000014
#11715:2323000000000000
#11718:00230000000000000000000000000000
#12016:1800000000560056
#12015:00190000
#1201a:0014
#12012:0028002900005800
#12018:00000000000000000055000000000055
#12014:00000000000000000000005700570000
#12514:18000015
#12512:00250000
#12519:00250000
#12617:15
#12613:00000000001a0000
#1261a:0014
#12612:2500000000000014
#12812:15000000141c0000
#1281a:0000000000000014
#12819:25
#12912:1c150028
#12919:00250000
#13318:00001616
#13312:0000150000160000
#13315:14
#13317:0027000000000000
#13412:0016001600000000
#13418:00160000
#1341a:0000000000140014
#13416:00000014
#13518:00130000000000001600000016000000
#13512:0000001400160000
#13516:00140000
#13515:1313000000000000
#13715:00003535153535350000000000000000
#13719:15
#13712:27001717
#13717:00350000000000000000170000000000
#13817:0017001700000000
#13812:0000170000140014
#13816:00000014
#13912:00001717
#13917:0000000000170000
#13916:00140000
#1391a:0000001400000000
#13918:1313000000000000
#13915:00130000000000000000000000000000
#14019:0015001500000000
#14012:0015000000000000
#14017:0000000000000027
#0431f:11
#04318:22
#0111c:00000000000000120000000000000000
#01319:0000001400000000
#01318:0014000000260000
#01312:26000026
#01313:00260000
#01314:0026
#01413:0000001400000000
#01412:0000000000140000
#0141a:00000014
#01414:0014000000000000
#01418:26
#01417:00260000
#01416:0026
#01519:0000001400000000
#01518:0014000000260000
#01512:26000026
#01513:00260000
#01514:0026
#01816:0014001400000000
#01812:0000260000140000
#01818:26002614
#01916:0014001400000000
#01912:26002626
#01918:0000260000260000
#04017:00160015
#04013:0000001600000000
#04014:0000000000000015
#0401a:24
#0401b:0023
#04012:0024000000230000
#04117:00140000
#04115:0000001400000013
#04118:00000013
#0411c:22
#0411b:0022
#04112:0022000000000000
#04113:0000000000220000
#04218:00120012
#04216:0000001200000012
#0421a:22
#04214:0022000000000000
#04219:0022
#04215:0000000000220000
#04210:41
#06419:1514
#06412:15000023
#06415:0000001400000000
#06417:00140000
#0641b:00000023
#07115:0000000000130000
#0711b:0000000000000013
#07118:00000013
#07112:00231300
#07712:2500001200000000
#0771c:0000001200000000
#07719:25
#07815:00130000
#07812:00002424
#07818:0000002400000024
#07810:41
#08715:13130000
#08712:00002424
#08718:0000002400000024
#08815:13130000
#08812:00002424
#08818:0000002400000024
#08915:1300000000130000
#08918:0013
#0891a:00240024
#08912:0000002400000000
#08914:00530000000000000000000000000000
#08913:0053000000000000
#08615:13130000
#08612:00002424
#08619:25
#08618:0000002400000024
#09018:00130000
#09012:24
#09014:0000002400000024
#0901a:24002424
#09118:13130013
#09115:0000000000000013
#09114:0000002400000000
#0911a:0024
#09112:0000000000240000
#09218:00130013
#09215:0000000000000013
#09212:2400000000240000
#09214:0000002400000000
#0921a:2424
#09716:24000014
#09712:0023
#0971b:00000023
#09816:14140000
#09812:23
#0981b:00230000
#13215:14
#13216:00140014
#13217:0027002714270027
#14217:0017
#14212:34343434343434340034343434343434
#03015:13
#03017:00130013
#03012:0000001300130000
#03016:0013
#03014:00530000000000000000000000001300
#03013:0053000000000000
#05618:0000001400000000
#05614:00141400
#0561f:21
#05612:00000023
#0561b:00000023
#05914:0014001400000000
#05918:14140000
#05912:00000025
#05919:0000000000250000
#06114:1400000000140000
#06118:0014000014000000
#06112:00140000
#0611a:00000014
#05818:1400000000140000
#05814:0014000014000000
#05812:0000000000002323
#0581b:0000232300000000
#06018:1414
#06014:0014000000140000
#0601a:00000014
#06012:0000002300000000
#0601b:00230000
#05714:0014000000140000
#05718:1414
#0571a:00140000
#05712:0000001400002300
#0571b:00000023
#05710:41
#07015:0014000000140014
#07017:00141400
#0701b:23000023
#07012:0000002300000000
#06716:0000001400000000
#06717:0014000000000000
#06714:00140000
#06715:14
#06719:00000025
#06712:0000000000250000
#06917:1400000000140000
#06915:0014000014000000
#0691a:00140000
#06912:00000014
#06615:1400000000140000
#06617:0014000014000000
#0661b:0000000000002323
#06612:0000232300000000
#06815:1414
#06817:0014000000140000
#06812:00230014
#0681b:0000002300000000
#06517:0014000000140000
#06515:1414
#06513:00140000
#06519:0000001400000000
#06512:00000023
#0651b:00000023
#09315:0013
#09318:13
#09312:0000240000000024
#0931a:0053002400002400
#09313:0000000000530000
#09314:00000000000000000053000000000000
#09319:00530000000000000000000000000000
#12713:1a
#12719:00250000
#0721b:0023000000000000
#07212:0000002300230023
#07217:00632323
#07216:23
#07219:00000063000000000000000000000000
#10312:00002323
#10317:00002424
#10315:0054000000000000
#1031b:0053000000000000
#12319:00250000
#12312:23
#0961a:24
#09614:00240000
#09618:0024
#09612:00000024
#10218:0026
#1021b:33333333333333330000000000000000
#10210:0041
#10512:00002323
#10516:0054000024002400
#1051b:0053000000000000
#10712:0054000023002300
#10716:00002424
#1071b:0053000000000000
#1001b:33333333333333333333333333333333
#14312:34343434343434345400000000000000
#14317:0067
#01258:16
#05252:1464
#0525a:1464
#14152:0064
#04456:0022
#04452:62
#04557:0023
#0455b:53
#04552:32
#04657:0023
#0465b:53
#04756:0024
#04752:64
#0475b:43
#04856:0024
#04852:64
#04955:0025
#04959:55
#04952:34
#05054:00000025
#05059:55
#05158:0054
#05154:0054
#05357:000000000000000000000000000000000000000000000000000000000000000000000000000000000000000000000000000000000000000000000000000000000000000000000000000000000000000000000000000000000000000000000000000000000000000000000000000000000000000000000000000000000000000000000000000000000000000000000000000000000000000000000000000000000000000000000000000000000000000000000000000000000000000000000000000000000000000000000000000000000000000000000000000000000000000000000000000000000000000000000000000000000000000000000000000000000000000000000000000000000000000000000000000000000000000000000000000000000000000000000000000000000000000000000000000000000000000000000000000000000000000000000000000000000000000000000000000000000000000000000000000000000000000000000000000000000000000000000022
#05457:22
#05652:35
#05659:45
#10258:0016
#10252:0016
#10152:000000000000000000000000000000000000000000000000000000000000000000000000000000000000000000000000000000000000000000000000000000000000000000000000000000000000000000000000000000000000000000000000000000000000000000000000000000000000000000000000000000000000000000000000000000000000000000000000000000000000000000000000000000000000000000000000000000000000000000000000000000000000000000000000002900000000000000000000000000000000000000000000000000000000000000000000000000000000000000000000000000000000000000000000000000000000000000000000000000000000000000000000000000000000000000000000000000000000000000000000000000000000000000000000000000000000000000000000000000000000000000000000000000000000000000000000000000000000000000000000000000000000000000000000000000000000000000000000
#10155:0029
#0995b:00000053
#09952:00530000
#09955:19
#1215a:44
#12152:003c
#12552:00150000
#12559:00000015
#12652:1500000000000034
#1265a:0044
#12452:1534
#12459:15
#1245a:0000000000000044
#12852:1534
#12859:15
#1285a:0000000000000044
#12959:00150000
#12952:00150038
#13358:00001616
#13352:0000000000160000
#13452:0016001600000000
#13458:00160000
#13558:00001616
#13552:0000000000160000
#13752:17001717
#13759:55
#13755:00250000
#13757:0000000000170000
#13857:0017001700000000
#13852:00170000
#13952:00001717
#13957:0000000000170000
#00252:0013
#0025b:00000013
#00652:00000013
#0065b:0013
#01054:000000000014
#01058:000000000000000000000056
#0115c:00000000000000220000000000000000
#03958:00000013
#03955:00000013
#04358:12
#07852:16
#07858:16
#0775c:0000002200000000
#07752:5500002200000000
#07759:55
#0895a:00000014
#08659:45
#08652:0014
#08752:0014
#08852:0014
#0815a:00000014
#0905a:0014
#0915a:0014
#0925a:0014
#13156:0048
#14257:0027
#02052:14
#01952:00000056
#05952:00000015
#05959:0000000000150000
#05954:0000006400000000
#06452:15
#06459:15
#0615a:00000044
#06152:00340000
#0605a:00000044
#06756:0000005400000000
#06759:00000015
#06752:0000000000150000
#06852:00000034
#0695a:00440000
#06952:00000034
#03252:00000013
#0345a:00000014
#03652:00000014
#03859:00000015
#07152:00130000
#010380:000000000000000000000016
#0113c0:00000000000000520000000000000000
#012380:26
#019320:00000016
#020320:24
#020391:1300005300530000
#020371:0033
#021391:23
#021340:1300005300530000
#021320:0033
#022340:23
#022391:1300005300530000
#022371:0033
#023391:23
#023340:1353005300530053
#023320:00330033
#024340:23
#024391:1300005300530000
#0243b1:0033
#025391:23
#025340:1300005300530000
#025360:0033
#026340:23
#026391:1300005300530000
#0263b1:0033
#027391:23
#027340:1353005300530053
#027360:00330033
#028340:23
#039320:0015
#039350:00000000000000000053000023000000
#044320:12
#044360:0052
#045320:22
#0453b1:13
#045371:0053
#0463b1:33
#046371:0053
#0473b1:23
#047320:14
#047360:0054
#048320:34
#048360:0054
#049320:24
#049391:15
#049351:0055
#050391:35
#050341:00000055
#051381:0034
#051391:00000034
#0523a1:24
#051340:0014
#051330:00000034
#052320:24
#052320:0014
#053370:000000000000000000000000000000000000000000000000000000000000000000000000000000000000000000000000000000000000000000000000000000000000000000000000000000000000000000000000000000000000000000000000000000000000000000000000000000000000000000000000000000000000000000000000000000000000000000000000000000000000000000000000000000000000000000000000000000000000000000000000000000000000000000000000000000000000000000000000000000000000000000000000000000000000000000000000000000000000000000000000000000000000000000000000000000000000000000000000000000000000000000000000000000000000000000000000000000000000000000000000000000000000000000000000000000000000000000000000000000000000000000000000000000000000000000000000000000000000000000000000000000000000000000000000000000000000000000000052
#056320:25
#0523a1:0014
#054371:52
#056391:25
#059341:0000001400000000
#059321:0000000000240000
#067361:0000001400000000
#0673a1:0000000000240000
#071371:1424
#077321:1500005200000000
#078321:26
#077390:15
#0773c0:0000005200000000
#078380:26
#094380:14545454545454545454545454545454
#094390:0052005200520052005200520052005200520052005200520052005200520052
#095380:24
#095341:14545454545454545454545454545454
#095351:0052005200520052005200520052005200520052005200520052005200520052
#096341:24
#0963a0:14545454240000000000000000000000
#0963b0:0052005200520052000000000000000000000000000000000000000000000000
#096341:00000000145454542400000000000000
#096351:0000000000000000005200520052005200000000000000000000000000000000
#096380:00000000000000001454545424000000
#096390:0000000000000000000000000000000000520052005200520000000000000000
#096321:00000000000000000000000014545454
#096331:0000000000000000000000000000000000000000000000000052005200520052
#097321:24
#097360:14545454545454542400000000000000
#097370:0052005200520052005200520052005200000000000000000000000000000000
#0983b0:00130000
#099350:29
#099320:00130000
#101320:000000000000000000000000000000000000000000000000000000000000000000000000000000000000000000000000000000000000000000000000000000000000000000000000000000000000000000000000000000000000000000000000000000000000000000000000000000000000000000000000000000000000000000000000000000000000000000000000000000000000000000000000000000000000000000000000000000000000000000000000000000000000000000000000005900000000000000000000000000000000000000000000000000000000000000000000000000000000000000000000000000000000000000000000000000000000000000000000000000000000000000000000000000000000000000000000000000000000000000000000000000000000000000000000000000000000000000000000000000000000000000000000000000000000000000000000000000000000000000000000000000000000000000000000000000000000000000000000
#102320:0026
#0993b1:00000000000000000000000013333333
#1003b1:33333333333333333333333333333333
#1013b1:33333333333333330033333333333333
#101351:0039
#1023b1:33333333333333330000000000000000
#102381:0026
#102351:00000014
#103351:0024000000000000
#1023b0:00000013
#1033b0:0023000000000000
#103370:00000014
#104370:0024000000000000
#103321:00000013
#104321:0023000000000000
#104361:00000014
#105361:0024000000000000
#1043b0:00000013
#1053b0:0023000000000000
#105360:00000014
#106360:0024000000000000
#105321:00000013
#106321:0023000000000000
#106361:00000014
#107321:0024000000000000
#1063b0:00000013
#1073b0:0023000000000000
#107360:00000014
#1083a0:0024000000000000
#107321:00000013
#108321:0023000000000000
#108321:00000014
#109361:0024000000000000
#1083b0:00000013
#1093b0:0023000000000000
#123320:00000000155555555555555525000000
#123330:0000000000000000005300530053005300530053005300530000000000000000
#123391:00000000155555555555555525000000
#1233a1:0000000000000000005300530053005300530053005300530000000000000000
#125391:00000000155555555555555525000000
#1253a1:0000000000000000005300530053005300530053005300530000000000000000
#127321:00000000155555555555555525000000
#127331:0000000000000000005300530053005300530053005300530000000000000000
#127390:00000000155555555555555525000000
#1273a0:0000000000000000005300530053005300530053005300530000000000000000
#136390:0000001500000000
#137390:3525
#137370:00350000000000000000000000000000
#137350:00003535353535350000000000000000
#140320:0000001500000025
#141320:00000000000000001434343434343434
#142320:34343434343434340034343434343434
#142370:0037
#143320:34343434343434342400000000000000
#141371:0017
#143371:0027
#029980:13
#0299a0:0023000000000000
#030950:13
#030930:0023000000000000
#033920:0013
#033950:00000000000000000000002300000000
#033980:00000013
#0339b0:00000000000000000000000000000023
#0359a0:0014
#035970:00000000000000000000002400000000
#035950:00000014
#035920:00000000000000000000000000000024
#037920:0015
#037990:00000000000000000000000000000025
#0729b0:0013000000000000
#072970:00230000
#073920:0013000000000000
#073960:00230000
#076920:16
#076960:0024000000000000
#076980:0016
#076960:0000000000240000
#081950:13
#081930:0023000000000000
#085980:13
#0859a0:0023000000000000
#089950:13
#089930:0023000000000000
#093980:13
#0939a0:0023000000000000
#093950:0013
#093930:0000000000230000
#1209a0:0014
#120920:00000058
#1219a0:24
#121921:142c
#121961:00580000
