This file was generated by Ched 2.7.0.0.
#TITLE ""
#ARTIST ""
#DESIGNER ""
#DIFFICULTY 0
#PLAYLEVEL
#SONGID ""
#WAVE ""
#WAVEOFFSET 0
#JACKET ""
#REQUEST "ticks_per_beat 480"
#00002: 4
#BPM01: 160
#BPM02: 300
#00008: 01
#01208: 02
#TIL00: "0'0:1"
#VOLUME: ""
#HISPEED 00
#MEASUREHS 00
#00118:135353530000000000000000
#00115:000000000000135353530000
#01216:0013
#0121a:24240000
#01215:0000000000530000
#01214:00000053
#05714:14
#05718:0014
#05712:0000002300002300
#0571b:00230000
#05710:41
#03215:1353530000000000
#03212:00000024
#0321a:0024
#03115:1400000000140000
#0311a:00140014
#0731a:14
#07314:00131313
#07317:0000001300130013
#07718:0013001300000000
#07715:23232300
#11912:00001414
#11916:15
#11918:00160000
#11917:0000000000230000
#1201a:14140000
#12012:0014
#12013:00000014
#12016:0023000000000000
#12017:0000000000230000
#12018:0000000000000023
#12114:14000014
#12115:00140000
#12119:0023000000000000
#1211a:0024
#12113:0000000000000054
#12418:0015
#12413:0000000000000015
#12412:0025
#12419:0000000000000025
#13014:14140000
#13018:00001414
#13012:0000000000240000
#13114:14140000
#13112:00000014
#1311a:0024000000000000
#13119:0025
#14112:00000000000000001434343434343434
#14117:65
#14118:0065000000000000
#14119:00650000
#1411a:0000006400000000
#1411b:0063
#00515:001300130000000000000000
#00518:131300000000
#00514:000000000000001300130000
#00519:000000131300
#00613:001300130000000000000000
#0061a:131300000000
#00612:0023
#0061b:00000023
#00815:001300001300
#00818:001300000000000000130000
#0081b:000000130000002300000000
#00812:1323
#02118:0024000000001400
#02112:14
#02114:00140000
#02116:0014
#04018:0000000013000013
#04015:13000013
#0401a:00240000
#04012:0000002400000000
#05818:14
#05814:00140000
#0581b:00000023
#05813:0000005400000000
#05812:0054
#05914:1400001400001400
#05918:00130000
#0591b:0000000000230000
#08118:00001414
#08114:0000000000140000
#0811a:14
#08112:0000246400000000
#10012:33333333333333333333333333331b33
#09912:00000000140000000000000014333333
#09914:24
#09918:0024000000000000
#0991a:0024
#10918:00000014
#10914:0000000000000014
#1091b:0023
#10912:0053000000230000
#1101a:00001414
#11018:14
#11012:00230000
#11118:00140000
#11112:00001414
#11115:2363000000000000
#11214:00140000
#1121a:00001414
#11218:2363000000000000
#11318:00140000
#11312:00001414
#11315:2363000000000000
#00218:135353530000000000000000
#0021b:00000023
#00212:0023
#00315:13
#00318:0013
#00314:005300000000000000000000
#00313:005300000000
#00312:00530000
#00319:000000000000005300000000
#0031a:000053
#0031b:00000053
#01014:00180000
#01012:343434343434003434343434343434343434343434345600
#00912:230000000000000000000000143434343434343434343434
#00915:001300000000
#00918:00130000
#0091b:002300000000000000000000
#01512:0014
#0151a:00000014
#01517:24240000
#01315:0013
#01319:24240000
#01314:0000000000530000
#01313:00000053
#01414:0013
#01418:24240000
#01413:0000000000530000
#01412:00000053
#01617:0013
#01612:24240000
#01610:41
#01618:0000000000530000
#01619:00000053
#0191a:0014
#01912:00000014
#01915:24240000
#01718:0013
#01713:24240000
#01719:0000000000530000
#0171a:00000053
#01819:0013
#01814:24240000
#0181a:0000000000530000
#0181b:00000053
#0201a:14
#02018:00140000
#02016:0014
#02014:00000014
#0221a:14
#02218:00140000
#02216:0014
#02214:00000014
#02312:14
#02314:00140000
#02318:0024000024002400
#02514:0024000000001400
#0251a:14
#02518:00140000
#02516:0014
#02412:14
#02414:00140000
#02416:0014
#02418:00000014
#02612:14
#02614:00140000
#02616:0014
#02618:00000014
#0271a:14
#02718:00140000
#02714:0024000024002400
#03012:00000013
#03019:0053005300000013
#0301b:1353
#03017:00530000
#03615:13
#03612:00000024
#0361a:0024
#03614:0053000000000000
#03613:00530000
#04118:0000000013000013
#04115:13000013
#0411a:00240000
#04112:0000002400000000
#04215:13000013
#04218:0000000013000013
#0421a:00240000
#04212:0000002400000000
#04210:41
#04715:13
#04812:13
#04818:23
#04918:13
#05116:14
#05119:00000033
#05118:0033
#05614:00140000
#0561b:00000023
#0561f:21
#05613:0000005400000000
#05612:0054
#07014:14001414
#07018:00140000
#0701b:0000000000230000
#0621a:1454
#06212:00000023
#06219:0054005400000000
#06218:00540000
#07212:14
#07216:0000002300230023
#07219:00232323
#0751b:0013
#07512:24
#07518:0000230000000053
#07515:0000002300000000
#0751a:0000000000530000
#07519:00000053
#07818:2614
#07812:0000246400000000
#07814:0000000000002464
#07810:41
#0791a:14
#07918:0014
#07912:0000246400000000
#07914:0000000000002464
#0801a:14
#08018:0014
#08012:0000246400000000
#08014:0000000000002464
#08214:0014
#08212:24
#0821a:0000246400000000
#08218:0000000000002464
#08312:14
#08314:0014
#0831a:0000246400000000
#08318:0000000000002464
#08412:14
#08414:0014
#0841a:0000246400000000
#08418:0000000000002464
#08512:14000014
#0851a:0000000024640000
#08518:00240000
#08514:0000002400000000
#08918:00001414
#08914:0000240000140000
#0891a:14
#08912:0000006400000000
#08618:0014
#0861a:24
#08614:0000240000000064
#08612:0000006400002400
#0871a:14
#08718:0014
#08714:0000240000000064
#08712:0000006400002400
#0881a:14
#08818:0014
#08814:0000240000000064
#08812:0000006400002400
#09312:14000014
#09318:00242400
#09314:0000002400000000
#0931a:0000000000640000
#09014:0014
#09012:24
#09018:0000240000000064
#0901a:0000006400002400
#09112:14
#09114:0014
#09118:0000240000000064
#0911a:0000006400002400
#09212:14
#09214:0014
#09218:0000240000000064
#0921a:0000006400002400
#09418:14141414
#09412:0000000000240000
#09514:14141414
#0951a:0000000000240000
#0961a:14
#09618:00140000
#09616:0014
#09614:00000014
#09712:1414
#09717:0000240000000064
#0971a:0000006400002400
#09812:1414
#09817:00240000
#0981a:0000006400002400
#11412:00001414
#11418:23230000
#11415:0023000000000000
#11514:00140000
#1151a:00001414
#11518:23
#1151b:0063000000000000
#12218:00140000
#12214:00000014
#12212:54
#12219:0000005400000000
#1221a:0054
#12213:0000000000000054
#12518:00150000
#12512:00250000
#12613:0015
#12618:0000000000000015
#12619:0025
#12612:0000000000000025
#12713:00150000
#12719:00250000
#12818:0015
#12813:0000000000000015
#12812:0025
#12819:0000000000000025
#12918:00150000
#12912:00250000
#12919:00000025
#13312:1415
#13317:0000000000150000
#13316:00240000
#13519:0015
#13514:0000000000150000
#13512:25
#14215:0019
#14212:34343434343434340034343434343434
#0431f:11
#04315:13
#07418:00231300
#07412:24
#07415:0000002300000000
#07419:0000000000530000
#0741a:00000053
#0741b:0000000000000053
#13212:14000014
#1321a:00141400
#13216:0000002400000024
#13415:0000000000150000
#13414:00350000
#13413:00000035
#13412:0000000000000035
#13712:0015
#13717:0000000000150000
#13714:29
#13815:0000000000150000
#13814:00350000
#13813:00000035
#13812:0000000000000035
#13919:0015
#13914:0000000000150000
#13912:25
#03515:1353530000130000
#0351a:00002424
#00719:00130000
#00715:001300001300
#00718:001300000000001300000000
#00714:13
#0071a:00000013
#00713:0013
#0281b:13
#02818:00130000
#02815:0013
#02812:00000013
#02810:41
#02915:0013000000000000
#0291b:13130000
#02912:00001313
#02918:0000000000130000
#06114:14
#06118:0014
#06112:0000002300002300
#0611b:00230000
#06018:14
#06014:00140000
#0601b:00000023
#06013:0000005400000000
#06012:0054
#06318:1400001400001400
#06315:00130000
#06312:0000000000230000
#06518:14
#06514:0014
#0651b:0000002300002300
#06512:00230000
#06614:14
#06618:00140000
#06612:00000023
#06619:0000005400000000
#0661a:0054
#06718:1400001400001400
#06715:00130000
#06712:0000000000230000
#06414:14
#06418:00140000
#06412:00000023
#06419:0000005400000000
#0641a:0054
#06918:14
#06914:0014
#0691b:0000002300002300
#06912:00230000
#06814:14
#06818:00140000
#06812:00000023
#06819:0000005400000000
#0681a:0054
#07118:14001414
#07114:00140000
#07112:0000000000230000
#11618:00140000
#11612:0063000014001400
#11615:23
#11714:00140000
#1171a:00001414
#11718:23
#1171b:0063000000000000
#11818:00140000
#11812:0063000013000000
#11814:00000014
#11815:23
#00415:13
#0041b:0023
#00412:00530023
#00414:005300000000000000000000
#00413:005300000000
#03318:1353530000000000
#03312:00002424
#0331a:0000000000240000
#03418:1353530000000000
#0341a:00000024
#03412:0024
#03718:13
#03712:00002424
#0371a:0000530000240000
#03719:0053000000000000
#03818:13
#0381a:00530024
#03812:0024
#03819:0053000000000000
#03915:13
#03914:0053000000000000
#03913:00530000
#0391a:0000006464006400
#0501b:13
#05015:23
#04518:13
#0461a:13
#04615:23
#04414:13
#04418:23
#12319:00250000
#12312:54
#10318:0053000023000000
#05212:0023
#10512:0053000023000000
#10718:0053000023000000
#10112:33333333333333333333333333333333
#14312:34343434343434345600000000000000
#10210:0041
#10212:56
#0761b:0000005300000053
#07619:00530053
#07612:0063000000630000
#07614:6363
#14016:0000000000000065
#14152:0064
#10052:000000000000002b
#09952:00000064
#13754:19
#01054:00280000
#00952:0054
#04755:53
#04852:23
#04958:63
#05156:24
#05652:16
#05658:16
#1215a:0014
#12456:15
#12655:15
#12856:15
#13552:15
#14255:0029
#12959:00000015
#13159:0015
#13455:0000000000550000
#13855:0000000000550000
#13952:15
#0025b:00000013
#00252:0013
#00652:0013
#0065b:00000013
#0045b:0013
#00452:00000013
#07858:16
#0865a:14
#11458:00130000
#1045b:0013000000000000
#10655:0013000000000000
#1085b:0013000000000000
#0505b:63
#04558:63
#0465a:23
#04355:53
#04454:23
#009320:000000000000000000000000143434343434343434343434
#010320:343434343434003434343434343434343434343434342600
#010340:00380000
#043350:13
#044340:53
#045350:23
#045381:13
#0463a1:53
#047381:23
#047350:13
#048320:53
#049350:23
#049381:13
#0503b1:33
#051361:54
#051381:0033
#051391:00000033
#0523b1:3333
#056381:26
#052320:0013
#056320:26
#099320:00000000000000000000000014333333
#100320:33333333333333333333333333333b33
#101320:33333333333333333333333333333333
#102320:26
#1023b0:0013
#102380:00000033
#103380:0023000000000000
#103380:0013
#1033b0:00000033
#1043b0:0023000000000000
#104350:0013
#104320:00000033
#105320:0023000000000000
#105320:0013
#105350:00000033
#106350:0023000000000000
#1063b0:0013
#106380:00000033
#107380:0023000000000000
#107380:0013
#1073b0:00000033
#1083b0:0023000000000000
#108350:0013
#108320:00000033
#109320:0023000000000000
#123390:00000000155555555555555535000000
#1233a0:0000000000000000005300530053005300530053005300530000000000000000
#123360:0000000000000055
#124360:25
#125320:00000000155555555555555535000000
#125330:0000000000000000005300530053005300530053005300530000000000000000
#125350:0000000000000055
#126350:25
#127390:00000000155555555555555535000000
#1273a0:0000000000000000005300530053005300530053005300530000000000000000
#127360:0000000000000055
#128360:25
#133320:00000015
#134320:0035000000000035
#134340:00350000
#134350:0000003500350000
#134330:00000035
#135320:25
#135390:00000015
#136390:0035000000000000
#136360:0000003500000055
#137340:29
#137320:00000015
#138320:0035000000000035
#138340:00350000
#138350:0000003500350000
#138330:00000035
#139320:25
#139390:00000015
#140390:0035000000000000
#140360:0000003500000025
#141320:00000000000000001434343434343434
#142320:34343434343434340034343434343434
#142350:0039
#143320:34343434343434342500000000000000
#001980:13230000
#001950:00001323
#002980:13230000
#003950:13
#003920:00230000
#003980:0013
#0039b0:00000023
#004950:13
#004920:00230000
#012960:0013
#012940:00000023
#013950:0013
#013930:00000023
#014940:0013
#014920:00000023
#016970:0013
#016990:00000023
#017980:0013
#0179a0:00000023
#018990:0013
#0189b0:00000023
#0309b0:1323
#030970:00530000
#032950:13230000
#033980:13230000
#034980:13230000
#035950:13230000
#036950:13
#036930:00230000
#037980:13
#0379a0:00230000
#038980:13
#0389a0:00230000
#039950:13
#039930:00230000
#0399a0:0000001400002400
#056940:00140000
#056920:0024
#058940:00140000
#058920:0024
#060940:00140000
#060920:0024
#0629a0:1424
#062980:00540000
#064980:00140000
#0649a0:0024
#066980:00140000
#0669a0:0024
#068980:00140000
#0689a0:0024
#074980:0013
#0749b0:0000000000000023
#0759b0:0013
#075980:0000000000000023
#076940:13
#076920:0023000000000000
#076990:00130000
#0769b0:0000002300000000
#076940:0013
#076920:0000000000230000
#076990:00000013
#0769b0:0000000000000023
#078920:0000142400000000
#078940:0000000000001424
#079920:0000142400000000
#079940:0000000000001424
#080920:0000142400000000
#080940:0000000000001424
#081920:0000142400000000
#0829a0:0000142400000000
#082980:0000000000001424
#0839a0:0000142400000000
#083980:0000000000001424
#0849a0:0000142400000000
#084980:0000000000001424
#0859a0:0000000014240000
#086940:00140000
#086920:0000002400000000
#086920:00000014
#086940:0000000000000024
#087940:00140000
#087920:0000002400000000
#087920:00000014
#087940:0000000000000024
#088940:00140000
#088920:0000002400000000
#088920:00000014
#088940:0000000000000024
#089940:00140000
#089920:0000002400000000
#090980:00140000
#0909a0:0000002400000000
#0909a0:00000014
#090980:0000000000000024
#091980:00140000
#0919a0:0000002400000000
#0919a0:00000014
#091980:0000000000000024
#092980:00140000
#0929a0:0000002400000000
#0929a0:00000014
#092980:0000000000000024
#093980:0014
#0939a0:0000000000240000
#097970:00140000
#0979a0:0000002400000000
#0979a0:00000014
#097970:0000000000000024
#098970:00140000
#0989a0:0000002400000000
#111950:1323000000000000
#112980:1323000000000000
#113950:1323000000000000
#115980:13
#1159b0:0023000000000000
#116950:13
#116920:0023000000000000
#117980:13
#1179b0:0023000000000000
#118950:13
#118920:0023000000000000
#121940:00000014
#122920:24
#122980:00140000
#1229a0:0024
#122940:00000014
#123920:24
#140960:0000000000000015
#141990:00550000
#1419b0:0023
