This file was generated by Ched 2.7.0.0.
#TITLE ""
#ARTIST ""
#DESIGNER ""
#DIFFICULTY 0
#PLAYLEVEL
#SONGID ""
#WAVE ""
#WAVEOFFSET 0
#JACKET ""
#REQUEST "ticks_per_beat 480"
#00002: 4
#BPM01: 160
#00008: 01
#TIL00: ""
#VOLUME: ""
#HISPEED 00
#MEASUREHS 00
#0101a:14
#01114:14
#01214:14
#01318:14
#01418:14
#01512:14
#01612:14
#0171a:14
#01710:41
#01814:14
#0191a:14
#02014:14
#02118:14
#02212:14
#02318:14
#02412:14
#02718:0016
#02712:26
#02710:41
#02812:16
#02818:0016
#02912:16
#02918:0016
#03012:16
#03018:0016
#03318:1616
#03412:1616
#03512:0016
#03518:26
#03618:16
#03612:0016
#03718:16
#03712:0016
#03710:41
#03818:16
#03812:0016
#04112:1616
#04218:1616
#04518:14
#04612:14
#0471a:14
#04814:14
#04918:14
#04910:41
#05012:14
#05114:0014
#0511f:11
#0511a:24
#0521a:14
#05312:14
#05318:0014
#05412:14
#05518:14
#05512:0014
#05618:14
#05714:14
#0571a:0014
#05814:14
#06012:0016
#06018:26
#0601f:21
#06010:0041
#06212:16
#06218:0016
#06612:1616
#06718:1616
#07418:1616
#07410:41
#07512:1616
#06818:0016
#06812:26
#07018:16
#07012:0016
#07812:14
#0791a:14
#0091a:24
#03112:2626
#03212:2626
#03918:2626
#04018:2626
#06418:2626
#06518:2626
#07212:2626
#07312:2626
#08414:24
#0013a0:14
#0023a0:24
#003320:14
#004320:24
#005380:14
#006380:24
#007340:14
#008340:24
#025380:16
#026380:26
#043320:16
#044320:26
#061380:1626
#063320:1626
#069320:1626
#071380:1626
#076380:16
#077380:26
#080340:14
#081340:24
#082380:14
#083380:24
