This file was generated by Ched 2.7.0.0.
#TITLE ""
#ARTIST ""
#DESIGNER ""
#DIFFICULTY 0
#PLAYLEVEL
#SONGID ""
#WAVE ""
#WAVEOFFSET 0
#JACKET ""
#REQUEST "ticks_per_beat 480"
#00002: 4
#BPM01: 160
#00008: 01
#TIL00: ""
#VOLUME: ""
#HISPEED 00
#MEASUREHS 00
#0461b:0000131300000000
#04615:13
#04618:0013000000130013
#04612:0000242400002400
#0671b:0013
#06719:00130000
#06713:0000001300000000
#06714:00130014
#0671a:0000001300000000
#06712:0023
#06718:00000024
#00918:00130013
#0091b:0013
#00915:0000000013000013
#00912:00130000
#0091a:24
#01015:0000130000000013
#01018:0000001300000000
#01012:0014
#01016:0000000000140000
#0101a:00000014
#0101b:13
#01118:0013001300130013
#01115:00130013
#01112:0013
#0131b:13
#01312:1313
#01315:0000130000000013
#01318:0000001300001300
#0141b:1300001300000013
#01412:1300000000000013
#01418:0013000000000000
#01415:0000130000130000
#01518:0013000000001300
#01515:00131300
#0151b:0000001300000000
#01512:0000000000000013
#01612:0013000000001300
#01618:00130013
#01615:0000001300130000
#0161b:0013
#02112:2413
#0211b:1300000000130000
#02115:0014000000001300
#02118:0000000000000013
#02117:0000001400000000
#0211a:00240000
#02515:0013000000000000
#02518:00130014
#02512:1400002400140000
#0251a:24
#0271b:0000000000130013
#02712:2300001300000000
#02718:0013
#0271a:24
#02715:00230023
#02710:41
#02818:00160013
#02815:0000000000130013
#02812:2613
#0291b:1300000000000013
#02915:0000000000130000
#02912:0000000000000013
#02918:00130013
#02916:0013000000000000
#03012:0013000000000000
#03018:0000240000240000
#03014:0000002400000024
#0301a:0024
#03016:00000024
#03218:0000000000130000
#03215:00000013
#03212:2400002424000013
#03216:00140000
#0321a:1414
#0331b:0000000013000013
#03312:0013000000130013
#03315:00130000
#03318:1300001300000000
#03418:0013001300002300
#03415:00130013
#0341b:0013
#03412:0023
#03116:00140014
#0311a:1414
#03112:2400002424000024
#03916:00140014
#03912:1414
#0391a:2400002424000024
#04016:00140014
#04012:1414
#0401a:2400002424000024
#04116:00160000
#04114:00000016
#04112:2400002424000000
#0411a:2400000024000024
#0421a:2414
#04215:00000000000000000000001300000000
#04212:2400002424000013
#04218:00000000000000000000001300000000
#0421b:0000000000000013
#04216:00160000
#0441b:0000131300000000
#04418:0000000000130013
#04412:0000242400002400
#04715:0013000000000013
#04712:0000001300000000
#04718:0013
#0471a:00240024
#04912:13130000
#04918:1313
#0491a:00240024
#04913:0000000000330033
#04910:41
#06417:00140014
#0641a:1414
#06412:0000002400000024
#06415:2424
#0651a:1414
#06517:0000140000000014
#06519:0000000000140000
#06518:00000014
#06515:2424
#06512:0000002400000024
#06514:0000000000240000
#06513:00000024
#06612:0014000000140014
#06614:00140000
#06616:0000001400000000
#06618:0014
#0661a:0000000000140014
#07612:14
#0761a:14
#07616:000000000000000000000000000000000000000000000000000000000000000000000000000000000000000000000000000000000000000000000000000000000000000000000000000000000000000000000000000000000000000000000000000000000000000000000000000000000000000000000000000000000000000000000000000000000000000000000000000000000000000000000000000000000000000000000000000000000000000000000000000000000000000000000000000000000000000000000000000000000000000000000000000000000000000000000000000000000000000000000000000000000000000000000000000000000000000000000000000000000000000000000000000000000000000000000000000000000000000000000000000000000000000000000000000000000000000000000000000000000000000000000000000000000000000000000000000000000000000000000000000000000000000000000000000000000000000000000000000000000000000000000000000000000000000000000000000000000000000000000000000000000000000000000000000000000000000000000000000000000000000000000000000000000000000000000000000000000000000000000000000000000000000000000000000000000000000000000000000000000000000000000000000000000000000000000000000000000000000000000000000000000000000000000000000000000000000000000000000000000000000000000000000000000000000000000000000000000000000000000000000000000000000000000000000000000000000000000000000000000000000000000000000000000000000000000000000000000000000000000000000000000000000000000000000000000000000000000000000000000000000000000000000000000000000000000000000000000000000000000000000000000000000000000000000000000000000000000000000000000000000000000000000000000000000000000000000000000000000000000000000000000000000000000000000000000000000000000000000000000000000000000000000000000000000000000000000000000000000000000000000000000000000000000000000000000000000000000000000000000000000000000000000000000000000000000000000000000000000000000000000000000000000000000000000000000000000000000000000000000000000000000000000000000000000000000000000000000000000000000014140000000000000000000000000000000000000000000000000000000000000000000000000000000000000000000000000000000000000000000000000000000000000000000000000000000000000000000000000000000000000000000000000000000000000000000000000000000000000000000000000000000000000000000000000000000000000000000000000000000000000000000000000000000000000000000000000000000000000000000000000000000000000000000000000000000000000000000000000000000000000000000000000000000000000000000000000000000000000000000000000000000000000000000000000000000000000000000000000000000000000000000000000000000000000000000000000000000000000000000000000000000000000000000000000000000000000000000000000000000000000000000000000000000000000000000000000000000000000000000000000000000000000000000000000000000000000000000000000000000000000000000000000000000000000000000000000000000000000000000000000000000000000000000000000000000000000000000000000000000000000000000000000000000000000000000000000000000000000000000000000000000000000000000000000000000000000000000000000000000000000000000000000000000000000000000000000000000000000000000000000000000000000000000000000000000000000000000000000000000000000000000000000000000000000000000000000000000000000000000000000000000000000000000000000000000000000000000000000000000000000000000000000000000000000000000000000000000000000000000000000000000000000000000000000000000000000000000000000000000000000000000000000000000000000000000000000000000000000000000000000000000000000000000000000000000000000000000000000000000000000000000000000000000000000000000000000000000000000000000000000000000000000000000000000000000000000000000000000000000000000000000000000000000000000000000000000000000000000000000000000000000000000000000000000000000000000000000000000000000000000000000000000000000000000000000000000000000000000000000000000000000000000000000000000000000000000000000000000000000000000000000000000000000000000000000000000000000000000000000000
#00118:00130000
#00117:00000013
#00114:0000000000000013
#0011b:0013000000000000
#00115:0000001300000000
#0011a:0013
#00112:23
#0021b:00130000
#00212:0000001300130000
#00218:00000013
#00215:0000000000000013
#00219:13
#0031b:13131300
#00315:0000000000130000
#00312:0000000000000013
#00318:00000013
#0041b:1300000000130000
#00415:0013131300001300
#00418:0000000000000013
#02212:1300001300000013
#0221b:1300000000000013
#02215:0013000000000000
#02218:0000130000130000
#02315:0013000000001300
#02318:00131300
#02312:0000001300000000
#0231b:0000000000000013
#02418:0000130000130013
#02415:0000001300001300
#0241b:0013000013000000
#02412:1313
#03618:2600000000130013
#03615:00000013
#03612:00160000
#0361b:0013
#03712:1300000000000013
#03715:00130013
#03717:0013000000000000
#03718:0000000000130000
#0371b:0000000000000013
#03710:41
#0451b:13130000
#04515:1313
#04512:00240024
#0451a:0000000000330033
#04818:13
#04812:0000131300000000
#04815:0000000000130013
#0481a:0000242400002400
#05712:1414001400000000
#05717:00150000
#0571a:0000000014140014
#05714:00000015
#05615:0013000000130000
#0561b:13231323
#05618:0000001300000000
#05612:23132313
#04315:13
#04312:0013
#04318:13
#0431b:0013
#05113:0000135300000000
#05114:0000000013530000
#05115:0000000000001353
#05112:1353000000000000
#0511f:11
#0511b:2363000000000000
#0511a:0000236300000000
#05119:0000000023630000
#05118:0000000000002363
#05314:0000135300000000
#05313:0000000013530000
#05312:0000000000001353
#05315:1353000000000000
#05318:2363000000000000
#05319:0000236300000000
#0531a:0000000023630000
#0531b:0000000000002363
#0551b:00131300
#05515:0013000000140000
#05512:00130013
#05517:0000000000000014
#05518:13
#06015:00000013
#06012:6413
#06018:2600000023000023
#0601b:00230023
#0601f:21
#06010:0041
#0121b:13
#01212:13
#01215:0013000000000000
#01214:0024
#01715:00130013
#01712:2413
#01718:0000000013000013
#0171b:00130000
#01710:41
#01818:0000130000000013
#01815:0000001300000000
#0181a:0014
#01816:0000000000140000
#01812:13000014
#01915:0013001300130013
#01918:00130013
#0191b:0013
#02012:13
#0201b:13
#02018:0013000000000000
#0201a:0024
#0351b:1300001300001300
#03518:00130000
#03515:0013
#03512:2400130000130013
#0381b:0013000000000000
#03814:0000240000240000
#03818:0000002400000024
#03812:0024
#03816:00000024
#05012:0000131300000000
#05018:13
#05015:0013000000130013
#0501a:0000242400002400
#0611a:1414
#06116:0014001400140014
#06112:26260014
#05412:0014
#0541a:24
#05419:0024
#06215:0014000000130000
#06214:0000000000000014
#06218:00130013
#0621a:14
#06212:00000000000000000000000000000000000000000000000000000000000000000000000000000000000000000000000000000000000000000054000000000000
#06314:0014002400000000
#06318:00240000
#0631a:0024
#06315:0000000000240000
#06312:00000000000000000054000000000000000000000000000000000000000000000000000000000000000000000000000000000000000000002400000000000000
#06317:00000024
#07215:00140014
#0721a:0000002400000024
#07217:2424
#07212:2424
#07315:00140014
#07317:2424
#0731a:0000002400000024
#07312:2424
#06818:00000013
#0681b:0013
#0681a:14
#06812:26230023
#06815:0000000023000023
#06912:1414
#06912:0014
#06916:0014001400140014
#0691a:00000014
#06918:26260000
#07718:00140014
#07715:0000001300130013
#07712:00130000
#07912:1300000000000013
#07915:0013001300130000
#07918:00140014
#0791b:13
#08019:00120000
#08018:00000012
#08016:0000000000000012
#0801b:0012000000000000
#08017:0000001200000000
#0801a:0012
#0811a:00120000
#08114:0000001200120000
#08116:00000012
#08118:0000000000000012
#08119:12
#0821a:12121200
#08218:0000000000120000
#08216:00000012
#08214:0000000000000012
#08315:0000000000120000
#08318:00000012
#0831b:1200000000000012
#08317:0012121200000000
#0781b:13130000
#07814:00140014
#07818:0000000000000013
#07812:13
#07819:0000000000330000
#08416:12
#00518:00130000
#00517:00000013
#00514:0000000000000013
#0051b:0013000000000000
#00515:0000001300000000
#0051a:0013
#00512:13
#0061b:00130000
#00612:0000001300130000
#00615:00000013
#00618:0000000000000013
#00619:13
#0071b:13131300
#00718:0000000000130000
#00712:0000000000000013
#00715:00000013
#00812:0000000000130000
#00818:00000013
#00815:0013131300000013
#0081b:13
#07018:0000000000130014
#07015:00130013
#07017:0014000000000000
#07012:14
#0701a:00000000000000000000000000000000000000000000000000000000000000000000000000000000000000000000000000000000000000000054000000000000
#07118:0014002400000000
#07114:00240000
#07112:0024
#07117:0000000000240000
#0711a:00000000000000000054000000000000000000000000000000000000000000000000000000000000000000000000000000000000000000002400000000000000
#07115:00000024
#05812:2424000000000000
#05818:0000242400000000
#05912:0024
#05914:0000000000640064
#05913:00000000000000000064000000000064
#05915:00000000000000000000006400640000
#05916:00000064
#0751a:0024
#07512:2400002400000000
#07517:24
#07518:00260000
#0261a:2424242400000000
#02615:0000005400005400
#05217:24
#05219:0024
#07412:2400002400002600
#0741a:0000000024000024
#07415:0024
#07417:24
#07418:00260000
#07410:41
#0105b:53
#0135b:63
#01352:0063
#00955:0063
#0095a:14
#0145b:0000006300000000
#01452:0000000000000063
#01455:0000000000130000
#01458:0000000000130000
#01555:0063
#01658:00000063
#0255a:14
#02552:0000001400000000
#0275a:14
#02758:0063
#02752:0000002300000000
#0275b:0000000000230000
#02755:00630000
#02155:0024000000000000
#02152:64
#02157:0000002400000000
#0215a:00540000
#02956:0063000000000000
#02958:00630000
#0295b:0000000000000063
#03552:1400000000230000
#03558:00630000
#03555:0063
#0355b:0000002300000000
#03156:00140014
#03256:00140000
#03956:00140014
#04056:00140014
#04156:00160000
#04154:00000016
#0425a:0064
#04252:0000000064000063
#04255:00000000000000000000006300000000
#04258:00000000000000000000005300000000
#0425b:0000000000000053
#04256:00160000
#06457:00140014
#06455:5454
#06557:00140000
#06555:54
#06652:0000000000140064
#0665a:0000000000140054
#07656:000000000000000000000000000000000000000000000000000000000000000000000000000000000000000000000000000000000000000000000000000000000000000000000000000000000000000000000000000000000000000000000000000000000000000000000000000000000000000000000000000000000000000000000000000000000000000000000000000000000000000000000000000000000000000000000000000000000000000000000000000000000000000000000000000000000000000000000000000000000000000000000000000000000000000000000000000000000000000000000000000000000000000000000000000000000000000000000000000000000000000000000000000000000000000000000000000000000000000000000000000000000000000000000000000000000000000000000000000000000000000000000000000000000000000000000000000000000000000000000000000000000000000000000000000000000000000000000000000000000000000000000000000000000000000000000000000000000000000000000000000000000000000000000000000000000000000000000000000000000000000000000000000000000000000000000000000000000000000000000000000000000000000000000000000000000000000000000000000000000000000000000000000000000000000000000000000000000000000000000000000000000000000000000000000000000000000000000000000000000000000000000000000000000000000000000000000000000000000000000000000000000000000000000000000000000000000000000000000000000000000000000000000000000000000000000000000000000000000000000000000000000000000000000000000000000000000000000000000000000000000000000000000000000000000000000000000000000000000000000000000000000000000000000000000000000000000000000000000000000000000000000000000000000000000000000000000000000000000000000000000000000000000000000000000000000000000000000000000000000000000000000000000000000000000000000000000000000000000000000000000000000000000000000000000000000000000000000000000000000000000000000000000000000000000000000000000000000000000000000000000000000000000000000000000000000000000000000000000000000000000000000000000000000000000000000000000000000000000000000024240000000000000000000000000000000000000000000000000000000000000000000000000000000000000000000000000000000000000000000000000000000000000000000000000000000000000000000000000000000000000000000000000000000000000000000000000000000000000000000000000000000000000000000000000000000000000000000000000000000000000000000000000000000000000000000000000000000000000000000000000000000000000000000000000000000000000000000000000000000000000000000000000000000000000000000000000000000000000000000000000000000000000000000000000000000000000000000000000000000000000000000000000000000000000000000000000000000000000000000000000000000000000000000000000000000000000000000000000000000000000000000000000000000000000000000000000000000000000000000000000000000000000000000000000000000000000000000000000000000000000000000000000000000000000000000000000000000000000000000000000000000000000000000000000000000000000000000000000000000000000000000000000000000000000000000000000000000000000000000000000000000000000000000000000000000000000000000000000000000000000000000000000000000000000000000000000000000000000000000000000000000000000000000000000000000000000000000000000000000000000000000000000000000000000000000000000000000000000000000000000000000000000000000000000000000000000000000000000000000000000000000000000000000000000000000000000000000000000000000000000000000000000000000000000000000000000000000000000000000000000000000000000000000000000000000000000000000000000000000000000000000000000000000000000000000000000000000000000000000000000000000000000000000000000000000000000000000000000000000000000000000000000000000000000000000000000000000000000000000000000000000000000000000000000000000000000000000000000000000000000000000000000000000000000000000000000000000000000000000000000000000000000000000000000000000000000000000000000000000000000000000000000000000000000000000000000000000000000000000000000000000000000000000000000000000000000000000000000000000000
#07652:54
#0765a:54
#01752:14
#01758:0053
#02358:0053
#0225b:0000000000000053
#02252:0000005300000000
#02258:0000000000130000
#02255:0000000000130000
#03352:0000000000130053
#03755:00530000
#03757:0053000000000000
#03752:0000000000000053
#04355:63
#04352:0023
#04358:53
#0435b:0023
#05253:00140000
#05257:00140000
#05255:00000014
#05259:00000014
#06058:46
#06052:0053
#0605b:00530000
#01852:63
#0205a:0054
#02852:36
#02858:00460000
#03652:00360000
#03658:46
#05457:00140000
#05453:00140000
#05455:00000014
#05459:00000014
#05452:0054
#0545a:54
#0565b:00000053
#05757:00150000
#05754:00000015
#06152:36560000
#0615a:54
#06156:0024002400000000
#06158:00460000
#06258:00630000
#06255:0064000000000000
#06254:0000000000000034
#06252:00000000000000000000000000000000000000000000000000000000000000000000000000000000000000000000000000000000000000000034000000000000
#07255:00140014
#07257:6464
#07355:00140014
#07357:6464
#06952:64360000
#06956:0024002400000000
#06958:46660000
#0685b:0063
#06852:36630000
#07758:00140014
#07854:00140014
#07958:00140014
#05552:00530000
#06354:0034000000000000
#06352:00000000000000000034000000000000000000000000000000000000000000000000000000000000000000000000000000000000000000000000000000000000
#07452:00000016
#07458:00160000
#07558:00160000
#07058:0000000000000044
#07055:00530000
#07057:0054000000000000
#0705a:00000000000000000000000000000000000000000000000000000000000000000000000000000000000000000000000000000000000000000044000000000000
#07158:0044000000000000
#0715a:00000000000000000044000000000000000000000000000000000000000000000000000000000000000000000000000000000000000000000000000000000000
#009350:0013
#009320:00000023
#0103b0:13
#010380:00230000
#012380:00140024
#012341:000000000000000000000000000000000000000000000000140054540054540054540000240000000000000000000000
#012331:000000000000000000000000000000000000000000000000000000000000000000000000000000000000000000000000000000000056000000000056000000000056000000000000000000000000000000000000000000000000000000000000
#0133b1:13
#013381:00230000
#013321:0013
#013351:00000023
#0143b1:0000001300000000
#014381:0000000000230000
#014321:0000000000000013
#015351:0023000000000000
#015351:0013
#015321:00000023
#016381:00000013
#0173b1:23
#017381:0013
#0173b1:00000023
#018321:13
#018351:00230000
#020341:00140024
#0203a0:0014
#020380:00000024
#021320:14240000
#021350:0054000000000000
#0213a1:00142400
#021371:0000005400000000
#022321:0000001300000000
#022351:0000000000230000
#0223b1:0000000000000013
#023381:0023000000000000
#023381:0013
#0233b1:00000023
#0253a1:0000001400240000
#025351:0000000000000014
#026351:0000002400000000
#027351:00132300
#027321:0000005300000000
#027380:00001323
#0273b0:0000000000530000
#029360:0013000000000000
#029320:0023
#029381:00130000
#0293b1:0023
#0293b1:0000000000000013
#030371:0023000000000000
#031321:14240000
#031321:00001424
#032321:14240000
#033321:0000000000000013
#034351:0023000000000000
#035381:00132300
#0353b1:0000005300000000
#035350:00001323
#035320:0000000000530000
#037370:0013000000000000
#0373b0:0023
#037351:00130000
#037321:0023
#037321:0000000000000013
#038361:0023000000000000
#0393a1:14240000
#0393a1:00001424
#0403a1:14240000
#0403a1:00001424
#041321:1400005456540054565400545654005456540054565400545654005456540000240000000000000000000000000000000000000000000000000000000000000000000000000000000000000000000000000000000000000000000000000000000000000000000000000000000000000000000000000000000000000000000000
#0413a1:0000000000000000000000000000000000000000000000000000000000000000000000000000000000000000000000000000000000000000000000000000000014000054005400540054005400540054005400540054005400540054005400002400000000000000000000000000000000000000000000000000000000000000
#041381:0000000000000000000000000000000000565656565656560000000000000000
#042321:1454565400545654005456540054565400545654005456540054565400545654240000000000000000000000000000000000000000000000000000000000000000000000000000000000000000000000000000000000000000000000000000000000000000000000000000000000000000000000000000000000000000000000
#042321:0000000014000033
#042351:00000000000000000000003300000000
#043351:33
#043321:0053
#044351:23
#0423a0:0014
#042380:00000000000000000000003300000000
#0423b0:0000000000000033
#043380:33
#0433b0:0053
#044380:23
#045380:0013
#0453a0:0000000000330033
#0453b0:00000033
#046380:23
#049350:0013
#049330:0000000000330033
#049320:00000033
#050350:23
#052370:1400000000000054005400000000005400540000000000540054000000000000240000000000000000000000000000000000000000000000000000000000000000000000000000000000000000000000000000000000000000000000000000000000000000000000000000000000000000000000000000000000000000000000
#052360:00565656000000000000000000000000
#052331:140000000000000000000000000000000000000000000000000000000000000054000000000000005400000000000000000000000000000054000000000000540000000000000000000000000000000054000000000000005400000000000000240000000000000000000000000000000000000000000000000000000000000000000000000000000000000000000000000000000000000000000000000000000000000000000000000000000000000000000000000000000000000000000000000000000000000000000000000000000000000000000000000000000000000000000000000000000000000000000000000000000000000000000000000000000000000000000000000000000000000000000000000000000000000000000000000000000000000000000000000000000000000000000000000000000000000000000000000000000000000000000000000000000000000000000000000000000000000000000000000000000000000000000000000000000000000000000000
#052321:0000005600560056000000000000000000000000000000000000000000000000
#052351:0000000000000000000000000000000000000000000000000000000000000000000000000000000000000000000000000000000000000000000000000000000014000000000000540054000000000054005400000000005400540000000000002400000000000000000000000000000000000000000000000000000000000000
#052341:00000000000000000056565600000000
#052390:000000000000000000000000000000000000000000000000000000000000000000000000000000000000000000000000000000000000000000000000000000000000000000000000000000000000000000000000000000000000000000000000000000000000000000000000000000000000000000000000000000000000000000000000000000000000000000000000000000000000000000000000000000000000000000000000000000000000000000000000000000000000000000000000140000000000000000000000000000000000000000000000000000000000000054000000000000005400000000000000000000000000000054000000000000540000000000000000000000000000000054000000000000005400000000000000240000000000000000000000000000000000000000000000000000000000000000000000000000000000000000000000000000000000000000000000000000000000000000000000000000000000000000000000000000000000000000000000
#052380:0000000000000000000000000000000000000056005600560000000000000000
#0543a0:14
#054370:0054240000000000
#054331:140000000000000000000000000000000000000000000000000000000000000054000000000000005400000000000000000000000000000054000000000000540000000000000000000000000000000054000000000000005400000000000000240000000000000000000000000000000000000000000000000000000000000000000000000000000000000000000000000000000000000000000000000000000000000000000000000000000000000000000000000000000000000000000000000000000000000000000000000000000000000000000000000000000000000000000000000000000000000000000000000000000000000000000000000000000000000000000000000000000000000000000000000000000000000000000000000000000000000000000000000000000000000000000000000000000000000000000000000000000000000000000000000000000000000000000000000000000000000000000000000000000000000000000000000000000000000000000000
#054321:0000005600560056000000000000000000000000000000000000000000000000
#054321:0014
#054351:0000000000542400
#054390:000000000000000000000000000000000000000000000000000000000000000000000000000000000000000000000000000000000000000000000000000000000000000000000000000000000000000000000000000000000000000000000000000000000000000000000000000000000000000000000000000000000000000000000000000000000000000000000000000000000000000000000000000000000000000000000000000000000000000000000000000000000000000000000000140000000000000000000000000000000000000000000000000000000000000054000000000000005400000000000000000000000000000054000000000000540000000000000000000000000000000054000000000000005400000000000000240000000000000000000000000000000000000000000000000000000000000000000000000000000000000000000000000000000000000000000000000000000000000000000000000000000000000000000000000000000000000000000000
#054380:0000000000000000000000000000000000000056005600560000000000000000
#055320:00130000
#055360:0023
#0563b0:00000013
#057380:23
#060350:0000132300000000
#0603b1:00130000
#060381:0000002300000000
#060381:0000000013230000
#060320:0013
#060350:0000000000230000
#0613a0:14
#061360:0054000000000000
#061380:00260000
#061321:00162400
#061361:0000005400000000
#062351:0014000000000000
#062321:0023
#062380:00130000
#0623b0:0023
#064350:14
#064320:00240000
#064350:0014
#064320:00000024
#065350:14
#065320:00240000
#066320:0000000000000014
#067350:0023000000000000
#0663a1:0000000000000014
#067381:0023000000000000
#068381:0000132300000000
#068320:00130000
#068350:0000002300000000
#068350:0000000013230000
#0683b1:0013
#068381:0000000000230000
#069321:14260000
#069361:0054000000000000
#069380:00160000
#069360:0000005400000000
#0693a0:0024
#070370:0014000000000000
#0703b0:0023
#070351:00130000
#070321:0023
#072371:14
#0723a1:00240000
#072371:0014
#0723a1:00000024
#073371:14
#0733a1:00240000
#073371:0014
#0733a1:00000024
#074321:1400005456540054565400545654005456540054565400545654005456540000240000000000000000000000000000000000000000000000000000000000000000000000000000000000000000000000000000000000000000000000000000000000000000000000000000000000000000000000000000000000000000000000
#0743a1:0000000000000000000000000000000000000000000000000000000000000000000000000000000000000000000000000000000000000000000000000000000014000054005400540054005400540054005400540054005400540054005400002400000000000000000000000000000000000000000000000000000000000000
#074381:0000000000000000000000000000000000565656565656560000000000000000
#075321:1454565400545654005456540054565400545654005456540054565400545654240000000000000000000000000000000000000000000000000000000000000000000000000000000000000000000000000000000000000000000000000000000000000000000000000000000000000000000000000000000000000000000000
#075321:0000000000000000000000000000000014545400000000000000000000005454
#075331:00000000000000000000000000000000000000000000000000000000000000000054005400005400540000000000000000000000000000003400540000540054
#075341:00000000000000000000000000000000000000000000000000000000000000000000000000540054000054003400000054005400540054000054005400000000
#075351:000000000000000000000000000000000000000000000000000000000000000000000000000000000000000000000000000000000000000000000000000000000000000000000000000000000000000000000000000000000000000000000000000000000000000000000000000000000000000000000000000000000000000000000000000000000000000000000000000000000000000000000000000000000000000000000000000000000000000000000000000000000000000000000000000000000000000000000000000000000000000000000000000000000000000000000000000000000000000000000000000000000000000000000000000000000000000000000000000000000000000000000000000000000000000000000000000000000000000000000000000000000000000000000000000000000000000000000000000000000000000000000000000000000000000000000000000000000000000000000000000000000000000000000000000000000000000000000000000000000000000000000000000000000000000000000000000000000000000000000000000000000000000000000000000000000000000000000000000000000000000000000000000000000000000000000000000000000000000000000000000000000000000000000000000000000000000000000000000000000000000000000000000000000000000000000000000000000000000000000000000000000000000000000000000000000000000000000000000000000000000000000000000000000000000000000000000000000000000000000000000000000000000000000000000000000000000000000000000000000000000000000000000000000000000000000000000000000000000000000000000000000000000000000000000000000000000000000000000000000000000000000000000000000000000000000000000000000000000000000000000000000000000000000000000000000000000000000000000000000000000000000000000000000000000000000000000000000000000000000000000000000000000000000000000000000000000000000000000000000000000000000000000000000000000000000000000000000000000000000000000000000000000000000000000000000000000000000000000000000000000000000000000000000000000000000000000000000000000000000000000000000000000000000000000000000000000000000000000000000000000000000000000000000000000000000000000000000000000000000000000000000000000000000000000000000000000000000000000000000000000000000000000000000000000000000000000000000000000000000000000000000000000000000000000000000000000000000000000000000000000000000000000000000000000000000000000000000000000000000000000000000000000000000000000000000000000000000000000000000000000000000000000000000000000000000000000000000000000000000000000000000000000000000000000000000000000000000000000000000000000000000000000000000000000000000000000000000000000000000000000000000000000000000000000000000000000000000000000000000000540000000000000000000000000000000000000000000000000000000000000000000000000000000000000000000000000000000000000000000054000000000000000000000000000000000000000000000000000000000000000000000000000000000000000000000000000000000000000000000000000000000000000000000000000000000000000000000000000000000000540000000000000000000000000000000000000000000000000000000000000000000000000000000000000000000000000000000000000000000000000000000000000000000000000000000000000000000000000000000000540000000000000000000000000000000000000000000000000000000000000000000000000000000000000000000000000000000000000000000000540000000000000000000000000000000000000000000000000000000000000000000000000000000000000000000000000000000000000000000000540000000000000000000000000000000000000000000000000000000000000000000000000000000000000000000000000000000000000000000000540000000000000000000000000000000000000000000000000000000000000000000000000000000000000000000000000000000000000000000000000000000000000000000000000000000000000000000000000000000000000000000000000000000000000000000000000000000000000000000000000000000000000000000000000000000000000000000000000000000000000000000000000000000000000000000000000000000000000000000000000000000000000000000000000000000000000000000000000000000000000000000000000000000000000000000000000000000000000000000000000000000000000000000000000000000000000000000000000000000000
#075361:00000000000000000000000000000000000000000000000000000000000000000000000000000000000000000054005400000000000000000000000000000000
#076321:34
#076361:0054
#077321:24
#0753a0:0000000000000000000000000000000014545400000000000000000000005454
#075390:00000000000000000000000000000000000000000000000000000000000000000054005400005400540000000000000000000000000000003400540000540054
#075380:00000000000000000000000000000000000000000000000000000000000000000000000000540054000054003400000054005400540054000054005400000000
#075370:000000000000000000000000000000000000000000000000000000000000000000000000000000000000000000000000000000000000000000000000000000000000000000000000000000000000000000000000000000000000000000000000000000000000000000000000000000000000000000000000000000000000000000000000000000000000000000000000000000000000000000000000000000000000000000000000000000000000000000000000000000000000000000000000000000000000000000000000000000000000000000000000000000000000000000000000000000000000000000000000000000000000000000000000000000000000000000000000000000000000000000000000000000000000000000000000000000000000000000000000000000000000000000000000000000000000000000000000000000000000000000000000000000000000000000000000000000000000000000000000000000000000000000000000000000000000000000000000000000000000000000000000000000000000000000000000000000000000000000000000000000000000000000000000000000000000000000000000000000000000000000000000000000000000000000000000000000000000000000000000000000000000000000000000000000000000000000000000000000000000000000000000000000000000000000000000000000000000000000000000000000000000000000000000000000000000000000000000000000000000000000000000000000000000000000000000000000000000000000000000000000000000000000000000000000000000000000000000000000000000000000000000000000000000000000000000000000000000000000000000000000000000000000000000000000000000000000000000000000000000000000000000000000000000000000000000000000000000000000000000000000000000000000000000000000000000000000000000000000000000000000000000000000000000000000000000000000000000000000000000000000000000000000000000000000000000000000000000000000000000000000000000000000000000000000000000000000000000000000000000000000000000000000000000000000000000000000000000000000000000000000000000000000000000000000000000000000000000000000000000000000000000000000000000000000000000000000000000000000000000000000000000000000000000000000000000000000000000000000000000000000000000000000000000000000000000000000000000000000000000000000000000000000000000000000000000000000000000000000000000000000000000000000000000000000000000000000000000000000000000000000000000000000000000000000000000000000000000000000000000000000000000000000000000000000000000000000000000000000000000000000000000000000000000000000000000000000000000000000000000000000000000000000000000000000000000000000000000000000000000000000000000000000000000000000000000000000000000000000000000000000000000000000000000000000000000000000000000000000000000005400000000000000000000000000000000000000000000000000000000000000000000000000000000000000000000000000000000000000000000540000000000000000000000000000000000000000000000000000000000000000000000000000000000000000000000000000000000000000000000000000000000000000000000000000000000000000000000000000000000005400000000000000000000000000000000000000000000000000000000000000000000000000000000000000000000000000000000000000000000000000000000000000000000000000000000000000000000000000000000005400000000000000000000000000000000000000000000000000000000000000000000000000000000000000000000000000000000000000000000005400000000000000000000000000000000000000000000000000000000000000000000000000000000000000000000000000000000000000000000005400000000000000000000000000000000000000000000000000000000000000000000000000000000000000000000000000000000000000000000005400000000000000000000000000000000000000000000000000000000000000000000000000000000000000000000000000000000000000000000000000000000000000000000000000000000000000000000000000000000000000000000000000000000000000000000000000000000000000000000000000000000000000000000000000000000000000000000000000000000000000000000000000000000000000000000000000000000000000000000000000000000000000000000000000000000000000000000000000000000000000000000000000000000000000000000000000000000000000000000000000000000000000000000000000000000000000000000000000000000
#075360:000000000000000000000000000000000000000000000000000000000000000000000000000000000000000000000000000000000000000000000000000000000000000000000000000000000000000000000000000000000000000000000000000000000000000000000000000000000000000000000000000000000000000000000000000000000000000000000000000000000000000000000000000000000000000000000000000000000000000000000000000000000000000000000000000000000000000000000000000000000000000000000000000000000000000000000000000000000000000000000000000000000000000000000000000000000000000000000000000000000000000000000000000000000000000000000000000000000000000000000000000000000000000000000000000000000000000000000000000000000000000000000000000000000000000000000000000000000000000000000000000000000000000000000000000000000000000000000000000000000000000000000000000000000000000000000000000000000000000000000000000000000000000000000000000000000000000000000000000000000000000000000000000000000000000000000000000000000000000000000000000000000000000000000000000000000000000000000000000000000000000000000000000000000000000000000000000000000000000000000000000000000000000000000000000000000000000000000000000000000000000000000000000000000000000000000000000000000000000000000000000000000000000000000000000000000000000000000000000000000000000000000000000000000000000000000000000000000000000000000000000000000000000000000000000000000000000000000000000000000000000000000000000000000000000000000000000000000000000000000000000000000000000000000000000000000000000000000000000000000000000000000000000000000000000000000000000000000000000000000000000000000000000000000000000000000000000000000000000000000000000000000000000000000000000000000000000000000000000000000000000000000000000000000000000000000000000000000000000000000000000000000000000000000000000000000000000000000000000000000000000000000000000000000000000000000000000000000000000000000000000000000000000000000000000000000000000000000000000000000000000000000000000000000000000000000000000000000000000000000000000000000000000000000000000000000000000000000000000000000000000000000000000000000000000000000000000000000000000000000000000000000000000000000000000000000000000000000000000000000000000000000000000000000000000000000000000000000000000000000000000000000000000000000000000000000000000000000000000000000000000000000000000000000000000000000000000000000000000000000000000000000000000000000000000000000000000000000000000000000000000000000000000000000000000000000000000000000000000000000000000000000000000000000000000000000000000000000000000000000000000000000000000000000000000000000000000000000000000000000000000000000000000000000000000000000000000000000000000000000000000000000000000000000000000000000000000000000000000000000054000000000000000000000000000000000000000000000000000000000000000000000000000000000000000000000000000000000000000000000000005400000000000000000000000000000000000000000000000000000000000000000000000000000000000000000000000000000000000000000000000000000000000000000000000000000000000000000000000000000000000000000000000000000000000000000000000000000000000000000000000000000000000000000000000000000000000000000000000000000000000000000000000000000000000000000000000000000000000000000000000000000000000000000000000000000000000000000000000000000000000000000000000000000000000000000000000000000000000000000000000000000000000000000000000000000000000000000000000000000000000000000000000000000000000000000000000000000000000000000000000000000000000000000000000000000000000000000000000000000000000000000000000000000000000000000000000000000000000000000000000000000000000000000000000000000000000000000000000000000000000000000000000000000000000000000000000000000000000000000000000000000000000000000000000000000000000000000000000000000000000000000000000000000000000000000000000000000000000000000000000000000000000000000000000000000000000000000000000000000000
#0763a0:34
#076360:000000000000000000000000000000000000000000000000000000000000000000000000000000000000000000000000000000000000000000000000000000000000000000000000000000000000000000000000000000000000000000000000000000000000000000000000000000000000000000000000000000000000000000000000000000000000000000000000000000000000000000000000000000000000000000000000000000000000000000000000000000000000000000000000000000000000000000000000000000000000000000000000000000000000000000000000000000000000000000000000000000000000000000000000000000000000000000000000000000000000000000000000000000000000000000000000000000000000000000000000000000000000000000000000000000000000000000000000000000000000000000000000000000000000000000000000000000000000000000000000000000000000000000000000000000000000000000000000000000000000000000000000000000000000000000000000000000000000000000000000000000000000000000000000000000000000000000000000000000000000000000000000000000000000000000000000000000000000000000000000000000000000000000000000000000000000000000000000000000000000000000000000000000000000000000000000000000000000000000000000000000000000000000000000000000000000000000000000000000000000000000000000000000000000000000000000000000000000000000000000000000000000000000000000000000000000000000000000000000000000000000000000000000000000000000000000000000000000000000000000000000000000000000000000000000000000000000000000000000000000000000000000000000000000000000000000000000000000000000000000000000000000000000000000000000000000000000000000000000000000000000000000000000000000000000000000000000000000000000000000000000000000000000000000000000000000000000000000000000000000000000000000000000000000000000000000000000000000000000000000000000000000000000000000000000000000000000000000000000000000000000000000000000000000000000000000000000000000000000000000000000000000000000000000000000000000000000000000000000000000000000000000000000000000000000000000000000000000000000000054000000000000000000000000000000000000000000000000000000000000000000000000000000000000000000000000000000000000000000000000000000000000000000000000000000000000000000000000000000000000000000000000000000000000000000000000000000000000000000000000000000000000000000000000000000000000000000000000000000000000000000000000000000000000000000000000000000000000000000000000000000000000000000000000000000000000000000000000000000000000000000000000000000000000000000000000000000000000000000000000000000000000000000000000000000000000000000000000000000000000000000000000000000000000000000000000000000000000000000000000000000000000000000000000000000000000000000000000000000000000000000000000000000000000000000000000000000000000000000000000000000000000000000000000000000000000000000000000000000000000000000000000000000000000000000000000000000000000000000000000000000000000000000000000000000000000000000000000000000000000000000000000000000000000000000000000000000000000000000000000000000000000000000000000000000000000000000000000000000000000000000000000000000000000000000000000000000000000000000000000000000000000000000000000000000000000000000000000000000000000000000000000000000000000000000000000000000000000000000000000000000000000000000000000000000000000000000000000000000000000000000000000000000000000000000000000000000000000000000000000000000000000000000000000000000000000000000000000000000000000000000000000000000000000000000000000000000000000000000000000000000000000000000000000000000000000000000000000000000000000000000000000000000000000000000000000000000000000000000000000000000000000000000000000000000000000000000000000000000000000000000000000000000000000000000000000000000000000000000000000000000000000000000000000000000000000000000000000000000000000000000000000000000000000000000000000000000000000000000000000000000000000000000000000000000000000000000000000000000000000000000000000000000000000000000000000000000000000000000000000
#0773a0:24
#0783b0:0013
#078390:0000000000330000
#078380:00000023
#026950:000000000000000000000000000000000000000000000000000000000000000000000000000000000000000000000000000000000000000000000000000000000000000000000000000000000000000000000000000000000000000000000000000000000000000000000000000000000000000000000000000000000000000000000000000000000000000000000000000000000000000000000000000000000000000000000000000000000000000000000000000000000000000000000000000000000000000000000000000000000000000000000000000000000000000000000000000000000000000000000000000000000000000000000000000000000000000000000000000000000000000000000000000000000000000000000000000000000000000000000000000000000000000000000000000000000000000000000000000000000000000000000000000000000000000000000000000000000000000000000000000000000000000000000000000000000000000000000000000000000000000000000000000000000000000000000000000000000000000000000000000000000000000000000000000000000000000000000000000000000000000000000000000000000000000000000000000000000000000000000000000000000000000000000000000000000000000000000000000000000000000000000000000000000000000000000000000000000000000000000000000000000000000000000000000000000000000000000000000000000000000000000000000000000000000000000000000000000000000000000000000000000000000000000000000000000000000000000000000000000000000000000000000000000000000000000000000000000000000000000000000000000000000000000000000000000000000000000000000000000000000000000000000000000000000000000000000000000000000000000000140000000000000000000000000000000000000000000000000000000000000000000000000000000000000000000000000000000000000000000000000000000000000000000000000000000000000000000000000000000000000000000000000000000000000000000000000000000000000000000000000000000000000000000000000000000000000000000000000000000000000000000000000000000000000000000000000000000000000000000000000000000000000000000000000000000000000000000000000000000000000000000000000000000000000000000000000000000000000000000000000000000000000000000000000000000000000000000000000000000000000000000000000000000000000000000000000000000000000000000000000000000000000000000000000000000000000000000000000000000000000000000000000000000000000000000000000000000000000000000000000000000000000000000000000000000000000000000000000000000000000000000000000000000000000000000000000000000000000000000000000000000000000000000000000000000000000000000000000000000000000000000000000000000000000000000000000000000000000000000000000000000000000000000000000000000000000000000000000000000000000000000000000000000000000000000000000000000000000000000000000000000000000000000000000000000000000000000000000000000000000000000000000000000000000000000000000000000000000000000000000000000000000000000000000000000000000000000000000000000000000000000000000000000000000000000000000000000000000000000000000000000000000000000000000000000000000000000000000000000000000000000000000000000000000000000000000000000000000000000054240000000000000000000000000000000000000000000000000000000000000000000000000000000000000000000000000000000000000000000000000000000000000000000000000000000000000000000000000000000000000000000000000000000000000000000000000000000000000000000000000000000000000000000000000000000000000000000000000000000000000000000000000000000000000000000000000000000000000000000000000000000000000000000000000000000000000000000000000000000000000000000000000000000000000000000000000000000000000000000000000000000000000000000000000000000000000000000000000000000000000000000000000000000000000000000000000000000000000000000000000000000000000000000000000000000000000000000000000000000000000000000000000000000000000000000000000000000000000000000000000000000000000000000000000000000000000000000000000000000000000000000000000000000000000000000000000000000000000000000000000000000000000000000000000000000000000000000000000000000000000000000000000000000000000000000000000000000000000000000000
#0519b0:1323000000000000
#051921:1323000000000000
#0519a1:0000132300000000
#051930:0000132300000000
#051990:0000000013230000
#051941:0000000013230000
#051981:0000000000001323
#051950:0000000000001323
#053980:1323000000000000
#053951:1323000000000000
#053991:0000132300000000
#053940:0000132300000000
#0539a0:0000000013230000
#053931:0000000013230000
#0539b1:0000000000001323
#053920:0000000000001323
#059920:0014
#059960:00000054
#060920:24
#062940:0000000000000014
#062920:00000000000000000000000000000000000000000000000000000000000000000000000000000000000000000000000000000000000000000024000000000000
#063940:0014000000000000
#063920:00000000000000000024000000000000000000000000000000000000000000000000000000000000000000000000000000000000000000000000000000000000
#070980:0000000000000014
#0709a0:00000000000000000000000000000000000000000000000000000000000000000000000000000000000000000000000000000000000000000024000000000000
#071980:0014000000000000
#0719a0:00000000000000000024000000000000000000000000000000000000000000000000000000000000000000000000000000000000000000000000000000000000
