This file was generated by Ched 2.7.0.0.
#TITLE ""
#ARTIST ""
#DESIGNER ""
#DIFFICULTY 0
#PLAYLEVEL
#SONGID ""
#WAVE ""
#WAVEOFFSET 0
#JACKET ""
#REQUEST "ticks_per_beat 480"
#00002: 4
#BPM01: 160
#00008: 01
#TIL00: ""
#VOLUME: ""
#HISPEED 00
#MEASUREHS 00
#01018:0000001300130000
#01015:0013
#01012:33000013
#0101b:0000000000000013
#01115:0013001300130000
#01118:00131300
#0131b:13
#01315:0000001300000013
#01318:0013
#0141b:1300000000000013
#01415:0013000000000000
#01418:00130000
#01412:0000001300000000
#01515:00131300
#01518:0000001300000013
#01612:0013001300000000
#01618:00131300
#0161b:00000013
#01615:0000000000130000
#00915:0000000013000013
#00912:00130000
#00918:00000013
#0091a:24
#0271b:0000000000000013
#02712:0013
#0271a:24
#02715:00230000
#02710:41
#02818:0000140000130013
#02815:00000013
#02812:0013
#02814:24
#02915:0000130000130000
#02912:0000000000000013
#02918:00130013
#03012:0013000000002400
#03018:00230000
#03015:0000002300000000
#0301a:0024
#03212:00000013
#03213:0000001400000000
#03218:2400000000000013
#03217:0024
#04615:0000000000130000
#04612:14
#04618:0000262600002600
#00115:00000013
#00118:1300000000000013
#0011b:0033333300000000
#00218:0000000000130013
#00215:13000013
#00212:00330000
#00312:13
#0031b:00130000
#00314:0000000000330033
#00415:0033330000001300
#00418:0000000000000013
#00412:13
#0041b:0000000000130000
#05712:13
#05715:0013
#05718:00130000
#0571b:00000013
#04215:00000000000000000000003414003400
#0421a:0000001400000000
#04212:0024
#04216:28
#04312:14
#04315:0015
#0121b:13
#01215:0013000000000000
#01218:00130000
#01213:0024
#04415:0000000000130000
#04418:0000262600002600
#0551b:00130000
#05515:1300000013530000
#05518:0013000000000000
#05512:0000130000005353
#00518:00000013
#00515:1300000000000013
#00512:0033333300000000
#00615:0000000000130013
#00618:13000013
#0061b:00330000
#0071b:13
#00712:00130000
#00719:0000000000330033
#00818:0033330000001300
#00815:0000000000000013
#0081b:13
#00812:0000000000130000
#01815:0000001300130000
#01818:0013
#0181b:33000013
#01812:0000000000000013
#01918:0013001300000000
#01915:00131300
#0191b:0000000000130013
#01912:00000013
#02212:1300000000000013
#02218:0013000000000000
#02215:00130000
#0221b:0000001300000000
#02318:00131300
#02315:0000001300000013
#0241b:0013001300000000
#02415:00131300
#02418:0000000000130013
#02412:00000013
#01718:0000000013000013
#0171b:00130000
#01715:00000013
#01712:24
#01710:41
#02018:0013000000000000
#02015:00130000
#02012:13
#0201a:0024
#02518:0013000000000013
#0251b:0000001300000000
#02515:00000013
#02512:23
#0251a:00330000
#03115:0000001400000000
#03114:0000000000000014
#0311a:24
#03119:0024
#03512:2400000000000013
#0351b:0013
#03518:00230000
#03614:00140000
#03615:0000000000130013
#03618:24000013
#0361b:0013
#03718:0000130000130000
#0371b:0000000000000013
#03715:00130013
#03710:41
#0381b:0013000000000000
#03815:00230000
#03818:0000002300000000
#03812:0024
#0381a:00000024
#04012:2700000028000014
#0401a:0000001400000000
#03918:0000001400000000
#03919:0000000000000014
#03912:2526
#0411a:0000001400000000
#04112:0000000028000014
#04116:28
#04512:14
#04515:0013
#04518:00260026
#04818:0000000000130000
#0481a:14
#04812:0000262600002600
#0471a:14
#04718:0013
#04712:00260026
#05018:0000000000130000
#0501a:14
#05012:0000262600002600
#0491a:14
#04918:0013
#04912:00260026
#04910:41
#0511b:1353000053530000
#05112:0000000000001353
#0511f:11
#05118:0000535300000000
#05318:1353000053530000
#05315:0000000000001353
#0531b:0000535300000000
#05618:1353000000130000
#05615:0013
#05612:00000013
#0561b:0000535300001300
#05815:0013
#05818:00000013
#05819:0025002500000000
#05812:25250000
#06012:0000000000000013
#0601b:0013
#06018:00230000
#0601f:21
#06010:0041
#06114:00140000
#06115:0000000000130013
#06118:24000013
#0611b:0013
#06218:0000130000130000
#0621b:0000000000000013
#06215:00130013
#0631b:0013000000000000
#06315:00230000
#06318:0000002300000000
#06312:0024
#0631a:00000024
#0681b:0000000000000013
#06812:0013
#0681a:24
#06815:00230000
#06918:0000140000130013
#06915:00000013
#06912:0013
#06914:24
#07015:0000130000130000
#07012:0000000000000013
#07018:00130013
#07112:0013000000002400
#07118:00230000
#07115:0000002300000000
#0711a:0024
#08015:00000013
#08018:0033133300000013
#0801b:13
#08118:0000000000130013
#08115:13000013
#08112:00330000
#08212:13
#08215:00130000
#0821a:0000000000330033
#08318:13
#08315:0000000000130000
#0831b:0033330000001300
#08312:0000000000000013
#07718:0000001300130000
#07712:00240024
#07818:1313
#07815:00130013
#0781a:00240024
#07918:1300001300130000
#07912:00240024
#08418:13
#03315:0013001300000000
#03318:00130000
#0331a:0014
#03312:0000000000140000
#0651b:00000013
#06515:0000000024000013
#06514:24
#06519:0000002400000000
#06618:0013001300000000
#06615:00130000
#06612:0014
#0661a:0000000000140000
#06712:0014000000000000
#06715:0000000000000000000000000000000000000000000000000000000000000000000000000000000000140000000000000000000000000000000000000000000000000000000000000000000000000000000000000000000000000000000000000000000000000000000000000000000000000000000000000000000000000000
#06713:0000343400000000
#0341a:0014000000000000
#03417:0000000000000000000000000000000000000000000000000000000000000000000000000000000000140000000000000000000000000000000000000000000000000000000000000000000000000000000000000000000000000000000000000000000000000000000000000000000000000000000000000000000000000000
#03419:0000343400000000
#07517:00000000000000000000003414003400
#07512:2800002400000000
#0751a:0024
#0761a:14
#07616:0015
#05213:0024
#05215:5353000000000000
#05212:00530000
#02112:2424
#02117:2424
#0211a:00240024
#02115:00240024
#05413:0024
#05412:5353000000000000
#05415:00530000
#07219:25
#07218:0026
#07214:0000002400000000
#07213:0000000000000024
#07317:27
#07316:0028
#07312:0000002400000000
#0731a:0000000000000024
#07412:2800002400000000
#07416:0028
#0741a:0000000000000024
#07410:41
#06412:24
#06413:0024
#06417:0000002400000000
#06418:0000000000000024
#05915:0023
#05912:00000000000000000034343434343434
#02612:0000005400005400
#00955:0000000000000063
#0095a:14
#0135b:63
#01358:0063
#01452:0000005300000000
#0145b:0000000000000053
#01455:0000000000130000
#01555:0063
#0275a:14
#02752:0063
#02755:00630000
#02955:00630000
#02958:00630000
#04252:0064
#04256:18
#04255:00000024
#04352:64
#04355:0025
#05259:00000014
#05253:00000014
#05752:13
#05755:0013
#05758:00130000
#0575b:00000013
#00452:53
#00255:63
#00158:53
#00658:53
#00555:63
#01155:0000000000530000
#0165b:00000013
#0225b:0000006300000000
#02252:0000000000000063
#02258:0000000000130000
#01758:0000000000000053
#01752:14
#02358:0053
#0205a:0054
#02558:0053000000000000
#0255b:0000002300000000
#02854:14
#02858:00140000
#0305a:0014
#03052:00000014
#0315a:14
#03159:0014
#03258:14
#03257:0014
#03654:00140000
#03658:14
#03755:00530000
#03758:00530000
#0355b:0053
#03552:14
#03558:00530000
#03852:0014
#0385a:00000014
#03952:1516
#04052:1718
#04156:18
#04152:0018
#05459:00000014
#05453:00000014
#06154:00140000
#06158:14
#06255:00530000
#06258:00530000
#0605b:0053
#06058:00530000
#06052:14
#06958:00140000
#06954:14
#07058:00630000
#07055:00630000
#06852:0063
#0685a:14
#06855:00630000
#0715a:0014
#07152:00000014
#07259:15
#07258:0016
#07357:17
#07356:0018
#07452:18
#07456:0018
#07552:18
#07557:00000024
#0755a:0054
#08358:53
#08155:63
#0805b:63
#08058:00230000
#0085b:63
#06352:0014
#0635a:00000014
#06752:0064000000001400
#06755:0000000000000000000000000000000000000000000000000000000000000000000000000000000000240000000000000000000000000000000000000000000000000000000000000000000000000000000000000000000000000000000000000000000000000000000000000000000000000000000000000000000000000000
#06452:14
#06453:0014
#06554:14
#06555:0014
#05955:0053
#0345a:0054000000001400
#03457:0000000000000000000000000000000000000000000000000000000000000000000000000000000000240000000000000000000000000000000000000000000000000000000000000000000000000000000000000000000000000000000000000000000000000000000000000000000000000000000000000000000000000000
#0765a:54
#07656:0025
#001380:13
#0013b0:0033333323000000
#002350:13
#002320:0000332300000000
#003320:0013
#003340:0000000000330033
#003350:00000033
#004320:33
#004350:0033332300000000
#005350:13
#005320:0033333323000000
#006380:13
#0063b0:0000332300000000
#0073b0:0013
#007390:0000000000330033
#007380:00000033
#0083b0:33
#008380:0033332300000000
#009350:0000000000000013
#010320:33230000
#011350:0000000000130000
#011320:0000000000000023
#012330:000000000000000000000000000000000000000000000000140054540054540054540000240000000000000000000000
#012320:000000000000000000000000000000000000000000000000000000000000000000000000000000000000000000000000000000000056000000000056000000000056000000000000000000000000000000000000000000000000000000000000
#0133b0:13
#013380:00230000
#013380:0013
#0133b0:00000023
#014320:0000001300000000
#014350:0000000000230000
#0143b0:0000000000000013
#015380:0023000000000000
#015350:0013
#015320:00000023
#017380:0000000000000013
#0183b0:33230000
#0203a0:0014
#020370:00000024
#0223b0:0000001300000000
#022380:0000000000230000
#022320:0000000000000013
#023350:0023000000000000
#023380:0013
#0233b0:00000023
#025380:0013000000230000
#0253a0:00330000
#0253b0:0000003300000000
#026320:1434342400000000
#027350:00130023
#027320:0033
#029350:13330000
#029320:0023
#029381:00130000
#0293b1:0023
#0333a1:0000000000000014
#0343a1:0034000034002400
#034391:0000343400000000
#034371:0000000000000000000000000000000000000000000000000000000000000000000000000000005400540000000000000000000000000000000000000000000000000000000000000000000000000000000000000000000000000000000000000000000000000000000000000000000000000000000000000000000000000000
#034361:00000000005600000000000000000000
#035381:00130023
#0353b1:0033
#037381:13330000
#0373b1:0023
#037350:00130000
#037320:0023
#042320:0014
#042350:00000000000000000000003454003400
#043320:34
#043350:0055
#044320:26
#052390:0000000000000000000000000000000000000000000000000000000000000000000000000000000000000000000000000000000000000000000000000000000014000000000000540054000000000054005400000000005400540000000000002400000000000000000000000000000000000000000000000000000000000000
#052380:00000000000000000056565600000000
#052331:000000000000000000000000000000000000000000000000000000000000000000000000000000000000000000000000000000000000000000000000000000000000000000000000000000000000000000000000000000000000000000000000000000000000000000000000000000000000000000000000000000000000000000000000000000000000000000000000000000000000000000000000000000000000000000000000000000000000000000000000000000000000000000000000140000000000000000000000000000000000000000000000000000000000000054000000000000005400000000000000000000000000000054000000000000540000000000000000000000000000000054000000000000005400000000000000240000000000000000000000000000000000000000000000000000000000000000000000000000000000000000000000000000000000000000000000000000000000000000000000000000000000000000000000000000000000000000000000
#052321:0000000000000000000000000000000000000056005600560000000000000000
#054391:0000000000000000000000000000000000000000000000000000000000000000000000000000000000000000000000000000000000000000000000000000000014000000000000545554000000000054555400000000005455540000000000002400000000000000000000000000000000000000000000000000000000000000
#054330:000000000000000000000000000000000000000000000000000000000000000000000000000000000000000000000000000000000000000000000000000000000000000000000000000000000000000000000000000000000000000000000000000000000000000000000000000000000000000000000000000000000000000000000000000000000000000000000000000000000000000000000000000000000000000000000000000000000000000000000000000000000000000000000000140000000000000000000000000000000000000000000000000000000000000054000000000000005400000000000000000000000000000054000000000000540000000000000000000000000000000054000000000000005400000000000000240000000000000000000000000000000000000000000000000000000000000000000000000000000000000000000000000000000000000000000000000000000000000000000000000000000000000000000000000000000000000000000000
#054320:0000000000000000000000000000000000000055005500550000000000000000
#059350:0013
#059320:00000000000000000034343434343434
#060320:24
#060380:00130023
#0603b0:0033
#062380:13330000
#0623b0:0023
#062351:00130000
#062321:0023
#066321:0000000000000014
#067321:0034000034002400
#067331:0000343400000000
#067351:0000000000000000000000000000000000000000000000000000000000000000000000000000005400540000000000000000000000000000000000000000000000000000000000000000000000000000000000000000000000000000000000000000000000000000000000000000000000000000000000000000000000000000
#067341:00000000005600000000000000000000
#068351:00130023
#068321:0033
#070351:13330000
#070321:0023
#070380:00130000
#0703b0:0023
#0753a0:0014
#075370:00000000000000000000003454003400
#0763a0:34
#076360:0055
#077380:26
#0803b0:1323
#080380:0033333300000000
#081350:13
#081320:0000332300000000
#082380:0013
#0823a0:0000000000330033
#0823b0:00000033
#083380:33
#0833b0:0033332300000000
#026920:000000000000000000000000000000000000000000000000000000000000000000000000000000000000000000000000000000000000000000000000000000000000000000000000000000000000000000000000000000000000000000000000000000000000000000000000000000000000000000000000000000000000000000000000000000000000000000000000000000000000000000000000000000000000000000000000000000000000000000000000000000000000000000000000000000000000000000000000000000000000000000000000000000000000000000000000000000000000000000000000000000000000000000000000000000000000000000000000000000000000000000000000000000000000000000000000000000000000000000000000000000000000000000000000000000000000000000000000000000000000000000000000000000000000000000000000000000000000000000000000000000000000000000000000000000000000000000000000000000000000000000000000000000000000000000000000000000000000000000000000000000000000000000000000000000000000000000000000000000000000000000000000000000000000000000000000000000000000000000000000000000000000000000000000000000000000000000000000000000000000000000000000000000000000000000000000000000000000000000000000000000000000000000000000000000000000000000000000000000000000000000000000000000000000000000000000000000000000000000000000000000000000000000000000000000000000000000000000000000000000000000000000000000000000000000000000000000000000000000000000000000000000000000000000000000000000000000000000000000000000000000000000000000000000000000000000000000000000000000000000140000000000000000000000000000000000000000000000000000000000000000000000000000000000000000000000000000000000000000000000000000000000000000000000000000000000000000000000000000000000000000000000000000000000000000000000000000000000000000000000000000000000000000000000000000000000000000000000000000000000000000000000000000000000000000000000000000000000000000000000000000000000000000000000000000000000000000000000000000000000000000000000000000000000000000000000000000000000000000000000000000000000000000000000000000000000000000000000000000000000000000000000000000000000000000000000000000000000000000000000000000000000000000000000000000000000000000000000000000000000000000000000000000000000000000000000000000000000000000000000000000000000000000000000000000000000000000000000000000000000000000000000000000000000000000000000000000000000000000000000000000000000000000000000000000000000000000000000000000000000000000000000000000000000000000000000000000000000000000000000000000000000000000000000000000000000000000000000000000000000000000000000000000000000000000000000000000000000000000000000000000000000000000000000000000000000000000000000000000000000000000000000000000000000000000000000000000000000000000000000000000000000000000000000000000000000000000000000000000000000000000000000000000000000000000000000000000000000000000000000000000000000000000000000000000000000000000000000000000000000000000000000000000000000000000000000000000000000000000005454240000000000000000000000000000000000000000000000000000000000000000000000000000000000000000000000000000000000000000000000000000000000000000000000000000000000000000000000000000000000000000000000000000000000000000000000000000000000000000000000000000000000000000000000000000000000000000000000000000000000000000000000000000000000000000000000000000000000000000000000000000000000000000000000000000000000000000000000000000000000000000000000000000000000000000000000000000000000000000000000000000000000000000000000000000000000000000000000000000000000000000000000000000000000000000000000000000000000000000000000000000000000000000000000000000000000000000000000000000000000000000000000000000000000000000000000000000000000000000000000000000000000000000000000000000000000000000000000000000000000000000000000000000000000000000000000000000000000000000000000000000000000000000000000000000000000000000000000000000000000000000000000000000000000000000000000000000000000000000000000
#0519b0:130000000000000000000000000000000000000000000000000000000000000000000000000000000000000000000000000000000000000000000000000000000000000000000000000000000000000000000000000000000000000000000000000000000000000000000000000000000000000000000000000000000000000000000000000000000000000000000000000000000000000000000000000000000000000000000000000000000000000000000000000000000000000000000000000000000000000000000000000000000000000000000000000000000000000000000000000000000000000000000000530000000000000000000000000000000000000000000000000000000000000000000000000000000000000000000000000000000000000000000000000000000000000000000000000000000000000000000000000000000000000000000000000000000000000000000000000000000000000000000000000000000000000000000000000000000000000000000000000000000000000000000000000000000000000000000000000000000000000000000000000000000000000000000000000000000000000000000000000000000000000000000000000000000000000000000000000000000000000000000000000000000000000000000000000000000000000000000000000000000000000000000000000000000000000000000000000000000000000000000000000000000000000000000000000000000000000000000000000000000000000000000000000000000000000000000000000000000000000000000000000000000000000000000000000000000000000000000000000000000000000000000000000000000000000000000000000000000000000000000000000000000000000000000000000000000000000000000000000000000000000000000000000000000000000000000000000000000000000000000000000000000000000000000000000000000000000000000000000000000000000000000000000000000000000000000000000000000000000000000000000000000000000000000000000000000000000000000000000000000000000000000000000000000000000000000000000000000000000000000000000000000000000000000000000000000000000000000000000000000000000000000000000000000000000000000000000000000000000000000000000000000000000000000000000000000000000000000000000000000000000000000000000000000000000000000000000000000000000000000000530000000000000000000000000000000000000000000000000000000000000000000000000000000000000000000000000000000000000000000000000000000000000000000000000000000000000000000000000000000000000000000000000000000000000000000000000000000000000000000000000000000000000000000000000000000000000000000000000000000000000000000000000000000000000000000000000000000000000000000000000000000000000000000000000000000000000000000000000000000000000000000000000000000000000000000000000000000000000053535353230000000000000000000000000000000000000000000000000000000000000000000000000000000000000000000000000000000000000000000000000000000000000000000000000000000000000000000000000000000000000000000000000000000000000000000000000000000000000000000000000000000000000000000000000000000000000000000000000000000000000000000000000000000000000000000000000000000000000000000000000000000000000000000000000000000000000000000000000000000000000000000000000000000000000000000000000000000000000000000000000000000000000000000000000000000000000000000000000000000000000000000000000000000000000000000000000000000000000000000000000000000000000000000000000000000000000000000000000000000000000000000000000000000000000000000000000000000000000000000000000000000000000000000000000000000000000000000000000000000000000000000000000000000000000000000000000000000000000000000000000000000000000000000000000000000000000000000000000000000000000000000000000000000000000000000000000000000000000000000000000000000000000000000000000000000000000000000000000000000000000000000000000000000000000000000000000000000000000000000000000000000000000000000000000000000000000000000000000000000000000000000000000000000000000000000000000000000000000000000000000000000000000000000000000000000000000000000000000000000000000000000000000000000000000000000000000000000000000000000000000000000000000000000000000000000000000000000000000000000000000000000000000000000000000000000000000000000000000000000000
#051980:0000535300000000
#051920:0000000000001353
#052950:5353000000000000
#052920:000000000000000000000000000000000000000000000000000000000000000000000000000000000000000000000000000000000000000000000000000000000000000000000000000000000000000000000000000000000000000000000000000000000000000000000000000000000000000000000000000000000000000000000000000000000000000000000000000000000000000000000000000000000000000000000000000000000000000000000000000000000000000000000000000000000000000000000000000000000000000000000000000000000000000000000000000000000000000000000000000000000000000000000000000000000000000000000000000000000000000000000000000000000000000000000000000000000000000000000000000000000000000000000000000000000000000000000000000000000000000000000000000000000000000000000000000000000000000000000000000000000000000000000000000000000000000000000000000000000000000000000000000000000000000000000000000000000000000000000000000000000000000000000000000000000000000000000000000000000000000000000000000000000000000000000000000000000000000053535353230000000000000000000000000000000000000000000000000000000000000000000000000000000000000000000000000000000000000000000000000000000000000000000000000000000000000000000000000000000000000000000000000000000000000000000000000000000000000000000000000000000000000000000000000000000000000000000000000000000000000000000000000000000000000000000000000000000000000000000000000000000000000000000000000000000000000000000000000000000000000000000000000000000000000000000000000000000000000000000000000000000000000000000000000000000000000000000000000000000000000000000000000000000000000000000000000000000000000000000000000000000000000000000000000000000000000000000000000000000000000000000000000000000000000000000000000000000000000000000000000000000000000000000000000000000000000000000000000000000000000000000000000000000000000000000000000000000000000000000000000000000000000000000000000000000000000000000000000000000000000000000000000000000000000000000000000000000000000000000000000000000000000000000000000000000000000000000000000000000000000000000000000000000000000000000000000000000000000000000000000000000000000000000000000000000000000000000000000000000000000000000000000000000000000000000000000000000000000000000000000000000000000000000000000000000000000000000000000000000000000000000000000000000000000000000000000000000000000000000000000000000000000000000000000000000000000000000000000000000000000000000000000000000000000000000000000000000000000000000000000000000000000000000000000000000000000000000000000000000000000000000000000000000000000000000000000000000000000000000000000000000000000000000000000000000000000000000000000000000000000000000000000000000000000000000000000000000000000000000000000000000000000000000000000000000000000000000000000000000000000000000000000000000000000000000000000000000000000000000000000000000000000000000000000000000000000000000000000000000000000000000000000000000000000000000000000000000000000000000000000000000000000000000000000000000000000000000000000000000000000000000000000000000000000000000000000000000000000000000000000000000000000000000000000000000000000000000000000000000000000000000000000000000000000000000000000000000000000000000000000000000000000000000000000000000000000000000000000000000000000000000000000000000000000000000000000000000000000000000000000000000000000000000000000000000000000000000000000000000000000000000000000000000000000000000000000000000000000000000000000000000000000000000000000000000000000000000000000000000000000000000000000000000000000000000000000000000000000000000000000000000000000000000000000000000000000000000000000000000000000000000000000000000000000000000000000000000000000000000000000000000000000000000000000000000000000000000000000000000000000000000000000000000000000000000000000000000000000000000000000000000000000000000000000000000000000000000000000000000000000000000000000000000000000000000000000000000000000000000000
#053980:130000000000000000000000000000000000000000000000000000000000000000000000000000000000000000000000000000000000000000000000000000000000000000000000000000000000000000000000000000000000000000000000000000000000000000000000000000000000000000000000000000000000000000000000000000000000000000000000000000000000000000000000000000000000000000000000000000000000000000000000000000000000000000000000000000000000000000000000000000000000000000000000000000000000000000000000000000000000000000000000530000000000000000000000000000000000000000000000000000000000000000000000000000000000000000000000000000000000000000000000000000000000000000000000000000000000000000000000000000000000000000000000000000000000000000000000000000000000000000000000000000000000000000000000000000000000000000000000000000000000000000000000000000000000000000000000000000000000000000000000000000000000000000000000000000000000000000000000000000000000000000000000000000000000000000000000000000000000000000000000000000000000000000000000000000000000000000000000000000000000000000000000000000000000000000000000000000000000000000000000000000000000000000000000000000000000000000000000000000000000000000000000000000000000000000000000000000000000000000000000000000000000000000000000000000000000000000000000000000000000000000000000000000000000000000000000000000000000000000000000000000000000000000000000000000000000000000000000000000000000000000000000000000000000000000000000000000000000000000000000000000000000000000000000000000000000000000000000000000000000000000000000000000000000000000000000000000000000000000000000000000000000000000000000000000000000000000000000000000000000000000000000000000000000000000000000000000000000000000000000000000000000000000000000000000000000000000000000000000000000000000000000000000000000000000000000000000000000000000000000000000000000000000000000000000000000000000000000000000000000000000000000000000000000000000000000000000000000000000000000530000000000000000000000000000000000000000000000000000000000000000000000000000000000000000000000000000000000000000000000000000000000000000000000000000000000000000000000000000000000000000000000000000000000000000000000000000000000000000000000000000000000000000000000000000000000000000000000000000000000000000000000000000000000000000000000000000000000000000000000000000000000000000000000000000000000000000000000000000000000000000000000000000000000000000000000000000000000000053535353230000000000000000000000000000000000000000000000000000000000000000000000000000000000000000000000000000000000000000000000000000000000000000000000000000000000000000000000000000000000000000000000000000000000000000000000000000000000000000000000000000000000000000000000000000000000000000000000000000000000000000000000000000000000000000000000000000000000000000000000000000000000000000000000000000000000000000000000000000000000000000000000000000000000000000000000000000000000000000000000000000000000000000000000000000000000000000000000000000000000000000000000000000000000000000000000000000000000000000000000000000000000000000000000000000000000000000000000000000000000000000000000000000000000000000000000000000000000000000000000000000000000000000000000000000000000000000000000000000000000000000000000000000000000000000000000000000000000000000000000000000000000000000000000000000000000000000000000000000000000000000000000000000000000000000000000000000000000000000000000000000000000000000000000000000000000000000000000000000000000000000000000000000000000000000000000000000000000000000000000000000000000000000000000000000000000000000000000000000000000000000000000000000000000000000000000000000000000000000000000000000000000000000000000000000000000000000000000000000000000000000000000000000000000000000000000000000000000000000000000000000000000000000000000000000000000000000000000000000000000000000000000000000000000000000000000000000000000000000000000
#0539b0:0000535300000000
#053950:0000000000001353
#054920:5353000000000000
#054950:000000000000000000000000000000000000000000000000000000000000000000000000000000000000000000000000000000000000000000000000000000000000000000000000000000000000000000000000000000000000000000000000000000000000000000000000000000000000000000000000000000000000000000000000000000000000000000000000000000000000000000000000000000000000000000000000000000000000000000000000000000000000000000000000000000000000000000000000000000000000000000000000000000000000000000000000000000000000000000000000000000000000000000000000000000000000000000000000000000000000000000000000000000000000000000000000000000000000000000000000000000000000000000000000000000000000000000000000000000000000000000000000000000000000000000000000000000000000000000000000000000000000000000000000000000000000000000000000000000000000000000000000000000000000000000000000000000000000000000000000000000000000000000000000000000000000000000000000000000000000000000000000000000000000000000000000000000000000000000535353230000000000000000000000000000000000000000000000000000000000000000000000000000000000000000000000000000000000000000000000000000000000000000000000000000000000000000000000000000000000000000000000000000000000000000000000000000000000000000000000000000000000000000000000000000000000000000000000000000000000000000000000000000000000000000000000000000000000000000000000000000000000000000000000000000000000000000000000000000000000000000000000000000000000000000000000000000000000000000000000000000000000000000000000000000000000000000000000000000000000000000000000000000000000000000000000000000000000000000000000000000000000000000000000000000000000000000000000000000000000000000000000000000000000000000000000000000000000000000000000000000000000000000000000000000000000000000000000000000000000000000000000000000000000000000000000000000000000000000000000000000000000000000000000000000000000000000000000000000000000000000000000000000000000000000000000000000000000000000000000000000000000000000000000000000000000000000000000000000000000000000000000000000000000000000000000000000000000000000000000000000000000000000000000000000000000000000000000000000000000000000000000000000000000000000000000000000000000000000000000000000000000000000000000000000000000000000000000000000000000000000000000000000000000000000000000000000000000000000000000000000000000000000000000000000000000000000000000000000000000000000000000000000000000000000000000000000000000000000000000000000000000000000000000000000000000000000000000000000000000000000000000000000000000000000000000000000000000000000000000000000000000000000000000000000000000000000000000000000000000000000000000000000000000000000000000000000000000000000000000000000000000000000000000000000000000000000000000000000000000000000000000000000000000000000000000000000000000000000000000000000000000000000000000000000000000000000000000000000000000000000000000000000000000000000000000000000000000000000000000000000000000000000000000000000000000000000000000000000000000000000000000000000000000000000000000000000000000000000000000000000000000000000000000000000000000000000000000000000000000000000000000000000000000000000000000000000000000000000000000000000000000000000000000000000000000000000000000000000000000000000000000000000000000000000000000000000000000000000000000000000000000000000000000000000000000000000000000000000000000000000000000000000000000000000000000000000000000000000000000000000000000000000000000000000000000000000000000000000000000000000000000000000000000000000000000000000000000000000000000000000000000000000000000000000000000000000000000000000000000000000000000000000000000000000000000000000000000000000000000000000000000000000000000000000000000000000000000000000000000000000000000000000000000000000000000000000000000000000000000000000000000000000000000000000000000000000000000000000000000000000000000000000000000000000000000000000000000000000000000
#055950:0000000013530000
#055920:000000000000000000000000000000000000000000000000000000000000000000000000000000000000000000000000000000000000000000000000000000000000000000000000000000000000000000000000000000000000000000000000000000000000000000000000000000000000000000000000000000000000000000000000000000000000000000000000000000000000000000000000000000000000000000000000000000000000000000000000000000000000000000000000000000000000000000000000000000000000000000000000000000000000000000000000000000000000000000000000000000000000000000000000000000000000000000000000000000000000000000000000000000000000000000000000000000000000000000000000000000000000000000000000000000000000000000000000000000000000000000000000000000000000000000000000000000000000000000000000000000000000000000000000000000000000000000000000000000000000000000000000000000000000000000000000000000000000000000000000000000000000000000000000000000000000000000000000000000000000000000000000000000000000000000000000000000000000000000000000000000000000000000000000000000000000000000000000000000000000000000000000000000000000000000000000000000000000000000000000000000000000000000000000000000000000000000000000000000000000000000000000000000000000000000000000000000000000000000000000000000000000000000000000000000000000000000000000000000000000000000000000000000000000000000000000000000000000000000000000000000000000000000000000000000000000000000000000000000000000000000000000000000000000000000000000000000000000000000000000000000000000000000000000000000000000000000000000000000000000000000000000000000000000000000000000000000000000000000000000000000000000000000000000000000000000000000000000000000000000000000000000000000000000000000000000000000000000000000000000000000000000000000000000000000000000000000000000000000000000000000000000000000000000000000000000000000000000000000000000000000000000000000000000000000000000000000000000000000000000000000000000000000000000000000000000000000000000000000000000000000000000000000000000000000000000000000000000000000000000000000000000000000000000000000000000000000000000000000000000000000000000000000000000000000000000000000000000000000000000000000000000000000000000000000000000000000000000000000000000000000000000000000000000000000000000000000000000000000000000000000000000000000000000000000000000000000000000000000000000000000000000000000000000000000000000000000000000000000000000000000000000000000000000000000000000000000000000000000000000000000000000000000000000000000000000000000000000000000000000000000000000000000000000000000000000000000000000000000000000000000000000000000000000000000000000000000000000000000000000000000000000000000000000000000000000000000000000000000000000000000000000000000000000000000000000000000000000000000000000000000000000000000000000000000000000000000000000000000000000000000000000000000000000000000000000000000000000000000000000000000000000000000000000000000000000000000000000000000000000530000000000000000000000000000000000000000000000000000000000000000000000000000000000000000000000000000000000000000000000000000000000000000000000000000000000000000000000000000000000000000000000000000000000000000000000000000000000000000000000000000000000000000000000000000000000000000000000000000000000000000000000000000000000000000000000000000000000000000000000000000000000000000000000000000000000000000000000000000000000000000000000000000000000000000000000000000000000000000535353230000000000000000000000000000000000000000000000000000000000000000000000000000000000000000000000000000000000000000000000000000000000000000000000000000000000000000000000000000000000000000000000000000000000000000000000000000000000000000000000000000000000000000000000000000000000000000000000000000000000000000000000000000000000000000000000000000000000000000000000000000000000000000000000000000000000000000000000000000000000000000000000000000000000000000000000000000000000000000000000
#056980:1353000000000000
#0569b0:000000000000000000000000000000000000000000000000000000000000000000000000000000000000000000000000000000000000000000000000000000000000000000000000000000000000000000000000000000000000000000000000000000000000000000000000000000000000000000000000000000000000000000000000000000000000000000000000000000000000000000000000000000000000000000000000000000000000000000000000000000000000000000000000000000000000000000000000000000000000000000000000000000000000000000000000000000000000000000000000000000000000000000000000000000000000000000000000000000000000000000000000000000000000000000000000000000000000000000000000000000000000000000000000000000000000000000000000000000000000000000000000000000000000000000000000000000000000000000000000000000000000000000000000000000000000000000000000000000000000000000000000000000000000000000000000000000000000000000000000000000000000000000000000000000000000000000000000000000000000000000000000000000000000000000000000000000000000000000000000530000000000000000000000000000000000000000000000000000000000000000000000000000000000000000000000000000000000000000000000000000000000000000000000000000000000000000000000000000000000000000000000000000000000000000000000000000000000000000000000000000000000000000000000000000000000000000000000000000000000000000000000000000000000000000000000000000000000000000000000000000000000000000000000000000000000000000000000000000000000000000000000000000000000000000000000000000000000000000535353230000000000000000000000000000000000000000000000000000000000000000000000000000000000000000000000000000000000000000000000000000000000000000000000000000000000000000000000000000000000000000000000000000000000000000000000000000000000000000000000000000000000000000000000000000000000000000000000000000000000000000000000000000000000000000000000000000000000000000000000000000000000000000000000000000000000000000000000000000000000000000000000000000000000000000000000000000000000000000000000000000000000000000000000000000000000000000000000000000000000000000000000000000000000000000000000000000000000000000000000000000000000000000000000000000000000000000000000000000000000000000000000000000000000000000000000000000000000000000000000000000000000000000000000000000000000000000000000000000000000000000000000000000000000000000000000000000000000000000000000000000000000000000000000000000000000000000000000000000000000000000000000000000000000000000000000000000000000000000000000000000000000000000000000000000000000000000000000000000000000000000000000000000000000000000000000000000000000000000000000000000000000000000000000000000000000000000000000000000000000000000000000000000000000000000000000000000000000000000000000000000000000000000000000000000000000000000000000000000000000000000000000000000000000000000000000000000000000000000000000000000000000000000000000000000000000000000000000000000000000000000000000000000000000000000000000000000000000000000000000000000000000000000000000000000000000000000000000000000000000000000000000000000000000000000000000000000000000000000000000000000000000000000000000000000000000000000000000000000000000000000000000000000000000000000000000000000000000000000000000000000000000000000000000000000000000000000000000000000000000000000000000000000000000000000000000000000000000000000000000000000000000000000000000000000000000000000000000000000000000000000000000000000000000000000000000000000000000000000000000000000000000000000000000000000000000000000000000000000000000000000000000000000000000000000000000000000000000000000000000000000000000000000000000000000000000000000000000000000000000000000000000000000000000000000000000000000000000000000000000000000000000000000000000000000000000000000000000000000000000000000000000000000000000000000000000000000000000000000000000000000000000000000000000000000000000000000000000000000000000000000000000000000000000000000000000000000000000000000000000
