This file was generated by Ched 2.7.0.0.
#TITLE ""
#ARTIST ""
#DESIGNER ""
#DIFFICULTY 0
#PLAYLEVEL
#SONGID ""
#WAVE ""
#WAVEOFFSET 0
#JACKET ""
#REQUEST "ticks_per_beat 480"
#00002: 4
#BPM01: 160
#00008: 01
#TIL00: ""
#VOLUME: ""
#HISPEED 00
#MEASUREHS 00
#0011a:14
#00114:0014
#00218:14
#00312:14
#00318:0014
#00414:14
#0051a:14
#00512:0014
#00618:14
#00712:14
#0071a:0014
#00814:14
#0101a:14
#01014:0014
#0141a:00140000
#01414:1414
#01518:14
#01512:0014
#01618:14
#01118:14
#01112:0014
#00914:0014
#0091a:24
#01712:14
#01718:0014
#01710:41
#01812:14
#01818:0014
#02212:00140000
#02218:1414
#02314:14
#0231a:0014
#01914:14
#0191a:0014
#02414:14000014
#0241a:0014
#02515:0000001600000000
#02518:26
#02714:00140014
#02718:2614
#02710:41
#0281a:14
#02812:00140000
#02818:0014
#02814:00000014
#0291a:14
#02912:00140000
#02918:00000014
#03014:14
#0301a:00140000
#03012:0014
#03018:00000014
#03318:14
#03314:00140000
#0331a:0014
#03312:00000014
#03418:14
#03414:00140000
#0341a:00001414
#03518:00140014
#03514:0014
#03512:26
#03612:14
#0361a:00140000
#03614:0014
#03618:00000014
#03712:14
#0371a:00140000
#03714:00000014
#03710:41
#03818:14
#03812:00140000
#0381a:0014
#03814:00000014
#04512:14
#0451a:0014
#04614:1454545400000000
#04618:00000014
#0491a:14
#04912:0014
#04910:41
#05018:1454545400000000
#05014:00000014
#0471a:0014
#04712:24
#04814:14
#04818:00140000
#04812:0014
#05112:00140000
#05119:0014
#05113:00000014
#0511a:14
#0511f:11
#05318:14
#05314:00140000
#05319:0014
#05313:00000014
#05512:0014
#05518:26000014
#05613:14
#05619:00140000
#0571a:14
#05719:0014
#05714:00140000
#05713:00000014
#05818:14
#05812:00140000
#06114:0014
#06118:00000014
#06112:24
#0611a:00240000
#06212:14
#0621a:00140000
#06214:00000014
#06318:14
#06312:00140000
#0631a:0014
#06314:00000014
#06614:14
#06618:00140000
#06612:0014
#0661a:00000014
#06714:14
#06718:00140000
#06712:00001414
#06918:0014
#06914:00000014
#0691a:24
#06912:00240000
#0701a:14
#07012:00140000
#07018:00000014
#07114:14
#0711a:00140000
#07112:0014
#07118:00000014
#0781a:14
#07812:0014
#07918:1454545400000000
#07914:00000014
#0821a:14
#08212:0014
#08318:1454545400001400
#08314:0000000000140014
#0801a:14
#08112:14
#08418:14
#01218:2424
#01212:00240000
#02014:2424
#0201a:00240000
#04318:24
#05214:0024
#05412:0024
#06012:26
#0601a:00240000
#06014:0024
#06018:00000024
#0601f:21
#06010:0041
#06818:2624
#06812:00240000
#06814:00000024
#07614:24
#07214:24
#07418:24
#07410:41
#03918:24
#04114:24
#0095a:14
#01658:54
#01752:14
#02558:56
#02555:0000002600000000
#02758:16
#02952:00140000
#0295a:14
#03252:00000014
#03752:14
#0375a:00140000
#03552:16
#04459:15
#04358:54
#05857:00000014
#06252:14
#0625a:00140000
#0705a:14
#07052:00140000
#06052:16
#06858:16
#07654:64
#0655a:00000014
#07752:15
#013340:14240000
#0133a0:00001424
#016380:14
#0163a0:0024
#021380:14240000
#021320:00001424
#025380:16000026
#025350:0000003600000000
#026320:16000026
#031340:1400003400000000
#031320:0000000034000034
#032340:3400003400000000
#032320:00003424
#039380:1400003400000000
#0393a0:0000000034000034
#040380:3400003400000000
#0403a0:00003424
#041340:1400003400000000
#041320:0000000034000034
#042340:3400003400000000
#042320:00003424
#043380:14
#044390:25
#052380:14240000
#052340:00001424
#0543a0:14240000
#054320:00001424
#056340:00001424
#058370:00001424
#064380:1400003400000000
#0643a0:0000000034000034
#065380:3400003400000000
#0653a0:00003424
#072340:1400003400000000
#072320:0000000034000034
#073340:3400003400000000
#073320:00003424
#074380:1400003400000000
#0743a0:0000000034000034
#075380:3400003400000000
#0753a0:00003424
#076340:14
#077320:25
#046940:1400002400000000
#050980:1400002400000000
#079980:1400002400000000
#083980:1400002400000000
