This file was generated by Ched 2.7.0.0.
#TITLE ""
#ARTIST ""
#DESIGNER ""
#DIFFICULTY 0
#PLAYLEVEL
#SONGID ""
#WAVE ""
#WAVEOFFSET 0
#JACKET ""
#REQUEST "ticks_per_beat 480"
#00002: 4
#BPM01: 230
#BPM02: 208
#BPM03: 178
#BPM04: 185
#BPM05: 192
#BPM06: 198
#BPM07: 200
#BPM08: 205
#BPM09: 210
#BPM0A: 220
#00008: 01
#00508: 0000000002010000
#07008: 0000000000010000
#04508: 0000000000030000
#05708: 0000000000040000
#06308: 0000000000050000
#06508: 0006000000000000
#06608: 0000000000070000
#06708: 0000000800000000
#06808: 0009000000000000
#06908: 00000000000A0000
#TIL00: ""
#VOLUME: ""
#HISPEED 00
#MEASUREHS 00
#10418:0016000000000000
#10412:0000000000160000
#10410:0000000000410000
#10512:0016000000000000
#10518:0000000000160000
#10612:0016000000000000
#10712:0000000000160000
#10918:0016000000000000
#04718:0014000000000000
#0511a:0000000000140000
#0531a:0014000000000000
#05718:0000000000140000
#05710:0000000000410000
#05914:0014000000000000
#0631a:0000000000140000
#06412:0000001400000000
#0651a:0014000000000000
#06512:0000000000000014
#06618:0000000000140000
#06714:0000001400000000
#06818:0014000000000000
#0711a:0000000000140000
#08118:0016000000000000
#08318:0000000000160000
#08312:0016000000000000
#08512:0016000000000000
#08712:0000000000160000
#08718:0016000000000000
#08812:0016000000000000
#08818:0000000000160000
#08918:0016000000000000
#09312:0000000000160000
#09418:0000000000160000
#11212:0016000000000000
#11218:0000000000160000
#11318:0016000000000000
#11312:0000000000160000
#11418:0016000000000000
#11518:0000000000160000
#11712:0016000000000000
#12018:0016000000000000
#12012:0000000000160000
#12112:0016000000000000
#12118:0000000000160000
#12212:0016000000000000
#12312:0000000000160000
#10818:0016000000000000
#10812:0000000000160000
#11118:0016000000000000
#11112:0000000000260000
#11912:0016000000000000
#11918:0000000000260000
#12418:0016000000000000
#11612:0016000000000000
#11618:0000000000160000
#02218:0000000000140000
#02314:0000000000140000
#02418:0000000000140000
#02514:0000000000140000
#0261a:0000000000140000
#02610:0000000000410000
#0271a:0000000000140000
#02814:0000000000140000
#02914:0000000000140000
#03018:0000000000140000
#03118:0000000000140000
#03212:0000000000140000
#03312:0000000000140000
#0351a:0000000000140000
#0341a:0000000000140000
#03614:0000000000140000
#03714:0000000000140000
#04414:0000000000140000
#04814:0000000000140000
#05014:0014000000000000
#05412:0000000000140000
#05612:0014000000000000
#06018:0000000000140000
#06214:0014000000000000
#07312:0000000000140000
#07518:0000000000140000
#07614:0000000000140000
#08012:0016000000000000
#08018:0000000000160000
#08218:0000000000160000
#08418:0016000000000000
#08412:0000000000160000
#08612:0000000000160000
#09018:0000000000160000
#09112:0016000000000000
#0911f:0000000000110000
#00518:0000000000240000
#04518:0000000000240000
#04510:0000000000410000
#07912:0000000000260000
#07910:0000000000410000
#10318:0000000000260000
#1031f:0000000000210000
#00718:0034000000000000
#00618:3400003400003400
#01010:0000000000410000
#001340:14
#002340:34
#003340:34
#004340:24
#005380:0000000000140000
#006380:3400003400003400
#007380:0034000000000000
#0073a0:0034
#0083a0:0000003400000000
#009380:0026000000000000
#010340:0000000000140000
#013340:0000000000240000
#014380:0000000000140000
#017380:0000000000240000
#018320:0000000000140000
#020320:0000000000340000
#021320:0000000000240000
#0383a0:0000000000140000
#0393a0:0000000000340000
#040390:0000000000340000
#041380:0000000000340000
#0423a0:0000000000340000
#043380:0000000000240000
#068320:0000000000000016
#070320:0000000000260000
#077380:0000000000140000
#078380:0000000000240000
#081320:0000000000160000
#082320:0026000000000000
#085380:0000000000160000
#086380:0026000000000000
#089320:0000000000160000
#090320:0026000000000000
#091380:0000000000160000
#092380:0000000000260000
#095340:0000000000140000
#098320:00000034
#099340:0000000000340000
#100320:0000000000340000
#101340:0000000000340000
#102320:0000000000240000
#106380:0000000000160000
#107380:0026000000000000
#109320:0000000000160000
#110320:0000000000260000
#114320:0000000000160000
#115320:0026000000000000
#117380:0000000000160000
#118380:0000000000260000
#122380:0000000000160000
#123380:0026000000000000
#124320:0000000000160036
#125320:0000003600000000
#130320:0000000000240000
