This file was generated by Ched 2.7.0.0.
#TITLE ""
#ARTIST ""
#DESIGNER ""
#DIFFICULTY 0
#PLAYLEVEL
#SONGID ""
#WAVE ""
#WAVEOFFSET 0
#JACKET ""
#REQUEST "ticks_per_beat 480"
#00002: 4
#BPM01: 230
#BPM02: 208
#BPM03: 178
#BPM04: 185
#BPM05: 192
#BPM06: 198
#BPM07: 200
#BPM08: 205
#BPM09: 210
#BPM0A: 220
#00008: 01
#00508: 0000000002010000
#07008: 0000000000010000
#04508: 0000000000030000
#05708: 0000000000040000
#06308: 0000000000050000
#06508: 0006000000000000
#06608: 0000000000070000
#06708: 0000000800000000
#06808: 0009000000000000
#06908: 00000000000A0000
#TIL00: ""
#VOLUME: ""
#HISPEED 00
#MEASUREHS 00
#00014:0012
#00017:00000012
#00117:00000012
#0021a:12
#00218:00120000
#00216:0012
#00214:00000012
#0101b:00130000
#01015:0000001300000000
#01018:13
#01012:0000000000240000
#01010:0000000000410000
#01115:0000001313000000
#01112:0000000000000013
#01212:1300000000000013
#01315:0013000000000000
#01318:0000001300000013
#0131b:0000000000130000
#01415:13
#01412:00130000
#01418:0013
#0161b:0013000000000000
#01619:0000001300000000
#01617:0000000000130000
#01819:0000000000000013
#0181b:13
#0191b:0013000000000000
#01919:0000001300000000
#01917:0000000000130000
#01714:13
#01717:0000001300000000
#02019:13
#0201b:0000001300000000
#02016:0000000000000013
#02115:0013000000000000
#02114:0000001300000000
#02118:0000000000000013
#02112:0000000000240000
#02215:13000013
#02213:00130000
#0221a:2413
#02218:0000000000000013
#02216:0000002400000000
#02212:0000000000240000
#0231b:13
#02315:0013000000000013
#02318:00130013
#02312:0000001400000000
#0231a:0000000000140000
#00316:0012
#00318:12
#02412:1300000000140000
#02418:0013000000000013
#0241a:0000001400000000
#02415:00130013
#0251b:13
#02515:0013000000000000
#02512:0000001400000000
#02518:00130000
#03915:0013000000000000
#03918:0013000000000000
#04115:0000000000000013
#04118:001400000000000000000000000000000000000000000000
#0411a:0000000000140000
#04213:0013000000000000
#04217:13
#04219:0013000000000000
#04218:0000001300000000
#0421a:0000000000130000
#04216:0013
#04214:0000000000130014
#04318:0000001300001300
#0431b:0000000000130000
#04315:0000000013000013
#04312:0014000000000000
#04317:14
#0431a:0014000000000000
#04418:00130014
#04415:0000001300000000
#04412:1313
#0441b:0013000000000000
#04416:0000000000000024
#0441a:0000000000240000
#04514:14240000
#04515:0000000000000013
#0451a:0024000000240000
#04512:0024000024000000
#04518:0000002400000000
#04510:0000000000410000
#0461b:0013000000130000
#04618:00130000
#04615:0000001300000000
#04612:0024000000001300
#04616:0000000000000024
#04718:0000000013000013
#04715:0000000000130000
#04712:0000001300001300
#0471b:0013000000000000
#0471a:0000000000240000
#0481b:0013000013000000
#04815:1300000000130000
#04818:00000013
#04812:0000000000000013
#04816:0000002400000000
#04915:0000001300000000
#04918:0000000000130000
#04912:0024000000000014
#0491a:0000000000000024
#05016:14000014
#05012:0000000000240000
#05716:0014
#05712:0000000000140000
#05718:0000000000000013
#0571a:0000002400000000
#05710:0000000000410000
#0531b:0013
#05318:1300000000130013
#05315:0023000000001300
#05312:00000000001300000000240000000000
#05415:1313
#0541b:0013001300000013
#05412:0013002400000000
#05418:0000000000130000
#06212:1400000000240000
#06216:00000014
#06316:0000000014000013
#0631a:0000002400000000
#06312:0000000000240000
#06417:0000000000130000
#0641a:1400000000000014
#06412:0014000000001400
#06415:0000001300000000
#06516:0000001300000000
#0651a:0014
#06518:0013000000000000
#06515:0000000000000013
#06512:0000000000140000
#06617:0013000000000000
#06612:0000140000000013
#0661a:0000001400140000
#0671b:0000000000130000
#06712:0000001400000000
#06718:1300000000000014
#06715:00000013
#06714:0014000000000000
#06812:0000001300000014
#0681a:0014000000000000
#06818:0013
#06814:0000000000140000
#06915:14
#06918:0014000000000000
#06914:00140000
#06917:0000001400000000
#0691a:0014
#06913:00000000002a0000
#08012:0013000000000000
#08014:0000001300000000
#08016:0000000000130000
#08018:0023000000000023
#0801b:0000002300230000
#07918:0012000000130000
#07916:0000001200000000
#07912:0000000000230000
#07915:0000000000000023
#07910:0000000000410000
#0831b:0013000000000013
#08318:0000001300000000
#08312:0000002300230000
#08315:0023000000000023
#0861b:1300002300230000
#08615:0000130000000023
#08612:0000001300000000
#08618:0023000000000013
#09318:0000001300000000
#09315:0013
#0931a:0000000000141400
#0931b:00130000
#09316:0013000000000000
#09312:0000000000242400
#10212:0013
#10214:00000014
#10218:0013130000000014
#1021b:0013
#1041a:0013002400000000
#1041b:0000000000130000
#10416:0013000000000000
#10418:0000000000000013
#10415:23
#10412:0000000000230000
#10410:0000000000410000
#10313:0000000000000013
#10312:0014000000240000
#10317:0000000000000013
#1031a:0024000000240000
#1031f:0000000000210000
#1101a:0000000000000014
#11018:0000132300000000
#1101b:13
#11015:2300001300000000
#11012:0000000000000014
#1071b:0013000000000013
#10715:0013
#10718:0000001300000000
#10712:0000000000140000
#1071a:0000000000240000
#1081a:0014140000000000
#10816:00000014000000000000000000000000
#10812:0000001400130013
#10818:0000000000000013
#1081b:0000000000130000
#09516:0013
#09517:000000000000000000000000000000000000000000000000000000000000000000000000000000000000000000000000000000000000000000000000000000000000000000000000000000000000000000000000000000000000000000000000000000000000000000000000000000000000000000000000000000000000000000000000000000000000000000000000000000000000000000000000000000000000000000000000000000000000000000000000000000000000000000000000000000000000000000000000000000000000000000000000000000000000000000000000000000000000000000000000000000000000000000000000000000000000000000000000000000000000000000000000000000000000000000000000000000000000000000000000000000000000000000000000000000000000000000000000000000000000000000000000000000000000000000000000000000000000000000000000000000000000000000000000000000000000000000000000000000000000000000000000000000000000000000000000000000000000000000000000000000000000000000000000000000000000000000000000000000000000000000000000000000000000000000000000000000000000000000000000000000000000000000000000000000000000000000000000000000000000000000000000000000000000000000000000000000000000000000000000000000000000000000000000000000000000000000000000000000000000000000000000000000000000000000000000000000000000000000000000000000000000000000000000000000000000000000000000000000000000000000000000000000000000000000000000000000000000000000000000000000000000000000000000000000000000000000000000000000000000000000000000000000000000000000000000000000000000000000000000000000000000000000000000000000000000000000000000000000000000000000000000000000000000000000000000000000000000000000000000000000000000000000000000000000000000000000000000000000000000000000000000000000000000000000000000000000000000000000000000000000000000000000000000000000000000000000000000000000000000000000000000000000000000000000000000000000000000000000000000000000000000000000000000000000000000000000000000000000000000000000000000000000000000000000000000000000000000000000000000001300000000000000000000000000000000000000000000000000000000000000000000000000000000000000000000000000000000000000000000000000000000000000000000000000000000000000000000000000000000000000000000000000000000000000000000000000000000000000000000000000000000000000000000000000000000000000000000000000000000000000000000000000000000000000000000000000000000000000000000000000000000000000000000000000000000000000000000000000000000000000000000000000000000000000000000000000000000000000000000000000000000000000000000000000000000000000000000000000000000000000000000000000000000000000000000000000000000000000000000000000000000000000000000000000000000000000000000000000000000000000000000000000000000000000000000000000000000000000000000000000000000000000000000000000000000000000000000000000000000000000000000000000000000000000000000000000000000000000000000000000000000000000000000000000000000000000000000000000000000000000000000000000000000000000000000000000000000000000000000000000000000000000000000000000000000000000000000000000000000000000000000000000000000000000000000000000000000000000000000000000000000000000000000000000000000000000000000000000000000000000000000000000000000000000000000000000000000000000000000000000000000000000000000000000000000000000000000000000000000000000000000000000000000000000000000000000000000000000000000000000000000000000000000000000000000000000000000000000000000000000000000000000000000000000000000000000000000000000000000000000000000000000000000000000000000000000000000000000000000000000000000000000000000000000000000000000000000000000000000000000000000000000000000000000000000000000000000000000000000000000000000000000000000000000000000000000000000000000000000000000000000000000000000000000000000000000000000000000000000000000000000000000000000000000000000000000000000000000000000000000000000000000000000000000000000000000000000000000000000000000000000000000000000000000000000000000000000000000000000
#09518:0000001400000000
#09514:0000002400630000
#09512:0000000000000000000000000000000000000000006300000000000024000000
#0951a:0000000000000024
#09519:0000000000530000
#0951b:0000000000000000000000000000000000000000005300000000000000000000
#1061a:0014000000000014
#10616:0000001400000014
#10612:0000001400150000
#10512:0000000000130000
#1051b:0013000000130013
#10516:0000000000000013
#10515:0013000000000000
#10915:0000001300000013
#10912:0013000000000000
#1091b:0000001300000000
#10918:0000000000230000
#1201a:0013002400000000
#1201b:0000000000130000
#12018:0000000000000013
#12015:23
#12012:0000000000230000
#11913:0000000000000013
#11917:0000000000000013
#1191a:0024000000240000
#11912:0000000000240000
#02615:1313
#02618:00130000000013000000000000000000
#02612:0000000000230023
#02610:0000000000410000
#0341b:0000000000130000
#03419:0023002300000000
#03418:0000000000000023
#03412:0000000000230000
#03818:0000000013000000000000000000000000000000006300000000000013000000
#03815:0000000000000000000000001300000000000000006300000000000000000000
#0381a:0000000000240000
#03812:0023000000240000
#0381b:0000002300000000
#04018:0000000000000014
#04014:000000000000000000000000000000000000000000000014
#04012:0024
#0401a:0024
#05116:0014
#05112:0000000000130000
#0511b:00000013
#05115:0000000000000013
#0511a:0000002400000000
#05218:1300000000130000
#0521b:0013001300000013
#05215:00000013
#05212:0024000013000024
#05514:0000001300130000
#05517:0000001300000000
#05512:0024000000000000
#05516:0000000000000024
#0561a:14
#05616:00000014
#05612:0000000000240000
#05812:0013000000130000
#05815:00130000
#05818:0000001300000000
#0581b:00000013
#0581a:0024000000000000
#05816:0000000000000024
#05915:0000000013000013
#05918:0000000000130000
#0591b:0000001300001300
#05912:0013000000240000
#06012:0013000013000013
#06018:13
#0601b:0000130000130000
#06016:0000002400000000
#06119:0000001300130000
#06116:0000001300000024
#0611a:0024000000000000
#07517:0062000000120000
#07514:0000000000120000
#07513:00000000000000000000003200000000
#07512:00000000000000000000000032320000
#07616:0000000000140000
#07618:0013000000000000
#07619:003300000000
#0761a:000000000033000000000000000000000000000000000000
#0761b:000000000000333333000000000000000000000000000000
#07615:0000000000000000000000000000000000000000003400000000000000000000
#07614:00000000000000000000003400000000
#07613:0000000000000000000000000000000000000000000000340000000000000000
#07612:0000000000000000000000000000000000000000000000003434343400000000
#07716:0014000000000000
#07717:0000000000340000000000000000000000000000000000000000000000000000
#07718:00000034000000000000000000000000
#07719:0000000000000034000000000000000000000000000000000000000000000000
#0771a:0000000000000000343434340000000000000000000000000000000000000000
#0811b:1300000000000013
#08119:0000000000130000
#08115:0023000000000023
#08112:0000002300230000
#08212:1300001300000000
#08215:00130000
#08216:0000000000130000
#0821b:0000002300230000
#08218:0023000000000023
#08412:0013000000130013
#08414:0013
#08418:0023000000000023
#0841b:0000002300230000
#0851b:1300001300000000
#08519:0013
#08517:0000000000130000
#08512:0000002300230000
#08515:0023000000000023
#0881b:0013000000000000
#08819:0000001300000000
#08817:0000000000130000
#08815:0023000000000023
#08812:0000002300230000
#08715:0000001300130000
#0871b:0013000000230000
#08718:0000002300000023
#08712:0023000000000000
#08912:1300000000000013
#08914:0000000000130000
#08918:0023000000000023
#0891b:0000002300230000
#09112:0013001300000000
#09116:0000000000130000
#0911f:0000000000110000
#09118:0023000000000023
#0911b:0000002300230000
#0901b:1300001300000000
#09018:00130000
#09017:0000000000130000
#09012:0000002300230000
#09015:0023000000000023
#09214:0000000000000013
#0921b:13
#09217:0013
#09215:0023000000000000
#09212:0000002300230000
#09415:0000001300000000
#09418:0013
#09412:0000130000141400
#0941a:0000000000242400
#09615:0013000000240013
#09612:00140000
#09618:0013
#0961a:0000000000140000
#09617:00240000
#09712:14000014
#09718:24130000
#0971a:0000001400000000
#09716:0000000000130000
#09714:0000002400000000
#09719:00000024
#09817:13
#0981a:0014000024000000
#09816:0000001400000000
#09812:00001413
#09813:00002400000000000000000000530000
#09814:0000000000000053
#09815:00000000000000000000000000000053
#0991b:0013000000000000
#09912:0000001300000014
#0991a:00000053000000000000140000000000
#09916:5300000000530054
#09917:00000000000053000000000000540000
#09918:00000000005300000000000054000000
#09919:00000000530000000000005400000000
#09913:00000000000000530000000000000054
#09914:0053
#09915:00000000000000000053000000000000
#1001b:0013000000000000
#10016:0054130000000000
#10019:00000000530013000000005400000054
#10014:5400005313001400
#1001a:00000053000000000000140000001400
#10015:00540000005300000000000000000000
#10017:0053
#10018:00000000000000530000000054000000
#10013:00000000000000000053000000540000
#10012:0000000000530054
#10114:14
#10115:0000000000001313
#10118:5400000026666666666666666666666666666666660000000000000000000000
#10112:0054000000000000
#10113:00540000000000000000000000000000
#1211b:0000000000130013
#12115:0013000000000000
#12212:0000001400000000
#1221a:0000000000000014
#1231b:0013000000000013
#12315:0013
#12318:0000001300000000
#1231a:0000000000240000
#1241a:0014140000000000
#12416:00000014000000000000000000000000
#12412:0000001400130013
#12418:0000000000000013
#1241b:0000000000130000
#12916:0000000000140000
#1121a:0013002400000000
#11216:0013000000000000
#1121b:0000000000130000
#11218:0000000000000013
#11215:23
#11212:0000000000230000
#11113:0000000000000013
#11117:0000000000000013
#1111a:0024000000240000
#11112:0000000000240000
#1131b:0000000000130013
#11316:0000000000000013
#11315:0013000000000000
#11416:0000001400000014
#11412:0000001400000000
#1141a:0000000000000014
#1151b:0013000000000013
#11515:0013
#11518:0000001300000000
#1151a:0000000000240000
#1161a:0014140000000000
#11616:00000014000000000000000000000000
#11612:0000001400130013
#1161b:0000000000130000
#11716:0000001300000000
#1171b:0000001300000000
#11715:0000000000000013
#11718:0000000000230000
#11818:0000132300000000
#1181b:13
#1181a:0000000000000014
#11812:0000000000000014
#11815:23
#00918:0000001300000000
#00915:00000013
#00912:3313
#0091b:33
#03515:1300002300000000
#0351b:0013000000230000
#03512:0023000000140000
#03518:0000000013000023
#0361a:0014000000000014
#03615:1400002300000000
#03612:0023000000140000
#03617:0014
#0361b:0000000000230000
#03616:0000000000000023
#03712:0023001400000023
#0371b:0000000000230013
#03717:0000002300000000
#00512:0000000000240000
#00518:0000000000230000
#00517:0052
#00615:23000023
#0061a:24000024
#00612:0000002400000000
#00618:0000002300000000
#00712:0024000000000000
#00718:0023000000000000
#00715:0023
#0071a:0024
#0081b:0000000000000000000000002300000000330000000033000000003300000000
#00812:0000000000000000000000000000000000330000000033000000003300000000
#02712:0023002300000000
#02714:0000000000230023
#02814:0023002300000000
#02816:0000000000230023
#02916:0023002300000000
#02914:0000000000230023
#03014:0023002300000000
#0301b:0000000000230023
#0311b:0023002300000000
#03119:0000000000230023
#03219:0023002300000000
#03217:0000000000230023
#03317:0023002300000000
#03319:0000000000230023
#13017:0000000000520000
#12512:5c
#07113:00000000006a0000
#07315:0000000000660000
#07316:0084
#07214:0000000000680000
#07215:0086
#07416:0000000000640000
#07417:0082
#01458:0063
#00356:0052
#00358:52
#02352:0000001400000000
#0245a:0000001400000000
#02552:0000001400000000
#03955:0053000000000000
#03958:0063000000000000
#04253:0013000000000000
#0425a:0000000000130000
#07958:0000000000630000
#08652:0000005300000000
#08656:0000000000140000
#1075b:0043000000000000
#10752:0033000000640000
#04655:0000005300000000
#04652:00000023
#04855:63
#04858:00000063
#0645a:2400000000000014
#06452:0014000000002400
#06455:0000006300000000
#0655a:0024
#06558:0063000000000000
#06555:0000000000000063
#06552:0000000000140000
#0665a:0000001400640000
#06652:00240000
#06752:0000006400000000
#06758:2300000000000014
#06755:00000023
#06754:0014000000000000
#0685a:0064000000000000
#06858:0023
#06854:0000000000140000
#0935a:00000064
#09352:00000064
#09556:0023
#09557:000000000000000000000000000000000000000000000000000000000000000000000000000000000000000000000000000000000000000000000000000000000000000000000000000000000000000000000000000000000000000000000000000000000000000000000000000000000000000000000000000000000000000000000000000000000000000000000000000000000000000000000000000000000000000000000000000000000000000000000000000000000000000000000000000000000000000000000000000000000000000000000000000000000000000000000000000000000000000000000000000000000000000000000000000000000000000000000000000000000000000000000000000000000000000000000000000000000000000000000000000000000000000000000000000000000000000000000000000000000000000000000000000000000000000000000000000000000000000000000000000000000000000000000000000000000000000000000000000000000000000000000000000000000000000000000000000000000000000000000000000000000000000000000000000000000000000000000000000000000000000000000000000000000000000000000000000000000000000000000000000000000000000000000000000000000000000000000000000000000000000000000000000000000000000000000000000000000000000000000000000000000000000000000000000000000000000000000000000000000000000000000000000000000000000000000000000000000000000000000000000000000000000000000000000000000000000000000000000000000000000000000000000000000000000000000000000000000000000000000000000000000000000000000000000000000000000000000000000000000000000000000000000000000000000000000000000000000000000000000000000000000000000000000000000000000000000000000000000000000000000000000000000000000000000000000000000000000000000000000000000000000000000000000000000000000000000000000000000000000000000000000000000000000000000000000000000000000000000000000000000000000000000000000000000000000000000000000000000000000000000000000000000000000000000000000000000000000000000000000000000000000000000000000000000000000000000000000000000000000000000000000000000000000000000000000000000000000000000000000000002300000000000000000000000000000000000000000000000000000000000000000000000000000000000000000000000000000000000000000000000000000000000000000000000000000000000000000000000000000000000000000000000000000000000000000000000000000000000000000000000000000000000000000000000000000000000000000000000000000000000000000000000000000000000000000000000000000000000000000000000000000000000000000000000000000000000000000000000000000000000000000000000000000000000000000000000000000000000000000000000000000000000000000000000000000000000000000000000000000000000000000000000000000000000000000000000000000000000000000000000000000000000000000000000000000000000000000000000000000000000000000000000000000000000000000000000000000000000000000000000000000000000000000000000000000000000000000000000000000000000000000000000000000000000000000000000000000000000000000000000000000000000000000000000000000000000000000000000000000000000000000000000000000000000000000000000000000000000000000000000000000000000000000000000000000000000000000000000000000000000000000000000000000000000000000000000000000000000000000000000000000000000000000000000000000000000000000000000000000000000000000000000000000000000000000000000000000000000000000000000000000000000000000000000000000000000000000000000000000000000000000000000000000000000000000000000000000000000000000000000000000000000000000000000000000000000000000000000000000000000000000000000000000000000000000000000000000000000000000000000000000000000000000000000000000000000000000000000000000000000000000000000000000000000000000000000000000000000000000000000000000000000000000000000000000000000000000000000000000000000000000000000000000000000000000000000000000000000000000000000000000000000000000000000000000000000000000000000000000000000000000000000000000000000000000000000000000000000000000000000000000000000000000000000000000000000000000000000000000000000000000000000000000000000000000000000000000000000000000000
#09558:1300005400000000
#09554:0000005400000000
#09555:13
#10352:0054000000140000
#10357:0000000000000023
#1035a:0064000000540000
#10358:0000001300000000
#10355:0000001300000000
#10456:0023000000000000
#10458:0000000000000063
#10455:53
#1045a:0000004400000000
#10452:0000003400530000
#1065a:0054000000000000
#10656:0000002400000024
#10652:0034000000650000
#10659:0000000000450000
#10552:0000001400530000
#1055b:0063000000430000
#10556:0000001400000023
#10555:0053000000000000
#10955:0000005300000000
#10952:0063000000130000
#1095b:0013000000000000
#11957:0000000000000023
#11952:0000000000140000
#1195a:0064000000000000
#11958:0000001300000000
#11955:0000001300000000
#01757:0000005300000000
#04352:0014000000000000
#0435a:0014000000000000
#0415a:0000000000140000
#04152:0000000000140000
#0185b:23
#05752:0000000000140000
#05858:0000006300000000
#0585b:00000023
#0545b:0000000000000063
#05458:0000000000630000
#06052:0000000000000053
#0605b:0000000000530000
#05352:00000000002300000000000000000000
#05355:0063000000000000
#05557:0000002300000000
#06156:0000002300000000
#07557:0000000000120000
#07554:0000000000620000
#07656:0000000000640000
#07658:0053000000000000
#07652:0012000000000000
#0765b:0000000000130000
#07756:0054000000000000
#07752:0000000000140000
#0775a:0000000000140000
#0815b:23
#08056:0000000000630000
#08252:0000005300000000
#08256:0000000000230000
#08452:0053000000130000
#08557:0000000000630000
#08755:0000000000530000
#08952:23
#08857:0000000000530000
#0905b:0000006300000000
#09057:0000000000230000
#09152:0000005300000000
#09156:0000000000230000
#0925b:63
#09257:0023
#09452:00000054
#0945a:00000054
#09455:13
#09458:13
#1105b:13
#11055:0000006300000000
#11058:0000006300000000
#11052:0000000000140000
#1105a:0000000000140000
#10858:0000000000000063
#1085b:0000000000530000
#10852:0000000000130000
#12058:0000000000000063
#12055:53
#1205a:0000004400000000
#12052:0000003400530000
#1215b:0000000000430000
#12155:0053000000000000
#12156:0000001400000000
#12152:0000001400000000
#1235b:0043000000000000
#12352:0033000000000000
#12452:0000000000130000
#12458:0000000000000063
#1245b:0000000000530000
#12956:0000000000540000
#11256:0023000000000000
#11258:0000000000000063
#11255:53
#1125a:0000004400000000
#11252:0000003400530000
#11157:0000000000000023
#1115a:0064000000540000
#11152:0000000000140000
#11158:0000001300000000
#11155:0000001300000000
#1135b:0000000000430000
#11356:0000001400000023
#11355:0053000000000000
#11352:0000001400000000
#11456:0000002400000024
#11459:0000000000450000
#11452:0034000000000000
#1155b:0043000000000000
#11552:0033000000000000
#1165b:0000000000530000
#11652:0000000000130000
#11756:0000005300000000
#1175b:0013000000000000
#11752:0000000000130000
#1185b:13
#11858:0000006300000000
#1185a:0000000000140000
#11852:0000000000140000
#0355b:0013000000000000
#03552:0000000000140000
#0365a:0014000000000054
#03652:0000000000140000
#03752:0000006400000000
#03756:0014000000140000
#00552:0000000000140000
#0065a:14000014
#00652:0000001400000000
#00752:0014000000000000
#00755:0053
#0075a:0014
#0455a:0000000000140000
#04552:0000000000140000
#01052:0000000000140000
#09657:00140000
#09655:0000000000140000
#09758:14
#09754:0000001400000000
#09759:00000014
#09853:0014000000000000
#0985a:0014
#0305b:0000000000130000
#02652:0000000000130000
#03452:0000000000130000
#10158:0000000000160000
#07153:00000000006a0000
#07355:0000000000660000
#07356:0024
#07254:0000000000680000
#07255:0026
#07456:0000000000640000
#07457:0022
#00952:0016000000000000
#00958:0016000000000000
#0405b:0013000000000000
#04052:0013000000000000
#12259:0000000000450000
#12252:0034000000000000
#0013a0:1200002200000000
#001341:0000001200002200
#003381:12
#0033a1:0022
#003360:0012
#004340:22
#004371:1200000000000000000000520052005200000000000000000052005200520052
#004351:00000000000056560000000000000000
#004361:00000000000000000000000000545400
#005351:56565656565656560000000000000000
#005371:0052005200520052005200520052005222000000000000000000000000000000
#007351:0013
#008321:0000000000000000000000003300000000330000000033000000003300000000
#009321:3326000000000000
#0083b0:0000000000000000000000001300000000330000000033000000003300000000
#0093b0:33
#009380:0026000000000000
#0103a0:0000000000140000
#0123c0:0000000000220000
#012321:0013000000230000
#014381:0013
#0153b1:0000000000230000
#014320:0000000000140000
#016320:0000000000220000
#017370:0000001300000000
#0183b0:53
#018370:0000000000230000
#018341:0000000000120000
#020341:0000000000220000
#0203a0:0000000000120000
#0213a0:0000000000220000
#0253b0:0000000000132300
#025351:0000000000001323
#025380:0000000000000013
#026380:23
#026320:0013002300000000
#0263b0:0000000000130000
#0273b0:33333333
#0283b0:0033000000330000
#0293b0:33333333
#0303b0:0033000000230000
#030321:0000000000130000
#031321:33333333
#032321:0033000000330000
#033321:33333333
#034321:0033000000230000
#0363a1:0000000000000014
#037361:0024000000000000
#037321:0000001400000000
#037361:0000000000240000
#039351:1353000000000033
#039321:0000000000330000
#039331:000000000000000000000000000000000033000000000000
#039341:000000000000000000000000000000000000003300000033
#040331:003300000000000000000000000000000000000000000000
#040321:0023000000000000
#039380:0013000000000033
#0393b0:0000000000330000
#0393a0:000000000000000000000000000000000033000000000000
#039390:000000000000000000000000000000000000003300000033
#0403a0:003300000000000000000000000000000000000000000000
#0403b0:0023000000000000
#041340:0014000000000000
#041320:00000054005400540054240000000000
#041330:0000545454000000
#0453a0:0014240000000000
#045341:0000142400000000
#045380:0000001424000000
#045321:0000000014240000
#046351:0000001300000000
#046321:00000053
#047351:0023000000000000
#048351:13
#048321:0000002300000000
#048381:00000013
#0493b1:0000002300000000
#050321:0014000000000000
#050331:00340000
#050341:0000002400000000
#050380:0000001400000000
#050390:0034
#0503a0:0000000000240000
#0503a0:0000000000000014
#051390:34
#051380:0024000000000000
#051341:0014000000000000
#051331:00340000
#051321:0000002400000000
#053351:0013000023000000
#053321:00000000005300000000000000000000
#054381:0000000000130000
#0543b1:0000000000000033
#055371:0000005300000000
#0553b1:0000000000000023
#056321:0014000000000000
#056331:00340000
#056341:0000002400000000
#056380:0000001400000000
#056390:0034
#0563a0:0000000000240000
#0563a0:0000000000000014
#057390:34
#057380:0024000000000000
#057341:0014000000000000
#057331:00340000
#057321:0000002400000000
#058381:0000001300000000
#0583b1:00000053
#059381:0023000000000000
#0603b1:0000000000130000
#060381:0000000000000023
#060320:0000000000000013
#061360:0000005300000000
#061320:0000000000000023
#0623a0:0014240000000000
#062321:0000142400000000
#0623a0:0000001400000000
#062380:0034
#062360:0000000000240000
#062320:0000000000000014
#063320:24
#0633a1:1424000000000000
#063320:0014000000000000
#063340:00340000
#063360:0000002400000000
#0633a0:0000000000140000
#0643a0:54
#064380:0000002300000000
#064351:0000001300000000
#064321:00000054
#065351:0023000000000000
#065380:0013000000000023
#0653a0:0054
#065351:0000000000000013
#066321:00540000
#066351:0000000000230000
#0663a0:0000000000140000
#067380:53
#0673a0:0000002400000000
#067321:0000001400000000
#067351:00000053
#068321:0024000000000000
#0683a0:0014000000000024
#068380:0053
#069330:00000000001a005a
#069340:0000000000000000000000000000000000000000005800580058005800000000
#069320:00000000000000000000005c5c5c0000
#070330:00005a000000005a5a005a005a005a00
#070340:0000000000580058005800580058000000580058000000000058005800000000
#070320:0000005c5c5c5c00005c0000005c0000
#071330:5a5a0000002a0000
#071340:0058005800000000000000000000000000000000000000000000000000000000
#071320:005c0000000000000000000000000000
#075340:0000000000120000
#075330:00000000000000000000003200000000
#075320:00000000000000000000000032323232
#076320:32322200000000000000000000000000
#076381:0013000000000000
#076391:003300000000
#0763a1:000000000033000000000000000000000000000000000000
#0763b1:000000000000333333333333333333230000000000000000
#076360:0000000000140000
#076350:0000000000000000000000000000000000000000003400000000000000000000
#076340:00000000000000000000003400000000
#076330:0000000000000000000000000000000000000000000000340000000000000000
#076320:0000000000000000000000000000000000000000000000003434343434343434
#077320:3434343434343434343434343434343434343434240000000000000000000000
#077361:0014000000000000
#077371:0000000000340000000000000000000000000000000000000000000000000000
#077381:00000034000000000000000000000000
#077391:0000000000000034000000000000000000000000000000000000000000000000
#0773a1:0000000000000000343434343434343434343434240000000000000000000000
#079381:0000000000130000
#0793b1:0000000000000023
#080361:0000000000130000
#081321:23
#0813b0:13
#081370:0000002300000000
#082320:0000001300000023
#082360:0000000000530000
#084320:0013000000000000
#084360:0000002300000000
#085370:0000000000130000
#0853b0:0000000000000023
#086320:0000001300000000
#086360:0000000000240000
#087350:0000000000130000
#087320:0000000000000023
#088370:0000000000130000
#0893b0:23
#089321:13
#089361:0000002300000000
#0903b1:0000001300000023
#090371:0000000000530000
#091321:0000001300000023
#091361:0000000000530000
#0923b1:13
#092371:0053
#0933b1:0023000000000000
#093321:00000014
#093351:0000000000000053
#094351:23
#0933a0:00000014
#093380:0000000000000053
#094380:23
#0943a0:00000014
#094380:0000000000000053
#095380:23
#094321:00000014
#094351:0000000000000053
#095351:23
#095381:0000001400000000
#095371:000000000000000000000000000000000000000000000000000000000000000000000000000000000000000000000000000000000000000000000000000000000000000000000000000000000000000000000000000000000000000000000000000000000000000000000000000000000000000000000000000000000000000000000000000000000000000000000000000000000000000000000000000000000000000000000000000000000000000000000000000000000000000000000000000000000000000000000000000000000000000000000000000000000000000000000000000000000000000000000000000000000000000000000000000000000000000000000000000000000000000000000000000000000000000000000000000000000000000000000000000000000000000000000000000000000000000000000000000000000000000000000000000000000000000000000000000000000000000000000000000000000000000000000000000000000000000000000000000000000000000000000000000000000000000000000000000000000000000000000000000000000000000000000000000000000000000000000000000000000000000000000000000000000000000000000000000000000000000000000000000000000000000000000000000000000000000000000000000000000000000000000000000000000000000000000000000000000000000000000000000000000000000000000000000000000000000000000000000000000000000000000000000000000000000000000000000000000000000000000000000000000000000000000000000000000000000000000000000000000000000000000000000000000000000000000000000000000000000000000000000000000000000000000000000000000000000000000000000000000000000000000000000000000000000000000000000000000000000000000000000000000000000000000000000000000000000000000000000000000000000000000000000000000000000000000000000000000000000000000000000000000000000000000000000000000000000000000000000000000000000000000000000000000000000000000000000000000000000000000000000000000000000000000000000000000000000000000000000000000000000000000000000000000000000000000000000000000000000000000000000000000000000000000000000000000000000000000000000000000000000000000000000000000000000000000000000000000000000000000000005300000000000000000000000000000000000000000000000000000000000000000000000000000000000000000000000000000000000000000000000000000000000000000000000000000000000000000000000000000000000000000000000000000000000000000000000000000000000000000000000000000000000000000000000000000000000000000000000000000000000000000000000000000000000000000000000000000000000000000000000000000000000000000000000000000000000000000000000000000000000000000000000000000000000000000000000000000000000000000000000000000000000000000000000000000000000000000000000000000000000000000000000000000000000000000000000000000000000000000000000000000000000000000000000000000000000000000000000000000000000000000000000000000000000000000000000000000000000000000000000000000000000000000000000000000000000000000000000000000000000000000000000000000000000000000000000000000000000000000000000000000000000000000000000000000000000000000000000000000000000000000000000000000000000000000000000000000000000000000000000000000000000000000000000000000000000000000000000000000000000000000000000000000000000000000000000000000000000000000000000000000000000000000000000000000000000000000000000000000000000000000000000000000000000000000000000000000000000000000000000000000000000000000000000000000000000000000000000000000000000000000000000000000000000000000000000000000000000000000000000000000000000000000000000000000000000000000000000000000000000000000000000000000000000000000000000000000000000000000000000000000000000000000000000000000000000000000000000000000000000000000000000000000000000000000000000000000000000000000000000000000000000000000000000000000000000000000000000000000000000000000000000000000000000000000000000000000000000000000000000000000000000000000000000000000000000000000000000000000000000000000000000000000000000000000000000000000000000000000000000000000000000000000000000000000000000000000000000000000000000000000000000000000000000000000000000000000000000000000000
#095391:0000000000230000
#095340:0000001400230000
#095360:0053
#1033a0:0014000000000000
#103380:0000002300000000
#103321:0014000000000000
#103351:0000002300000000
#1033a1:0000000000140000
#103371:0000000000000053
#104381:23
#104350:13
#104360:0053000000000000
#104320:0000002400000000
#104320:0000000000130000
#104350:0000000000000023
#104381:0000000000000013
#1053b1:0033000000000000
#105361:0000002400000000
#105350:0013000000000000
#105320:0000002400000000
#105320:0000000000130000
#105360:0000000000000053
#106320:0024000000000000
#1063a1:0014000000000000
#106361:0000005400000000
#106391:0000000000250000
#106320:0000000000150000
#106360:0000000000000054
#107320:0023000000000000
#107320:0000000000140000
#108360:0024000000000000
#1083b0:0000000000130000
#108380:0000000000000033
#1093b0:0023000000000000
#109321:0013000000230000
#109351:0000003300000000
#109380:0000000000130023
#110350:13230000
#110350:0000001300000000
#110320:0000000000240000
#110381:0000001300000000
#1103a1:0000000000240000
#1113a1:0014000000000000
#111381:0000002300000000
#111320:0014000000000000
#111340:00000053000000000000000000000000
#111350:0000532300000000
#1113a0:0000000000140000
#111370:0000000000000053
#112380:23
#112351:13
#112361:0053000000000000
#112321:0000002400000000
#112321:0000000000130000
#112351:0000000000000023
#112380:0000000000000013
#1133b0:0033000000000000
#113370:00540000
#113360:0000000000000000000054542400000000000000000000000000000000000000
#113380:00000000000000000000000000000000000000000054000000000000000000000000000000000000000000000000000000000000000000000000000000000000
#113351:0013000000000000
#113321:0000002400000000
#113321:0000000000130000
#113331:00000000000000000000000000000000000000000000000000000000000000000000000000000000005300000000000000000000000000000000000000000000
#113341:00000000000000000000000000000000000000000000000000000000000000000000000000000000000000530000000000000000000000000000000000000000
#113361:00000000000000000000000000000000000000000000000000000000000000000000000000000000000000000000000000000053000000005300000000000000
#114321:0024000000000000
#1143a0:0014000000000000
#114380:00000000000000000000000054000000000000550000000000000000000000000000000000000000000000000000000000000000000000000000000000000000
#114370:00000000000000000000000000000000005454000000000000000000000000000000000000000000000000000000000000000000000000000000000000000000
#114360:00000000005454000000000000000000
#114390:0000000000250000
#114321:0000000000150000
#114341:00000000000000000000005500000000
#114361:00000000000000000000000000545400
#115321:0023000000000000
#115321:0000000000140000
#115351:00000000000000000000000000000000000000000000000000000000000000000000000000000000000000000000005400000000000000000000000000000000
#115361:0000000000000000000000000000000000000000000000000000000000000000000000000000000000000000000000000000000000000000000000000000000000000000000000000000000000000000000000000000000000000000000000000000000000000000000000005400000000000054005400000000000000005400
#115371:0000000000000000000000000000000000000000000000000000000000540000
#116351:55
#116361:0054000000000000000000000000000024000000000000000000000000000000000000000000000000000000000000000000000000000000000000000000000000000000000000000000000000000000000000000000000000000000000000000000000000000000000000000000000000000000000000000000000000000000
#1163b1:0000000000130000
#116371:0000000000000033
#116391:0000000000000000000000000000000000000000000000000000000000000000000000000000000000000000000000000000000000000000000000000000000000000000000000000000000000000000000000000000000000000000000000000000000000000000000000000000000000000000000053000000005300000000
#1163a1:00000000000000000000000000000000000000000000000000000000000000000000000000000000000000000000000000000000000000000000000000535300
#1173b1:5300005300000000000000000000000023000000000000000000000000000000000000000000000000000000000000000000000000000000000000000000000000000000000000000000000000000000000000000000000000000000000000000000000000000000000000000000000000000000000000000000000000000000
#1173a1:00530000000000000000000000000000000000000000000000000000000000000000000000000000000000000000000000000000000000000000000000000000
#117320:0013000000230000
#117340:00000053000000000000000000000000
#117350:00000000000000000000000000000053540000000000000000000000000000000000000000000000000000000000000000000000000000000000000000000000
#117330:0000000000000000005500000000000000000000000000000000000000000000
#117360:00000000005333000000000000000000
#117381:0000000000130023
#118351:13230000
#118381:0000001300000000
#1183a1:0000000000240000
#118350:0000000000000000000000001353000000000000000000000000000000000000
#118330:00000000000000000000000000000000000000000000000000550000000054000000000000000000000000000000000000000000000000000000000000000000
#118320:00000000000000000054240000000000
#1193a0:0014000000000000
#119380:0000002300000000
#119321:0014000000000000
#119331:0000000000540000550000000000000000000000000000000000000000000000
#119341:0000000000000000000000000000000000000000000000000000000000000054005400000000000000000000000000000000000000000000000000000000000000000000000000000000000000000000000000000000000000000000000000000000000000000000000000000000000000000000000000000000000000000000
#119351:00000000005323000000000000000000
#1193a1:0000000000140000
#119381:00000000000000000000005400000000
#119371:00000000000000000000000000000000000000000000000000000000000000000000000000000000000000000000000053565300000000005300000000000000
#120381:23
#120350:13530000
#120360:00005353000000000000000000000000
#120320:0000000000000000000000000000000000000000000000000000000000000000000000550000000000000000000000002400000000000000000000000000000000000000000000000000000000000000000000000000000000000000000000000000000000000000000000000000000000000000000000000000000000000000
#120340:0000000000000000000000000000000000000000000000000000000000000000000000000000005300000000000000000000000000000000000000000000000000000000000000000000000000000000000000000000000000000000000000000000000000000000000000000000000000000000000000000000000000000000
#120320:0000000000130000
#120350:0000000000000023
#120381:0000000000000013
#1213b1:0033000000000000
#1213a1:00000000000000000000005300000000000000000000000000000000000000000000000000000000000000000000000000000000000000000000000000000000
#121381:00000000000000000000000053540000000000000000000000000000000000000000000000000000000000000000000000000000000000000000000000000000
#121361:0000000000000000005554542400000000000000000000000000000000000000
#121391:00000000000000000000000000000000000000000054000000000000000000000000000000000000000000000000000000000000000000000000000000000000
#121350:0013000000000000
#121320:0000002400000000
#121320:0000000000130000
#121340:00000000000000000000005300000055
#121330:00000000000000000000000000000000000000000000000000000000000000000000000000000000000000000054000000000000000000000000000000000000
#121350:00000000000000000000000000000000000000000000000000000000000000000000000000000000000000000000000000540000000000000000000000540000
#121360:00000000000000000000000000000000000000000000000000000000000000000000000000000000000000000000000000000000000000005300005300000000
#122340:5454000000000000000000000000000000000000000000000000000000000000
#122350:0000005400000000000000000000000000000000000000000000000000000000000000000000000000000000000000000000000000000000000000000000000000000000000000000000000000000000000000000000000000000000000000000000000000000000000000000000000000000000000000000000000000000000
#122320:0024000000000000
#1223a1:0014000000000000
#122371:0000000000000000000000000000000000000000000054000000000000000000000000000000000000000000000000000000000000000000000000000054000054000000000000005400000000000000000000000000000000000000000000000000000000000000000000000000000000000000000000000000000000000000
#122381:0000000000000000000000000000000000000000000000005400000000000000000000000000000000000000000000000000000000000000000000000000550000000000000000540054000000000000000000000000000000000000000000000000000000000000000000000000000000000000000000000000000000000000
#122361:0000000000000000000000000000000000000000000000000000000000000000000000005400005455000000540000005400000000000000540000000000000000000000000000000000000000000000000000000000000000000000000000000000000000000000000000000000000000000000000000000000000000000000
#122351:00000000000000000000000000000000000000000055000000000000000000000000000000000000000000000000000000000000000000000000000000000000
#122391:0000000000250000
#122320:00000000000000000000155500000000
#122330:00000000000000000000000000000000000000000000000000000000000000000000000000000000000000550000000000000000550000000000000000000000
#122340:00000000000000000000000000000000000000000000000000000000000000000000000000000000000000000055000000000000000000000000000000000000
#122360:0000000000000000000000000000000000000000000000000000000000000000000000000000000000000000000000000000000000000000000000000000000000000000000000000000000000000000000000000000000000000000000000000000000000005400000054000000000054000000000054000000005400000000
#122350:0000000000000000000000000000000000000000000000000000000000000000000000000000000000000000000000000000000000000000000000000000000000000000000000000000000000000000000000000000000000000000000000000000000000000000000000000000000000000000000000540000000000000000
#123350:0054000000540000000000000000000000000000000000000000000000000000000000000000000000000000000000000000000000000000000000000000000000000000000000000000000000000000000000000000000000000000000000000000000000000000000000000000000000000000000000000000000000000000
#123360:0000005400000000000000000000000000000000000000000000000000000000000000000000000000000000000000000000000000000000000000000000000000000000000000000000000000000000000000000000000000000000000000000000000000000000000000000000000000000000000000000000000000000000
#123340:0000000000000000005400000000000000000000000000000000000000000000000000000000000000000000000000000000000000000000000000000000000000000000000000000000000000000000000000000000000000000000000000000000000000000000000000000000000000000000000000000000000000000000
#123320:0023000000000000
#123320:0000000000140000
#123350:0000000000000000000000000000000000000000000000000000000000000000000000000000000000000000000000000000000000000000000000000000000000000000000000000000000000000000000000000000000000000000000054000000005400000000000000000000000000000000000000000000000000000000
#123340:0000000000000000000000000000000000000000000000000000000000000000000000000000000000000000000000000000000000000000000000000000000000000000000000000000000000000000000000000000000000000000000000005400000000000000000000000000005600000000000000000000540000000000
#123360:0000000000000000000000000000000000000000000000000000000000000000000000000000000000000000000000000000000000000000000000000000000000000000000000000000000000000000000000000000000000000000000000000000540000000000000000000054000054000000000000000054000000540000
#123370:0000000000000000000000000000000000000000000000000000000000000000000000000000000000000000000000000000000000000000000000000000000000000000000000000000000000000000000000000000000000000000000000000000000000000000000000000000000000000000000000000000005400000000
#124360:0000005400005456540000000000000024000000000000000000000000000000000000000000000000000000000000000000000000000000000000000000000000000000000000000000000000000000000000000000000000000000000000000000000000000000000000000000000000000000000000000000000000000000
#1243b0:0000000000130000
#124380:0000000000000033
#124390:000000000000000000000000000000000000000000000000000000000000000000000000000000000000000000000000000000000000000000000000000000000000000000000000000000000000000000000000000000000000000000000000000000000000000000000000000000000000000000000000000000000000000000000000000000000000000000000000000000000000000000000000000000000000000000000000000000000000000000000000000000000000000000000000000000000000000000000000000000000000000000000000000000000000000000000000000000000000000000000000000000000000000000000000000000000000000000000000000000000000000000000000000000000000000000000000000000000000000000000000000000000000000000000000000000000000000000000000000000000000000000000000000000000000000000000000000000000000000000000000000000000000000000000000000000000000000000000000000000000000000000000000000000000000000000000000000000000000000000000000000000000000000000000000000000000000000000000000000000000000000000000000000000000000000000000000000000000000000000000000000000000000000000000000000000000000000000000000000000000000000000000000000000000000000000000000000000000000000000000000000000000000000000000000000000000000000000000000000000000000000000000000000000000000000000000000000000000000000000000000000000000000000000000000000000000000000000000000000000000000000000000000000000000000000000000000000000000000000000000000000000000000000000000000000000000000000000000000000000000000000000000000000000000000000000000000000000000000000000000000000000000000000000000000000000000000000000000000000000000000000000000000000000000000000000000000000000000000000000000000000000000000000000000000000000000000000000000000000000000000000000000000000000000000000000000000000000000000000000000000000000000000000000000000000000000000000000000000000000000000000000000000000000000000000000000000000000000000000000000000000000000000000000000000000000000000000000000000000000000000000000000000000000000000000000000000000000000000000000000053
#124320:00000000000000000000000000000000000000000000000000000000000000000000000000000000000000000000000000000000000000000000000000000000000000000000000000000000000000000000000000000000000000000000000000000000000000000000000000000000000000000000000000000000000000000000000000000000000000000000000000000000000000000000000000000000000000000000000000000000000000000000000000000000000000000000000000000000000000000000000000000000000000000000000000000000000000000000000000000000000000000000000000000000000000000000000000000000000000000000000000000000000000000000000000000000000000000000000000000000000000000000000000000000000000000000000000000000000000000000000000000000000000000000000000000000000000000000000000000000000000000000000000000000000000000000000000000000000000000000000000000000000000000000000000000000000000000000000000000000000000000000000000000000000000000000000000000000000000000000000000000000000000000000000000000000000000000000000000000000000000000000000000000000000000000000000000000000000000000000000000000000000000000000000000000000000000000000000000000000000000000000000000000000000000000000000000000000000000000000000000000000000000000000000000000000000000000000000000000000000000000000000000000000000000000000000000000000000000000000000000000000000000000000000000000000000000000000000000000000000000000000000000000000000000000000000000000000000000000000000000000000000000000000000000000000000000000000000000000000000000000000000000000000000000000000000000000000000000000000000000000000000000000000000000000000000000000000000000000000000000000000000000000000000000000000000000000000000000000000000000000000000000000000000000000000000000000000000000000000000000000000000000000000000000000000000000000000000000000000000000000000000000000000000000000000000000000000000000000000000000000000000000000000000000000000000000000000000000000000000000000000000000000000000000000000000000000000000000000000000000000000000000000000000000000000000000000000000000000000000000000000000000000000000000000000000000000000000000000000000000000000000000000000000000000000000000000000000000000000000000000000000000000000000000000000000000000000000000000000000000000000000000000000000000000000000000000000000000000000000000000000000000000000000000000000000000000000000000000000000000000000000000000000000000000000000000000000000000000000000000000000000000000000000000000000000000000000000000000000000000000000000000000000000000000000000000000000000000000000000000000000000000000000000000000000000000000000000000000000000000000000000000000000000000000000000000000000000000000000000000000000000000000000000000000000000000000000000000000000000000000000000000000000000000000000000000000000000000000000000000000000000000000000000000000000000000000000000000000000000000000000000000000000000000000000000000000000000000000000000000000000000000000000000000000000000000000000000000000000000000000000000000000000000000000000000000000000000000000000000000000000000000000000000000000000000000000000000000000000000000000000000000000000000000000000000000000000000000000000000000000000000000000000000000000000000000000000000000000000000000000000000000000000000000000000000000000000000000000000000000000000000000000000000000000000000000000000000000000000000000000000000000000000000000000000000000000000000000000000000000000000000000000000000000000000000000000000000000000000000000000000000000000000000000000000000000000000000000000000000000000000000000000000000000000000000000000000000000000000000000000000000000000000000000000000000000000000000000000000000000000000000000000000000000000000000000000000000000000000000000000000000000000000000000000000000000000000000000000000000000000000000000000000000000000000000000000000000000000000000000000000000000000000000000000000000000000000000000000000000000000000000000000000000000000000000000000000000000000000000000000000005c
#125320:0000000000003c5c5c5c5c5c5c5c5c5c
#125330:000000000000000000000000005a005a005a005a005a005a005a005a005a005a
#126320:5c5c5c5c5c5c5c5c5c5c5c0000000000
#126330:005a005a005a005a005a005a005a005a005a005a00005a005a005a005a005a00
#126340:0000000000000000000000000000000000000000005800580058005800580058
#127330:5a5a5a5a5a5a5a000000000000000000
#127340:0058005800580058005800580000580058005800580058005800580058005800
#127350:0000000000000000000000000056005600560056005600560056005600560056
#128340:58585800000000000000000000000000
#128350:0056005600005600560056005600560056005600560056005600560056000000
#128360:0000000000540054005400540054005400540054005400540054005400005400
#128370:0000000000000000000000000000000000000000000000000000000000520052
#129360:54545454545454545454540000000000
#129370:0052005200520052005200520052005200520052000000000000000000000000
#130370:0000000000220000
#0389a0:0000000000140000
#038980:000000000000000000000000000000000000000000000000000000000000000000000000000000000000000000000000000000000000000000000000000000000000000000000000000000000000000000000000000000000000000000000000000000000000000000000000000000000000000000000000000000000000000000000000000000000000000000000000000000000000000000000000000000000000000000000000000000000000000000000000000000000000000000000000000000000000000000000000000000000000000000000000000000000000000000000000000000000000000000000000000000000000000000000000000000000000000000000000000000000000000000000000000000000000000000000000000000000000000000000000000000000000000000000000000000000000000000000000000000000000000000000000000000000000000000000000000000000000000000000000000000000000000000000000000000000000000000000000000000000000000000000000000000000000000000000000000000000000000000000000000000000000000000000000000000000000000000000000000000000000000000000000000000000000000000000000000000000000000000000000000000000000000000000000000000000000000000000000000000000000000000000000000000000000000000000000000000000000000000000000000000000000000000000000000000000000000000000000000000000000000000000000000000000000000000000000000000000000000000000000000000000000000000000000000000000000000000000000000000000000000000000000000000000000000000000000000000000000000000000000000000000000000000000000000000000000000000000000000000000000000000000000000000000000000000000000000000000000000000000000000000000000000000000000000000000000000000000000000000000000000000000000000000000000000000000000000000000000000000000000000000000000000000000000000000000000000000000000000000000000000000000000000000000000000000000000000000000000000000000000000000000000000000000000000000000000000000000000000000000000000000000000000000000000000000000000000000000000000000000000000000000000000000000000000000000000000000000000000000000000000000000000000000000000000000000000000000000000000000000000000000000000000000000000000000000000000000000000000000000000000000000000000000000000000000000000000000000000000000000000000000000000000000000000000000000000000000000000000000000000000000000000000000000000000000000000000000000000000000000000000000000000000000000000000000000000000000000000000000000000000000000000000000000000000000000000000000000000000000000000000000000000000000000000000000000000000000000000000000000000000000000000000000000000000000000000000000000000000000000000000000000000000000000000000000000000000000000000000000000000000000000000000000000000000000000000000000000000000000000053230000000000000000000000000000000000000000000000000000000000000000000000000000000000000000000000000000000000000000000000000000000000000000000000000000000000000000000000000000000000000000000000000000000000000000000000000000000000000000000000000000000000000000000000000000000000000000000000000000000000000000000000000000000000000000000000000000000000000000000000000000000000000000000000000000000000000000000000000000000000000000000000000000000000000000000000000000000000000000000000000000000000000000000000000000000000000000000000000000000000000000000000000000000000000000000000000000000000000000000000000000000000000000000000000000000000000000000000000000000000000000000000000000000000000000000000000000000000000000000000000000000000000000000000000000000000000000000000000000000000000000000000000000000000000000000000000000000000000000000000000000000000000000000000000000000000000000000000000000000000000000000000000000000000000000000000000000000000000000000000000000000000000000000000000000000000000000000000000000000000000000000000000000000000000000000000000000000000000000000000000000000000000000000000000000000000000000000000000000000000000000000000000000000000000000000000000000000000000000000000000000000000000000000000000000000000000000000000000000000000000000000000000000000000000000000000000000000000000000000000
#038921:0000000000140000
#038951:000000000000000000000000000000000000000000000000000000000000000000000000000000000000000000000000000000000000000000000000000000000000000000000000000000000000000000000000000000000000000000000000000000000000000000000000000000000000000000000000000000000000000000000000000000000000000000000000000000000000000000000000000000000000000000000000000000000000000000000000000000000000000000000000000000000000000000000000000000000000000000000000000000000000000000000000000000000000000000000000000000000000000000000000000000000000000000000000000000000000000000000000000000000000000000000000000000000000000000000000000000000000000000000000000000000000000000000000000000000000000000000000000000000000000000000000000000000000000000000000000000000000000000000000000000000000000000000000000000000000000000000000000000000000000000000000000000000000000000000000000000000000000000000000000000000000000000000000000000000000000000000000000000000000000000000000000000000000000000000000000000000000000000000000000000000000000000000000000000000000000000000000000000000000000000000000000000000000000000000000000000000000000000000000000000000000000000000000000000000000000000000000000000000000000000000000000000000000000000000000000000000000000000000000000000000000000000000000000000000000000000000000000000000000000000000000000000000000000000000000000000000000000000000000000000000000000000000000000000000000000000000000000000000000000000000000000000000000000000000000000000000000000000000000000000000000000000000000000000000000000000000000000000000000000000000000000000000000000000000000000000000000000000000000000000000000000000000000000000000000000000000000000000000000000000000000000000000000000000000000000000000000000000000000000000000000000000000000000000000000000000000000000000000000000000000000000000000000000000000000000000000000000000000000000000000000000000000000000000000000000000000000000000000000000000000000000000000000000000000000000000000000000000000000000000000000000000000000000000000000000000000000000000000000000000000000000000000000000000000000000000000000000000000000000000000000000000000000000000000000000000000000000000000000000000000000000000000000000000000000000000000000000000000000000000000000000000000000000000000000000000000000000000000000000000000000000000000000000000000000000000000000000000000000000000000000000000000000000000000000000000000000000000000000000000000000000000000000000000000000000000000000000000000000000000000000000000000000000000000000000000000000000000000000000000000000000000000000000000000053230000000000000000000000000000000000000000000000000000000000000000000000000000000000000000000000000000000000000000000000000000000000000000000000000000000000000000000000000000000000000000000000000000000000000000000000000000000000000000000000000000000000000000000000000000000000000000000000000000000000000000000000000000000000000000000000000000000000000000000000000000000000000000000000000000000000000000000000000000000000000000000000000000000000000000000000000000000000000000000000000000000000000000000000000000000000000000000000000000000000000000000000000000000000000000000000000000000000000000000000000000000000000000000000000000000000000000000000000000000000000000000000000000000000000000000000000000000000000000000000000000000000000000000000000000000000000000000000000000000000000000000000000000000000000000000000000000000000000000000000000000000000000000000000000000000000000000000000000000000000000000000000000000000000000000000000000000000000000000000000000000000000000000000000000000000000000000000000000000000000000000000000000000000000000000000000000000000000000000000000000000000000000000000000000000000000000000000000000000000000000000000000000000000000000000000000000000000000000000000000000000000000000000000000000000000000000000000000000000000000000000000000000000000000000000000000000000000000000000000000
#071931:00000000001a0000
#072951:0056
#072941:0000000000580000
#073961:0054
#073951:0000000000560000
#074971:0052
#074961:0000000000540000
#075971:0022000000000000
#095941:0000000000130000
#095921:000000000000000000000000000000000000000000000000000000000000000000000000000000000000000000000000000000000000000000000000000000000000000000000000000000000000000000000000000000000000000000000000000000000000000000000000000000000000000000000000000000000000000000000000000000000000000000000000000000000000000000000000000000000000000000000000000000000000000000000000000000000000000000000000000000000000000000000000000000000000000000000000000000000000000000000000000000000000000000000000000000000000000000000000000000000000000000000000000000000000000000000000000000000000000000000000000000000000000000000000000000000000000000000000000000000000000000000000000000000000000000000000000000000000000000000000000000000000000000000000000000000000000000000000000000000000000000000000000000000000000000000000000000000000000000000000000000000000000000000000000000000000000000000000000000000000000000000000000000000000000000000000000000000000000000000000000000000000000000000000000000000000000000000000000000000000000000000000000000000000000000000000000000000000000000000000000000000000000000000000000000000000000000000000000000000000000000000000000000000000000000000000000000000000000000000000000000000000000000000000000000000000000000000000000000000000000000000000000000000000000000000000000000000000000000000000000000000000000000000000000000000000000000000000000000000000000000000000000000000000000000000000000000000000000000000000000000000000000000000000000000000000000000000000000000000000000000000000000000000000000000000000000000000000000000000000000000000000000000000000000000000000000000000000000000000000000000000000000000000000000000000000000000000000000000000000000000000000000000000000000000000000000000000000000000000000000000000000000000000000000000000000000000000000000000000000000000000000000000000000000000000000000000000000000000000000000000000000000000000000000000000000000000000000000000000000000000000000000000000000000000000000000000000000000000000000000000000000000000000000000000000000000000000000000000000000000000000000000000000000000000000000000000000000000000000000000000000000000000000000000000000000000000000000000000000000000000000000000000000000000000000000000000000000000000000000000000000000000000000000000000000000000000000000000000000000000000000000000000000000000000000000000000000000000000000000000000000000000000000000000000000000000000000000000000000000000000000000000000000000000000000000000000000000000000000000000000000000000000000000000000000000000000000000000000000000000000000000000000000053230000000000000000000000000000000000000000000000000000000000000000000000000000000000000000000000000000000000000000000000000000000000000000000000000000000000000000000000000000000000000000000000000000000000000000000000000000000000000000000000000000000000000000000000000000000000000000000000000000000000000000000000000000000000000000000000000000000000000000000000000000000000000000000000000000000000000000000000000000000000000000000000000000000000000000000000000000000000000000000000000000000000000000000000000000000000000000000000000000000000000000000000000000000000000000000000000000000000000000000000000000000000000000000000000000000000000000000000000000000000000000000000000000000000000000000000000000000000000000000000000000000000000000000000000000000000000000000000000000000000000000000000000000000000000000000000000000000000000000000000000000000000000000000000000000000000000000000000000000000000000000000000000000000000000000000000000000000000000000000000000000000000000000000000000000000000000000000000000000000000000000000000000000000000000000000000000000000000000000000000000000000000000000000000000000000000000000000000000000000000000000000000000000000000000000000000000000000000000000000000000000000000000000000000000000000000000000000000000000000000000000000000000000000000000000000000000000000000000000000000
#095990:0000000000130000
#0959b0:000000000000000000000000000000000000000000000000000000000000000000000000000000000000000000000000000000000000000000000000000000000000000000000000000000000000000000000000000000000000000000000000000000000000000000000000000000000000000000000000000000000000000000000000000000000000000000000000000000000000000000000000000000000000000000000000000000000000000000000000000000000000000000000000000000000000000000000000000000000000000000000000000000000000000000000000000000000000000000000000000000000000000000000000000000000000000000000000000000000000000000000000000000000000000000000000000000000000000000000000000000000000000000000000000000000000000000000000000000000000000000000000000000000000000000000000000000000000000000000000000000000000000000000000000000000000000000000000000000000000000000000000000000000000000000000000000000000000000000000000000000000000000000000000000000000000000000000000000000000000000000000000000000000000000000000000000000000000000000000000000000000000000000000000000000000000000000000000000000000000000000000000000000000000000000000000000000000000000000000000000000000000000000000000000000000000000000000000000000000000000000000000000000000000000000000000000000000000000000000000000000000000000000000000000000000000000000000000000000000000000000000000000000000000000000000000000000000000000000000000000000000000000000000000000000000000000000000000000000000000000000000000000000000000000000000000000000000000000000000000000000000000000000000000000000000000000000000000000000000000000000000000000000000000000000000000000000000000000000000000000000000000000000000000000000000000000000000000000000000000000000000000000000000000000000000000000000000000000000000000000000000000000000000000000000000000000000000000000000000000000000000000000000000000000000000000000000000000000000000000000000000000000000000000000000000000000000000000000000000000000000000000000000000000000000000000000000000000000000000000000000000000000000000000000000000000000000000000000000000000000000000000000000000000000000000000000000000000000000000000000000000000000000000000000000000000000000000000000000000000000000000000000000000000000000000000000000000000000000000000000000000000000000000000000000000000000000000000000000000000000000000000000000000000000000000000000000000000000000000000000000000000000000000000000000000000000000000000000000000000000000000000000000000000000000000000000000000000000000000000000000000000000000000000000000000000000000000000000000000000000000000000000000000000000000000000000000000000000000000053230000000000000000000000000000000000000000000000000000000000000000000000000000000000000000000000000000000000000000000000000000000000000000000000000000000000000000000000000000000000000000000000000000000000000000000000000000000000000000000000000000000000000000000000000000000000000000000000000000000000000000000000000000000000000000000000000000000000000000000000000000000000000000000000000000000000000000000000000000000000000000000000000000000000000000000000000000000000000000000000000000000000000000000000000000000000000000000000000000000000000000000000000000000000000000000000000000000000000000000000000000000000000000000000000000000000000000000000000000000000000000000000000000000000000000000000000000000000000000000000000000000000000000000000000000000000000000000000000000000000000000000000000000000000000000000000000000000000000000000000000000000000000000000000000000000000000000000000000000000000000000000000000000000000000000000000000000000000000000000000000000000000000000000000000000000000000000000000000000000000000000000000000000000000000000000000000000000000000000000000000000000000000000000000000000000000000000000000000000000000000000000000000000000000000000000000000000000000000000000000000000000000000000000000000000000000000000000000000000000000000000000000000000000000000000000000000000000000000000000000
#098920:00000013
#098960:000000000000000000000000000000000000000000000000000000000000000000000000000000000000000000000000000000000000000000000000000000000000000000000000000000000000000000000000000000000000000000000000000000000000000000000000000000000000000000000000000000000000000000000000000000000000000000000000000000000000000000000000000000000000000000000000000000000000000000000000000000000000000000000000000000000000000000000000000000000000000000000000000000000000000000000000000000000000000000000000000000000000000000000000000000000000000000000000000000000000000000000000000000000000000000000000000000000000000000000000000000000000000000000000000000000000000000000000000000000000000000000000000000000000000000000000000000000000000000000000000000000000000000000000000000000000000000000000000000000000000000000000000000000000000000000000000000000000000000000000000000000000000000000000000000000000000000000000000000000000000000000000000000000000000000000000000000000000000000000000000000000000000000000000000000000000000000000000000000000000000000000000000000000000000000000000000000000000000000000000000000000000000000000000000000000000000000000000000000000000000000000000000000000000000000000000000000000000000000000000000000000000000000000000000000000000000000000000000000000000000000000000000000000000000000000000000000000000000000000000000000000000000000000000000000000000000000000000000000000000000000000000000000000000000000000000000000000000000000000000000000000000000000000000000000000000000000000000000000000000000000000000000000000000000000000000000000000000000000000000000000000000000000000000000000000000000000000000000000000000000000000000000000000000000000000000000000000000000000000000000000000000000000000000000000000000000000000000000000000000000000000000000000000000000000000000000000000000000000000000000000000000000000000000000000000000000000000000000000000000000000000000000000000000000000000000000000000000000000000000000000000000000000000000000000000000000000000000000000000000000000000000000000000000000000000000000000000000000000000000000000000000000000000000000000000000000000000000000000000000000000000000000000000000000000000000000000000000000000000000000000000000000000000000000000000000000000000000000000000000000000000000000000000000000000000000000000000000000000000000000000000000000000000000000000000000000000000000000000000000000000000000000000000000000000000000000000000000000000000000000000000000000000000000000000000000000000000000000000000000000000000000000000000000000000000000000000000000000000000000000000000000000000000000000000000000000000000000000000000000000000000000000000000000000000000000000000000000000000000000000000000000000000000000000000000000000000000000000000000000000000000000000000000000000000000000000000000000000000000000000000000000000000000000000000000000000000000000000000000000000000000000000000000000000000000000000000000000000000000000000000000000000000000000000000000000000000000000000000000000000000000000000000000000000000000000000000000000000000000000000000000000000000000000000000000000000000000000000000000000000000000000000000000000000000000000000000000000000000000000000000000000000000000000000000000000000000000000000000000000000000000000000000000000000000000000000000000000000000000000000000000000000000000000000000000000000000000000000000000000000000000000000000000000000000000000000000000000000000000000000000000000000000000000000000000000000000000000000000000000000000000000000000000000000000000000000000000000000000000000000000000000000000000000000000000000000000000000000000000000000000000000000000000000000000000000000000000000000000000000000000000000000000000000000000000000000000000000000000000000000000000000000000000000000000000000000000000000000000000000000000000000000000000000000000000000000000000000000000000000000000000000000000000000000000000000000000000000000000000053
#099960:23
#0999b0:0013000000000000
#099970:000000000000000000000000000000000000000000000000000000000000000000000000000000000000000000000000000000000000000000000000000000000000000000000000000000000000000000000000000000000000000000000000000000000000000000000000000000000000000000000000000000000000000000000000000000000000000000000000000000000000000000000000000000000000000000000000000000000000000000000000000000000000000000000000000000000000000000000000000000000000000000000000000000000000000000000000000000000000000000000000000000000000000000000000000000000000000000000000000000000000000000000000000000000000000000000000000000000000000000000000000000000000000000000000000000000000000000000000000000000000000000000000000000000000000000000000000000000000000000000000000000000000000000000000000000000000000000000000000000000000000000000000000000000000000000000000000000000000000000000000000000000000000000000000000000000000000000000000000000000000000000000000000000000000000000000000000000000000000000000000000000000000000000000000000000000000000000000000000000000000000000000000000000000000000000000000000000000000000000000000000000000000000000000000000000000000000000000000000000000000000000000000000000000000000000000000000000000000000000000000000000000000000000000000000000000000000000000000000000000000000000000000000000000000000000000000000000000000000000000000000000000000000000000000000000000000000000000000000000000000000000000000000000000000000000000000000000000000000000000053230000000000000000000000000000000000000000000000000000000000000000000000000000000000000000000000000000000000000000000000000000000000000000000000000000000000000000000000000000000000000000000000000000000000000000000000000000000000000000000000000000000000000000000000000000000000000000000000000000000000000000000000000000000000000000000000000000000000000000000000000000000000000000000000000000000000000000000000000000000000000000000000000000000000000000000000000000000000000000000000000000000000000000000000000000000000000000000000000000000000000000000000000000000000000000000000000000000000000000000000000000000000000000000000000000000000000000000000000000000000000000000000000000000000000000000000000000000000000000000000000000000000000000000000000000000000000000000000000000000000000000000000000000000000000000000000000000000000000000000000000000000000000000000000000000000000000000000000000000000000000000000000000000000000000000000000000000000000000000000000000000000000000000000000000000000000000000000000000000000000000000000000000000000000000000000000000000000000000000000000000000000000000000000000000000000000000000000000000000000000000000000000000000000000000000000000000000000000000000000000000000000000000000000000000000000000000000000000000000000000000000000000000000000000000000000000000000000000000000000000000000000000000000000000000000000000000000000000000000000000000000000000000000000000000000000000000000000000000000000000000000000000000000000000000000000000000000000000000000000000000000000000000000000000000000000000000000000000000000000000000000000000000000000000000000000000000000000000000000000000000000000000000000000000000000000000000000000000000000000000000000000000000000000000000000000000000000000000000000000000000000000000000000000000000000000000000000000000000000000000000000000000000000000000000000000000000000000000000000000000000000000000000000000000000000000000000000000000000000000000000000000000000000000000000000000000000000000000000000000000000000000000000000000000000000000000000000000000000000000000000000000000000000000000000000000000000000000000000000000000000000000000000000000000000000000000000000000000000000000000000000000000000000000000000000000000000000000000000000000000000000000000000000000000000000000000000000000000000000000000000000000000000000000000000000000000000000000000000000000000000000000000000000000000000000000000000000000000000000000000
#099921:0000001300000000
#099961:000000000000000000000000000000000000000000000000000000000000000000000000000000000000000000000000000000000000000000000000000000000000000000000000000000000000000000000000000000000000000000000000000000000000000000000000000000000000000000000000000000000000000000000000000000000000000000000000000000000000000000000000000000000000000000000000000000000000000000000000000000000000000000000000000000000000000000000000000000000000000000000000000000000000000000000000000000000000000000000000000000000000000000000000000000000000000000000000000000000000000000000000000000000000000000000000000000000000000000000000000000000000000000000000000000000000000000000000000000000000000000000000000000000000000000000000000000000000000000000000000000000000000000000000000000000000000000000000000000000000000000000000000000000000000000000000000000000000000000000000000000000000000000000000000000000000000000000000000000000000000000000000000000000000000000000000000000000000000000000000000000000000000000000000000000000000000000000000000000000000000000000000000000000000000000000000000000000000000000000000000000000000000000000000000000000000000000000000000000000000000000000000000000000000000000000000000000000000000000000000000000000000000000000000000000000000000000000000000000000000000000000000000000000000000000000000000000000000000000000000000000000000000000000000000000000000000000000000000000000000000000000000000000000000000000000000000000000000000000000000000000000000000000000000000000000000000000000000000000000000000000000000000000000000000000000000000000000000000000000000000000000000000000000000000000000000000000000000000000000000000000000000000000000000000000000000000000000000000000000000000000000000000000000000000000000000000000000000000000000000000000000000000000000000000000000000000000000000000000000000000000000000000000000000000000000000000000000000000000000000000000000000000000000000000000000000000000000000000000000000000000000000000000000000000000000000000000000000000000000000000000000000000000000000000000000000000000000000000000000000000000000000000000000000000000000000000000000000000000000000000000000000000000000000000000000000000000000000000000000000000000000000000000000000000000000000000000000000000000000000000000000000000000000000000000000000000000000000000000000000000000000000000000000000000000000000000000000000000000000000000000000000000000000000000000000000000000000000000000000053230000000000000000000000000000000000000000000000000000000000000000000000000000000000000000000000000000000000000000000000000000000000000000000000000000000000000000000000000000000000000000000000000000000000000000000000000000000000000000000000000000000000000000000000000000000000000000000000000000000000000000000000000000000000000000000000000000000000000000000000000000000000000000000000000000000000000000000000000000000000000000000000000000000000000000000000000000000000000000000000000000000000000000000000000000000000000000000000000000000000000000000000000000000000000000000000000000000000000000000000000000000000000000000000000000000000000000000000000000000000000000000000000000000000000000000000000000000000000000000000000000000000000000000000000000000000000000000000000000000000000000000000000000000000000000000000000000000000000000000000000000000000000000000000000000000000000000000000000000000000000000000000000000000000000000000000000000000000000000000000000000000000000000000000000000000000000000000000000000000000000000000000000000000000000000000000000000000000000000000000000000000000000000000000000000000000000000000000000000000000000000000000000000000000000000000000000000000000000000000000000000000000000000000000000000000000000000000000000000000000000000000000000000000000000000000000000000000000000000000000000000000000000000000000000000000000000000000000000000000000000000000000000000000000000000000000000000000000000000000000
#0999a0:0000000000140000
#099960:000000000000000000000000000000000000000000000000000000000000000000000000000000000000000000000000000000000000000000000000000000000000000000000000000000000000000000000000000000000000000000000000000000000000000000000000000000000000000000000000000000000000000000000000000000000000000000000000000000000000000000000000000000000000000000000000000000000000000000000000000000000000000000000000000000000000000000000000000000000000000000000000000000000000000000000000000000000000000000000000000000000000000000000000000000000000000000000000000000000000000000000000000000000000000000000000000000000000000000000000000000000000000000000000000000000000000000000000000000000000000000000000000000000000000000000000000000000000000000000000000000000000000000000000000000000000000000000000000000000000000000000000000000000000000000000000000000000000000000000000000000000000000000000000000000000000000000000000000000000000000000000000000000000000000000000000000000000000000000000000000000000000000000000000000000000000000000000000000000000000000000000000000000000000000000000000000000000000000000000000000000000000000000000000000000000000000000000000000000000000000000000000000000000000000000000000000000000000000000000000000000000000000000000000000000000000000000000000000000000000000000000000000000000000000000000000000000000000000000000000000000000000000000000000000000000000000000000000000000000000000000000000000000000000000000000000000000000000000000000000000000000000000000000000000000000000000000000000000000000000000000000000000000000000000000000000000000000000000000000000000000000000000000000000000000000000000000000000000000000000000000000000000000000000000000000000000000000000000000000000000000000000000000000000000000000000000000000000000000000000000000000000000000000000000000000000000000000000000000000000000000000000000000000000000000000000000000000000000000000000000000000000000000000000000000000000000000000000000000000000000000000000000000000000000000000000000000000000000000000000000000000000000000000000000000000000000000000000000000000000000000000000000000000000000000000000000000000000000000000000000000000000000000000000000000000000000000000000000000000000000000000000000000000000000000000000000000000000000000000000000000000000000000000000000000000000000000000000000000000000000000000000000000000000000000000000000000000000000000000000000000000000000000000000000000000000000000000000000000000000000000000000000000000000000000000000000000000000000000000000000000000000000000000000000000000000000000000000000000000000000000000000000000000000000000000000000000000000000000000000000000000000000000000000000000000000000000000000000000000000000000000000000000000000000000000000000000000000000000000000000000000000000000000000000000000000000000000000000000000000000000000000000000000000000000000000000000000000000000000000000000000000000000000000000000000000000000000000000000000000000000000000000000000000000000000000000000000000000000000000000000000000000000000000000000000000000000000000000000000000000000000000000000000000000000000000000000000000000000000000000000000000000000000000000000000000000000000000000000000000000000000000000000000000000000000000000000000000000000000000000000000000000000000000000000000000000000000000000000000000000000000000000000000000000000000000000000000000000000000000000000000000000000000000000000000000000000000000000000000054240000000000000000000000000000000000000000000000000000000000000000000000000000000000000000000000000000000000000000000000000000000000000000000000000000000000000000000000000000000000000000000000000000000000000000000000000000000000000000000000000000000000000000000000000000000000000000000000000000000000000000000000000000000000000000000000000000000000000000000000000000000000000000000000000000000000000000000000000000000000000000000000000000000000000000000000000000000000000000000000
#099921:0000000000000014
#100961:000000000000000000000000000000000000000000000000000000000000000000000000000000000000000000000000000000000000000000000000000000000000000000000000000000000000000000000000000000000000000000000000000000000000000000000000000000000000000000000000000000000000000000000000000000000000000000000000000000000000000000000000000000000000000000000000000000000000000000000000000000000000000000000000000000000000000000000000000000000000000000000000000000000000000000000000000000000000000000000054240000000000000000000000000000000000000000000000000000000000000000000000000000000000000000000000000000000000000000000000000000000000000000000000000000000000000000000000000000000000000000000000000000000000000000000000000000000000000000000000000000000000000000000000000000000000000000000000000000000000000000000000000000000000000000000000000000000000000000000000000000000000000000000000000000000000000000000000000000000000000000000000000000000000000000000000000000000000000000000000000000000000000000000000000000000000000000000000000000000000000000000000000000000000000000000000000000000000000000000000000000000000000000000000000000000000000000000000000000000000000000000000000000000000000000000000000000000000000000000000000000000000000000000000000000000000000000000000000000000000000000000000000000000000000000000000000000000000000000000000000000000000000000000000000000000000000000000000000000000000000000000000000000000000000000000000000000000000000000000000000000000000000000000000000000000000000000000000000000000000000000000000000000000000000000000000000000000000000000000000000000000000000000000000000000000000000000000000000000000000000000000000000000000000000000000000000000000000000000000000000000000000000000000000000000000000000000000000000000000000000000000000000000000000000000000000000000000000000000000000000000000000000000000000000000000000000000000000000000000000000000000000000000000000000000000000000000000000000000000000000000000000000000000000000000000000000000000000000000000000000000000000000000000000000000000000000000000000000000000000000000000000000000000000000000000000000000000000000000000000000000000000000000000000000000000000000000000000000000000000000000000000000000000000000000000000000000000000000000000000000000000000000000000000000000000000000000000000000000000000000000000000000000000000000000000000000000000000000000000000000000000000000000000000000000000000000000000000000000000000000000000000000000000000000000000000000000000000000000000000000000000000000000000000000000000000000000000000000000000000000000000000000000000000000000000000000000000000000000000000000000000000000000000000000000000000000000000000000000000000000000000000000000000000000000000000000000000000000000000000000000000000000000000000000000000000000000000000000000000000000000000000000000000000000000000000000000000000000000000000000000000000000000000000000000000000000000000000000000000000000000000000000000000000000000000000000000000000000000000000000000000000000000000000000000000000000000000000000000000000000000000000000000000000000000000000000000000000000000000000000000000000000000000000000000000000000000000000000000000000000000000000000000000000000000000000000000000000000000000000000000000000000000000000000000000000000000000000000000000000000000000000000000000000000000000000000000000000000000000000000000000000000000000000000000000000000000000000000000000000000000000000000000000000000000000000000000000000000000000000000000000000000000000000000000000000000000000000000000000000000000000000000000000000000000000000000000000000000000000000000000000000000000000000000000000000000000000000000000000000000000000000000000000000000000000000000000000000000000000000000000000000000000000000000000000000000000000000000000000000000000000000000000000000000000000000000000000000000000000000000000000000000000000000000000000000000000000000000000000000
#1009b0:0013000000000000
#100990:000000000000000000000000000000000000000000000000000000000000000000000000000000000000000000000000000000000000000000000000000000000000000000000000000000000000000000000000000000000000000000000000000000000000000000000000000000000000000000000000000000000000000000000000000000000000000000000000000000000000000000000000000000000000000000000000000000000000000000000000000000000000000000000000000000000000000000000000000000000000000000000000000000000000000000000000000000000000000000000000000000000000000000000000000000000000000000000000000000000000000000000000000000000000000000000000000000000000000000000000000000000000000000000000000000000000000000000000000000000000000000000000000000000000000000000000000000000000000000000000000000000000000000000000000000000000000000000000000000000000000000000000000000000000000000000000000000000000000000000000000000000000000000000000000000000000000000000000000000000000000000000000000000000000000000000000000000000000000000000053230000000000000000000000000000000000000000000000000000000000000000000000000000000000000000000000000000000000000000000000000000000000000000000000000000000000000000000000000000000000000000000000000000000000000000000000000000000000000000000000000000000000000000000000000000000000000000000000000000000000000000000000000000000000000000000000000000000000000000000000000000000000000000000000000000000000000000000000000000000000000000000000000000000000000000000000000000000000000000000000000000000000000000000000000000000000000000000000000000000000000000000000000000000000000000000000000000000000000000000000000000000000000000000000000000000000000000000000000000000000000000000000000000000000000000000000000000000000000000000000000000000000000000000000000000000000000000000000000000000000000000000000000000000000000000000000000000000000000000000000000000000000000000000000000000000000000000000000000000000000000000000000000000000000000000000000000000000000000000000000000000000000000000000000000000000000000000000000000000000000000000000000000000000000000000000000000000000000000000000000000000000000000000000000000000000000000000000000000000000000000000000000000000000000000000000000000000000000000000000000000000000000000000000000000000000000000000000000000000000000000000000000000000000000000000000000000000000000000000000000000000000000000000000000000000000000000000000000000000000000000000000000000000000000000000000000000000000000000000000000000000000000000000000000000000000000000000000000000000000000000000000000000000000000000000000000000000000000000000000000000000000000000000000000000000000000000000000000000000000000000000000000000000000000000000000000000000000000000000000000000000000000000000000000000000000000000000000000000000000000000000000000000000000000000000000000000000000000000000000000000000000000000000000000000000000000000000000000000000000000000000000000000000000000000000000000000000000000000000000000000000000000000000000000000000000000000000000000000000000000000000000000000000000000000000000000000000000000000000000000000000000000000000000000000000000000000000000000000000000000000000000000000000000000000000000000000000000000000000000000000000000000000000000000000000000000000000000000000000000000000000000000000000000000000000000000000000000000000000000000000000000000000000000000000000000000000000000000000000000000000000000000000000000000000000000000000000000000000000000000000000000000000000000000000000000000000000000000000000000000000000000000000000000000000000000000000000000000000000000000000000000000000000000000000000000000000000000000000000000000000000000000000000000000000000000000000000000000000000000000000000000000000000000000000000000000000000000000000000000000000000000000000000000000000000000000000000000000000000000000000000000000000000000000000000000000000000000000000000000000000000000000000000000000000000000000000000000000000000000000
#100961:00130000
#100941:000000000000000000000000000000000000000000000000000000000000000000000000000000000000000000000000000000000000000000000000000000000000000000000000000000000000000000000000000000000000000000000000000000000000000000000000000000000000000000000000000000000000000000000000000000000000000000000000000000000000000000000000000000000000000000000000000000000000000000000000000000000000000000000000000000000000000000000000000000000000000000000000000000000000000000000000000000000000000000000000000000000000000000000000000000000000000000000000000000000000000000000000000000000000000000000000000000000000000000000000000000000000000000000000000000000000000000000000000000000000000000000000000000000000000000000000000000000000000000000000000000000000000000000000000000000000000000000000000000000000000000000000000000000000000000000000000000000000000000000000000000000000000000000000000000000000000000000000000000000000000000000000000000000000000000000000000000000000000000000000000000000000000000000000000000000000000000000000000000000000000000000000000000000000000000000000000000000000000000000000000000000000000000000000000000000000000000000000000000000000000000000000000000000000000000000000000000000000000000000000000000000000000000000000000000000000000000000000000000000000000000000000000000000000000000000000000000000000000000000000000000000000000000000000000000000000000000000000000000000000000000000000000000000000000000000000000000000000000000000053230000000000000000000000000000000000000000000000000000000000000000000000000000000000000000000000000000000000000000000000000000000000000000000000000000000000000000000000000000000000000000000000000000000000000000000000000000000000000000000000000000000000000000000000000000000000000000000000000000000000000000000000000000000000000000000000000000000000000000000000000000000000000000000000000000000000000000000000000000000000000000000000000000000000000000000000000000000000000000000000000000000000000000000000000000000000000000000000000000000000000000000000000000000000000000000000000000000000000000000000000000000000000000000000000000000000000000000000000000000000000000000000000000000000000000000000000000000000000000000000000000000000000000000000000000000000000000000000000000000000000000000000000000000000000000000000000000000000000000000000000000000000000000000000000000000000000000000000000000000000000000000000000000000000000000000000000000000000000000000000000000000000000000000000000000000000000000000000000000000000000000000000000000000000000000000000000000000000000000000000000000000000000000000000000000000000000000000000000000000000000000000000000000000000000000000000000000000000000000000000000000000000000000000000000000000000000000000000000000000000000000000000000000000000000000000000000000000000000000000000000000000000000000000000000000000000000000000000000000000000000000000000000000000000000000000000000000000000000000000000000000000000000000000000000000000000000000000000000000000000000000000000000000000000000000000000000000000000000000000000000000000000000000000000000000000000000000000000000000000000000000000000000000000000000000000000000000000000000000000000000000000000000000000000000000000000000000000000000000000000000000000000000000000000000000000000000000000000000000000000000000000000000000000000000000000000000000000000000000000000000000000000000000000000000000000000000000000000000000000000000000000000000000000000000000000000000000000000000000000000000000000000000000000000000000000000000000000000000000000000000000000000000000000000000000000000000000000000000000000000000000000000000000000000000000000000000000000000000000000000000000000000000000000000000000000000000000000000000000000000000000000000000000000000000000000000000000000000000000000000000000000000000000000000000000000000000000000000000000000000000000000000000000000000000000000000000000000000000000000000
#100990:0000001300000000
#100970:000000000000000000000000000000000000000000000000000000000000000000000000000000000000000000000000000000000000000000000000000000000000000000000000000000000000000000000000000000000000000000000000000000000000000000000000000000000000000000000000000000000000000000000000000000000000000000000000000000000000000000000000000000000000000000000000000000000000000000000000000000000000000000000000000000000000000000000000000000000000000000000000000000000000000000000000000000000000000000000000000000000000000000000000000000000000000000000000000000000000000000000000000000000000000000000000000000000000000000000000000000000000000000000000000000000000000000000000000000000000000000000000000000000000000000000000000000000000000000000000000000000000000000000000000000000000000000000000000000000000000000000000000000000000000000000000000000000000000000000000000000000000000000000000000000000000000000000000000000000000000000000000000000000000000000000000000000000000000000000000000000000000000000000000000000000000000000000000000000000000000000000000000000000000000000000000000000000000000000000000000000000000000000000000000000000000000000000000000000000000000000000000000000000000000000000000000000000000000000000000000000000000000000000000000000000000000000000000000000000000000000000000000000000000000000000000000000000000000000000000000000000000000000000000000000000000000000000000000000000000000000000000000000000000000000000000000000000000000000000000000000000000000000000000000000000000000000000000000000000000000000000000000000000000000000000000000000000000000000000000000000000000000000000000000000000000000000000000000000000000000000000000000000000000000000000000000000000000000000000000000000000000000000000000000000000000000000000000000000000000000000000000000000000000000000000000000000000000000000000000000000000000000000000000000000000000000000000000000000000000000000000000000000000000000000000000000000000000000000000053230000000000000000000000000000000000000000000000000000000000000000000000000000000000000000000000000000000000000000000000000000000000000000000000000000000000000000000000000000000000000000000000000000000000000000000000000000000000000000000000000000000000000000000000000000000000000000000000000000000000000000000000000000000000000000000000000000000000000000000000000000000000000000000000000000000000000000000000000000000000000000000000000000000000000000000000000000000000000000000000000000000000000000000000000000000000000000000000000000000000000000000000000000000000000000000000000000000000000000000000000000000000000000000000000000000000000000000000000000000000000000000000000000000000000000000000000000000000000000000000000000000000000000000000000000000000000000000000000000000000000000000000000000000000000000000000000000000000000000000000000000000000000000000000000000000000000000000000000000000000000000000000000000000000000000000000000000000000000000000000000000000000000000000000000000000000000000000000000000000000000000000000000000000000000000000000000000000000000000000000000000000000000000000000000000000000000000000000000000000000000000000000000000000000000000000000000000000000000000000000000000000000000000000000000000000000000000000000000000000000000000000000000000000000000000000000000000000000000000000000000000000000000000000000000000000000000000000000000000000000000000000000000000000000000000000000000000000000000000000000000000000000000000000000000000000000000000000000000000000000000000000000000000000000000000000000000000000000000000000000000000000000000000000000000000000000000000000000000000000000000000000000000000000000000000000000000000000000000000000000000000000000000000000000000000000000000000000000000000000000000000000000000000000000000000000000000000000000000000000000000000000000000000000000000000000000000000000000000000000000000000000000000000000000000000000000000000000000000000000000
#100941:0013
#100921:000000000000000000000000000000000000000000000000000000000000000000000000000000000000000000000000000000000000000000000000000000000000000000000000000000000000000000000000000000000000000000000000000000000000000000000000000000000000000000000000000000000000000000000000000000000000000000000000000000000000000000000000000000000000000000000000000000000000000000000000000000000000000000000000000000000000000000000000000000000000000000000000000000000000000000000000000000000000000000000000000000000000000000000000000000000000000000000000000000000000000000000000000000000000000000000000000000000000000000000000000000000000000000000000000000000000000000000000000000000000000000000000000000000000000000000000000000000000000000000000000000000000000000000000000000000000000000000000000000000000000000000000000000000000000000000000000000000000000000000000000000000000000000000000000000000000000000000000000000000000000000000000000000000000000000000000000000000000000000000000000000000000000000000000000000000000000000000000000000000000000000000000000000000000000000000000000000000000000000000000000000000000000000000000000000000000000000000000000000000000000000000000000000000000000000000000000000000000000000000000000000000000000000000000000000000000000000000000000000000000000000000000000000000000000000000000000000000000000000000000000000000000000000000000000000000000000000000000000000000000000000000000000000000000000000000000000000000000000000000000000000000000000000000000000000000000000000000000000000000000000000000000000000000000000000000000000000000000000000000000000000000000000000000000000000000000000000000000000000000000000000000000000000000000000000000000000000000000000000000000000000000000000000000000000000000000000000000000000000000000000000000000000000000000000000000000000000000000000000000000000000000000000000000000000000000000000000000000000000000000000000000000000000000000000000000000000000000000000000000000000000000000000000000000000000000000000000000000000000000000000000000000000000000000000000000000000000000000000000000000000000000000000000000000000000000000000000000000000000000000000000000000000000000000000000000000000000000000000000000000000000000000000000000000000000000000000000000000000000000000000000000000000000000000000000000000000000000000000000000000000000000000000000000000000000000000000000000000000000000000000000000000000000000000000000000000000000000000000000000053230000000000000000000000000000000000000000000000000000000000000000000000000000000000000000000000000000000000000000000000000000000000000000000000000000000000000000000000000000000000000000000000000000000000000000000000000000000000000000000000000000000000000000000000000000000000000000000000000000000000000000000000000000000000000000000000000000000000000000000000000000000000000000000000000000000000000000000000000000000000000000000000000000000000000000000000000000000000000000000000000000000000000000000000000000000000000000000000000000000000000000000000000000000000000000000000000000000000000000000000000000000000000000000000000000000000000000000000000000000000000000000000000000000000000000000000000000000000000000000000000000000000000000000000000000000000000000000000000000000000000000000000000000000000000000000000000000000000000000000000000000000000000000000000000000000000000000000000000000000000000000000000000000000000000000000000000000000000000000000000000000000000000000000000000000000000000000000000000000000000000000000000000000000000000000000000000000000000000000000000000000000000000000000000000000000000000000000000000000000000000000000000000000000000000000000000000000000000000000000000000000000000000000000000000000000000000000000000000000000000000000000000000000000000000000000000000000000000000000000000000000000000000000000000000000000000000000000000000000000000000000000000000000000000000000000000000000000000000000000000
#1009a0:0000000000140000
#100980:000000000000000000000000000000000000000000000000000000000000000000000000000000000000000000000000000000000000000000000000000000000000000000000000000000000000000000000000000000000000000000000000000000000000000000000000000000000000000000000000000000000000000000000000000000000000000000000000000000000000000000000000000000000000000000000000000000000000000000000000000000000000000000000000000000000000000000000000000000000000000000000000000000000000000000000000000000000000000000000000000000000000000000000000000000000000000000000000000000000000000000000000000000000000000000000000000000000000000000000000000000000000000000000000000000000000000000000000000000000000000000000000000000000000000000000000000000000000000000000000000000000000000000000000000000000000000000000000000000000000000000000000000000000000000000000000000000000000000000000000000000000000000000000000000000000000000000000000000000000000000000000000000000000000000000000000000000000000000000000000000000000000000000000000000000000000000000000000000000000000000000000000000000000000000000000000000000000000000000000000000000000000000000000000000000000000000000000000000000000000000000000000000000000000000000000000000000000000000000000000000000000000000000000000000000000000000000000000000000000000000000000000000000000000000000000000000000000000000000000000000000000000000000000000000000000000000000000000000000000000000000000000000000000000000000000000000000000000000000000000000000000000000000000000000000000000000000000000000000000000000000000000000000000000000000000000000000000000000000000000000000000000000000000000000000000000000000000000000000000000000000000000000000000000000000000000000000000000000000000000000000000000000000000000000000000000000000000000000000000000000000000000000000000000000000000000000000000000000000000000000000000000000000000000000000000000000000000000000000000000000000000000000000000000000000000000000000000000000000000000000000000000000000000000000000000000000000000000000000000000000000000000000000000000000000000000000000000000000000000000000000000000000000000000000000000000000000000000000000000000000000000000000000000000000000000000000000000000000000000000000000000000000000000000000000000000000000000000000000000000000000000000000000000000000000000000000000000000000000000000000000000000000000000000000000000000000000000000000000000000000000000000000000000000000000000000000000000000000000000000000000000000000000000000000000000000000000000000000000000000000000000000000000000000000000000000000000000000000000000000000000000000000000000000000000000000000000000000000000000000000000000000000000000000000000000000000000000000000000000000000000000000000000000000000000000000000000000000000000000000000000000000000000000000000000000000000000000000000000000000000000000000000000000000000000000000000000000000000000000000000000000000000000000000000000000000000000000000000000000054240000000000000000000000000000000000000000000000000000000000000000000000000000000000000000000000000000000000000000000000000000000000000000000000000000000000000000000000000000000000000000000000000000000000000000000000000000000000000000000000000000000000000000000000000000000000000000000000000000000000000000000000000000000000000000000000000000000000000000000000000000000000000000000000000000000000000000000000000000000000000000000000000000000000000000000000000000000000000000000000000000000000000000000000000000000000000000000000000000000000000000000000000000000000000000000000000000000000000000000000000000000000000000000000000000000000000000000000000000000000000000000000000000000000000000000000000000000000000000000000000000000000000000000000000000000000000000000000000000000000000000000000000000000000000000000000000000000000000000000000000000000000000000000000000000000000000000000000000000000000000000000000000000000000000000000000000000000000000000000000
#100941:00000014
#100921:000000000000000000000000000000000000000000000000000000000000000000000000000000000000000000000000000000000000000000000000000000000000000000000000000000000000000000000000000000000000000000000000000000000000000000000000000000000000000000000000000000000000000000000000000000000000000000000000000000000000000000000000000000000000000000000000000000000000000000000000000000000000000000000000000000000000000000000000000000000000000000000000000000000000000000000000000000000000000000000000000000000000000000000000000000000000000000000000000000000000000000000000000000000000000000000000000000000000000000000000000000000000000000000000000000000000000000000000000000000000000000000000000000000000000000000000000000000000000000000000000000000000000000000000000000000000000000000000000000000000000000000000000000000000000000000000000000000000000000000000000000000000000000000000000000000000000000000000000000000000000000000000000000000000000000000000000000000000000000000000000000000000000000000000000000000000000000000000000000000000000000000000000000000000000000000000000000000000000000000000000000000000000000000000000000000000000000000000000000000000000000000000000000000000000000000000000000000000000000000000000000000000000000000000000000000000000000000000000000000000000000000000000000000000000000000000000000000000000000000000000000000000000000000000000000000000000000000000000000000000000000000000000000000000000000000000000000000000000000000000000000000000000000000000000000000000000000000000000000000000000000000000000000000000000000000000000000000000000000000000000000000000000000000000000000000000000000000000000000000000000000000000000000000000000000000000000000000000000000000000000000000000000000000000000000000000000000000000000000000000000000000000000000000000000000000000000000000000000000000000000000000000000000000000000000000000000000000000000000000000000000000000000000000000000000000000000000000000000000000000000000000000000000000000000000000000000000000000000000000000000000000000000000000000000000000000000000000000000000000000000000000000000000000000000000000000000000000000000000000000000000000000000000000000000000000000000000000000000000000000000000000000000000000000000000000000000000000000000000000000000000000000000000000000000000000000000000000000000000000000000000000000000000000000000000000000000000000000000000000000000000000000000000000000000000000000000000000000000000000000000000000000000000000000000000000000000000000000000000000000000000000000000000000000000000000000000000000000000000000000000000000000000000000000000000000000000000000000000000000000000000000000000000000000000000000000000000000000000000000000000000000000000000000000000000000000000000000000000000000000000000000000000000000000000000000000000000000000000000000000000000000000000000000000000000000000000000000000000000000000000000000000000000000000000000000000000000000000000000000000000000000000000000000000000000000000000000000000000000000000000000000000000000000000000000000000000000000000000000000000000000000000000000000000000000000000000000000000000000000000000000000000000000000000000000000000000000000000000000000000000000000000000000000000000000000000000000000000000000000000000000000000000000000000000000000000000000000000000000000000000000000000000000000000000000000000000000000000000000000000000000000000000000000000000000000000000000000000000000000054240000000000000000000000000000000000000000000000000000000000000000000000000000000000000000000000000000000000000000000000000000000000000000000000000000000000000000000000000000000000000000000000000000000000000000000000000000000000000000000000000000000000000000000000000000000000000000000000000000000000000000000000000000000000000000000000000000000000000000000000000000000000000000000000000000000000000000000000000000000000000000000000000000000000000000000000000000000000000000000000
#1009a0:0000000000000014
#100980:000000000000000000000000000000000000000000000000000000000000000000000000000000000000000000000000000000000000000000000000000000000000000000000000000000000000000000000000000000000000000000000000000000000000000000000000000000000000000000000000000000000000000000000000000000000000000000000000000000000000000000000000000000000000000000000000000000000000000000000000000000000000000000000000000000000000000000000000000000000000000000000000000000000000000000000000000000000000000000000000000000000000000000000000000000000000000000000000000000000000000000000000000000000000000000000000000000000000000000000000000000000000000000000000000000000000000000000000000000000000000000000000000000000000000000000000000000000000000000000000000000000000000000000000000000000000000000000000000000000000000000000000000000000000000000000000000000000000000000000000000000000000000000000000000000000000000000000000000000000000000000000000000000000000000000000000000000000000000000000000000000000000000000000000000000000000000000000000000000000000000000000000000000000000000000000000000000000000000000000000000000000000000000000000000000000000000000000000000000000000000000000000000000000000000000000000000000000000000000000000000000000000000000000000000000000000000000000000000000000000000000000000000000000000000000000000000000000000000000000000000000000000000000000000000000000000000000000000000000000000000000000000000000000000000000000000000000000000000000000000000000000000000000000000000000000000000000000000000000000000000000000000000000000000000000000000000000000000000000000000000000000000000000000000000000000000000000000000000000000000000000000000000000000000000000000000000000000000000000000000000000000000000000000000000000000000000000000000000000000000000000000000000000000000000000000000000000000000000000000000000000000000000000000000000000000000000000000000000000000000000000000000000000000000000000000000000000000000000000000000000000000000000000000000000000000000000000000000000000000000000000000000000000000000000000000000000000000000000000000000000000000000000000000000000000000000000000000000000000000000000000000000000000000000000000000000000000000000000000000000000000000000000000000000000000000000000000000000000000000000000000000000000000000000000000000000000000000000000000000000000000000000000000000000000000000000000000000000000000000000000000000000000000000000000000000000000000000000000000000000000000000000000000000000000000000000000000000000000000000000000000000000000000000000000000000000000000000000000000000000000000000000000000000000000000000000000000000000000000000000000000000000000000000000000000000000000000000000000000000000000000000000000000000000000000000000000000000000000000000000000000000000000000000000000000000000000000000000000000000000000000000000000000000000000000000000000000000000000000000000000000000000000000000000000000000000000000000000000000000000000000000000000000000000000000000000000000000000000000000000000000000000000000000000000000000000000000000000000000000000000000000000000000000000000000000000000000000000000000000000000000000000000000000000000000000000000000000000000000000000000000000000000000000000000000000000000000000000000000000000000000000000000000000000000000000000000000000000000000000000000000000000000000000000000000000000000000000000000000000000000000000000000000000000000000000000000000000000000000000000000000000000000000000000000000000000000000000000000000000000000000000000000000000000000000000000000000000000000000000000000000000000000000000000000000000000000000000000000000000000000000000000000000000000000000000000000000000000000000000000000000000000000000000000000000000000000000000000000000000000000000000000000000000000000000000000000000000000000000000000000000000000000000000000000000000000000000000000000000000000000000000000000000000000000000000000000000000000000000000054
#101980:24
#101941:14
#101921:000000000000000000000000000000000000000000000000000000000000000000000000000000000000000000000000000000000000000000000000000000000000000000000000000000000000000000000000000000000000000000000000000000000000000000000000000000000000000000000000000000000000000000000000000000000000000000000000000000000000000000000000000000000000000000000000000000000000000000000000000000000000000000000000000000000000000000000000000000000000000000000000000000000000000000000000000000000000000000000054240000000000000000000000000000000000000000000000000000000000000000000000000000000000000000000000000000000000000000000000000000000000000000000000000000000000000000000000000000000000000000000000000000000000000000000000000000000000000000000000000000000000000000000000000000000000000000000000000000000000000000000000000000000000000000000000000000000000000000000000000000000000000000000000000000000000000000000000000000000000000000000000000000000000000000000000000000000000000000000000000000000000000000000000000000000000000000000000000000000000000000000000000000000000000000000000000000000000000000000000000000000000000000000000000000000000000000000000000000000000000000000000000000000000000000000000000000000000000000000000000000000000000000000000000000000000000000000000000000000000000000000000000000000000000000000000000000000000000000000000000000000000000000000000000000000000000000000000000000000000000000000000000000000000000000000000000000000000000000000000000000000000000000000000000000000000000000000000000000000000000000000000000000000000000000000000000000000000000000000000000000000000000000000000000000000000000000000000000000000000000000000000000000000000000000000000000000000000000000000000000000000000000000000000000000000000000000000000000000000000000000000000000000000000000000000000000000000000000000000000000000000000000000000000000000000000000000000000000000000000000000000000000000000000000000000000000000000000000000000000000000000000000000000000000000000000000000000000000000000000000000000000000000000000000000000000000000000000000000000000000000000000000000000000000000000000000000000000000000000000000000000000000000000000000000000000000000000000000000000000000000000000000000000000000000000000000000000000000000000000000000000000000000000000000000000000000000000000000000000000000000000000000000000000000000000000000000000000000000000000000000000000000000000000000000000000000000000000000000000000000000000000000000000000000000000000000000000000000000000000000000000000000000000000000000000000000000000000000000000000000000000000000000000000000000000000000000000000000000000000000000000000000000000000000000000000000000000000000000000000000000000000000000000000000000000000000000000000000000000000000000000000000000000000000000000000000000000000000000000000000000000000000000000000000000000000000000000000000000000000000000000000000000000000000000000000000000000000000000000000000000000000000000000000000000000000000000000000000000000000000000000000000000000000000000000000000000000000000000000000000000000000000000000000000000000000000000000000000000000000000000000000000000000000000000000000000000000000000000000000000000000000000000000000000000000000000000000000000000000000000000000000000000000000000000000000000000000000000000000000000000000000000000000000000000000000000000000000000000000000000000000000000000000000000000000000000000000000000000000000000000000000000000000000000000000000000000000000000000000000000000000000000000000000000000000000000000000000000000000000000000000000000000000000000000000000000000000000000000000000000000000000000000000000000000000000000000000000000000000000000000000000000000000000000000000000000000000000000000000000000000000000000000000000000000000000000000000000000000000000000000000000000000000000000000000000000000000000000000000000000000000000000000000000000000000000000000000000000000000000
#101980:000000000000000000000000000000000000000000000000000000000000000000000000000000000000000000000000000000000000000000000000000000000000000000000000000000000000000000000000000000000000000000000000000000000000000000000000000000000000000000000000000000000000000000000000000000000000000000000000000000000000000000000000000000000000000000000000000000000000000000000000000000000000000000000000000000000000000000000000000000000000000000000000000000000000000000000000000000000000000000000000160000000000000000000000000000000000000000000000000000000000000000000000000000000000000000000000000000000000000000000000000000000000000000000000000000000000000000000000000000000000000000000000000000000000000000000000000000000000000000000000000000000000000000000000000000000000000000000000000000000000000000000000000000000000000000000000000000000000000000000000000000000000000000000000000000000000000000000000000000000000000000000000000000000000000000000000000000000000000000000000000000000000000000000000000000000000000000000000000000000000000000000000000000000000000000000000000000000000000000000000000000000000000000000000000000000000000000000000000000000000000000000000000000000000000000000000000000000000000000000000000000000000000000000000000000000000000000000000000000000000000000000000000000000000000000000000000000000000000000000000000000000000000000000000000000000000000000000000000000000000000000000000000000000000000000000000000000000000000000000000000000000000000000000000000000000000000000000000000000000000000000000000000000000000000000000000000000000000000000000000000000000000000000000000000000000000000000000000000000000000000000000000000000000000000000000000000000000000000000000000000000000000000000000000000000000000000000000000000000000000000000000000000000000000000000000000000000000000000000000000000000000000000000000000000000000000000000000000000000000000000000000000000000000000000000000000000000000000000000000000000000000000000000000000000000000000000000000000000000000000000000000000000000000000000000000000000000000000000000000000000000000000000000000000000000000000000000000000000000000000000000000000000000000000000000000000000000000000000000000000000000000000000000000000000000000000000000000000000000000000000000000000000000000000000000000000000000000000000000000000000000000000000000000000000000000000000000000000000000000000000000000000000000000000000000000000000000000000000000000056260000000000000000000000000000000000000000000000000000000000000000000000000000000000000000000000000000000000000000000000000000000000000000000000000000000000000000000000000000000000000000000000000000000000000000000000000000000000000000000000000000000000000000000000000000000000000000000000000000000000000000000000000000000000000000000000000000000000000000000000000000000000000000000000000000000000000000000000000000000000000000000000000000000000000000000000000000000000000000000000000000000000000000000000000000000000000000000000000000000000000000000000000000000000000000000000000000000000000000000000000000000000000000000000000000000000000000000000000000000000000000000000000000000000000000000000000000000000000000000000000000000000000000000000000000000000000000000000000000000000000000000000000000000000000000000000000000000000000000000000000000000000000000000000000000000000000000000000000000000000000000000000000000000000000000000000000000000000000000000000000000000000000000000000000000000000000000000000000000000000000000000000000000000000000000000000000000000000000000000000000000000000000000000000000000000000000000000000000000000000000000000000000000000000000000000000000000000000000000000000000000000000000000000000000000000000000000000000000000000000000000000000000000000000000000000000000000000000000000000000000000000000000000000000000000000000000000000000000000000000000000000000000000000000000000000000000000000000000000000000
