This file was generated by Ched 2.7.0.0.
#TITLE ""
#ARTIST ""
#DESIGNER ""
#DIFFICULTY 0
#PLAYLEVEL
#SONGID ""
#WAVE ""
#WAVEOFFSET 0
#JACKET ""
#REQUEST "ticks_per_beat 480"
#00002: 4
#BPM01: 230
#BPM02: 208
#BPM03: 178
#BPM04: 185
#BPM05: 192
#BPM06: 198
#BPM07: 200
#BPM08: 205
#BPM09: 210
#BPM0A: 220
#00008: 01
#00508: 0000000002010000
#07008: 0000000000010000
#04508: 0000000000030000
#05708: 0000000000040000
#06308: 0000000000050000
#06508: 0006000000000000
#06608: 0000000000070000
#06708: 0000000800000000
#06808: 0009000000000000
#06908: 00000000000A0000
#TIL00: ""
#VOLUME: ""
#HISPEED 00
#MEASUREHS 00
#00319:12
#00317:0012
#01115:0000001300000013
#01118:0013
#01218:13
#0121b:0000000000000013
#01312:0000000000130000
#01318:0013000000000013
#01315:0000001300000000
#01415:13
#0141b:00130000
#01418:0013
#0451b:0000000000000013
#0451a:0024001400240000
#04512:0000140000240000
#04510:0000000000410000
#04615:0013000000000000
#04618:1300001300000000
#04612:00130000
#0461b:00000013
#04712:0013
#04715:0000000000130000
#04718:00000013
#0471b:0000000000000013
#04818:0000001300000000
#0481b:0000000000130000
#04815:1313
#04812:00000013
#0501a:0014000000000000
#05016:0000001400000000
#05015:13
#05012:0000000000140014
#05018:00000013
#04918:0000000000000013
#04916:00000013000000000000000000000000
#0511b:0000000000130000
#05118:00000013
#05115:0000000013000013
#05116:0014000000000000
#0511a:0000001400000000
#05212:13
#05218:0013000000000000
#05215:00130000
#05217:00000013
#0521b:0000001333330033
#03112:0000000000000014
#0311b:0013000000000000
#03216:0014000000000000
#0321a:0000001400000000
#03212:0000000000130000
#03018:1300000000130000
#0301b:0000001300000000
#03418:0013
#03415:0000000000130000
#03612:0000000000000013
#0361b:3313000000000000
#03618:0033
#03715:0013000000000000
#03718:0000001300000013
#0371b:0000000000130000
#03712:0000000000130000
#03815:0013000000000000
#03812:0000001300000000
#03818:0000000000240000
#03814:0000000000000024
#04012:0014000000000000
#04016:0034
#0411b:0000000000130000
#04114:0000000000000013
#04219:0000001300000000
#04214:0000000000000013
#04212:0053000000000000
#04213:53
#0421a:0053
#0421b:0000000000530000
#03518:0000000000130000
#03512:3313000000000000
#03515:0033
#05312:0013
#05318:0000000000130000
#05315:00000013
#0531b:3300000000000013
#05418:1300001300000013
#05415:0013000013000000
#05412:00130000
#0541b:0000000000130000
#08818:0013000000130000
#08815:0000001300000000
#08912:0000000000130000
#08918:0000000000000013
#0891b:13
#09015:1300001300000000
#09018:00130000
#09012:0000000000000024
#10512:0000000000140000
#1051b:0000001300000000
#10518:0013000000000000
#10614:0014000000000000
#10618:0014000000000000
#10715:00001300000000000000000000130000
#10718:0000001300000000
#10712:0013
#1081b:0000001300000000
#10812:0000000000140000
#10816:0000000000000014
#1091a:0014000000000000
#10916:0000001400000000
#10912:0000000000130000
#10315:0000001300000000
#10318:0013000000000000
#10312:0000000000240000
#1031a:0000000000240000
#1031f:0000000000210000
#11918:0013000000000000
#11915:0000001300000000
#11912:0000000000240000
#1191a:0000000000240000
#00415:0000000000000000000000000000000000000000000000000000000000000012
#09712:0000001300000000
#09715:00000013
#09718:13
#0961b:0000000000130000
#09618:00130000
#0951b:0000000000000013
#09512:0000000000240000
#0951a:0000000000240000
#12314:0014000000000000
#12317:0000001500000000
#12419:0000001500000000
#12412:0000000000140000
#01615:0013000000000000
#01618:0000001300000000
#01612:0000000000130000
#01712:0000001300000000
#01715:13
#0181a:0000000000000014
#01916:0014000000000000
#01912:0000001400000000
#01918:0000000000130000
#0201b:13
#02012:0000000000000014
#02116:0014000000000000
#0211a:0000001400000000
#02112:0000000000130000
#02118:0000000000000013
#02215:1313
#02215:0013
#0221b:00130000
#02318:0000000000000013
#02415:1300000000000013
#0241b:0013000000000000
#02412:00130000
#02718:13
#02712:0000000000000013
#02715:0013000000000000
#0271b:0000000000000013
#02615:0000000000000013
#02612:0000000000240000
#0261a:0000000000240000
#02610:0000000000410000
#02818:0013001300000000
#02815:00130000
#02812:0000000000000013
#02918:0000001300000000
#02915:0013000000000000
#0291b:0000000000130000
#03315:13
#0431a:0000001400000000
#04316:0000000000140000
#04312:0053000000000014
#04313:53
#04414:00140000
#04418:0014001400000000
#04413:0000000000240014
#04419:00000014
#05612:0014000000000000
#05616:0000001400000000
#05618:13
#0561a:0000000000140014
#05615:00000013
#05515:0000000000000013
#05716:0014000000000000
#05712:0000001400240013
#0571a:0000000000240000
#05710:0000000000410000
#09812:0013000000001300
#09815:0000000013000033
#10219:0014000000000000
#10212:0000000000160000
#10213:0024000000000000
#10218:0000000000260000
#10414:14
#10418:0000001400000000
#10415:0000000000000013
#10412:0000000000130000
#10410:0000000000410000
#12014:15
#12018:0000001400000000
#12015:0000000000000014
#12012:0000000000150000
#1211a:0000001400000000
#12118:0013000000000000
#11118:0013000000000000
#11115:0000001300000000
#11112:0000000000240000
#1111a:0000000000240000
#11312:0000000000140000
#1131a:0000001400000000
#11318:0013000000000000
#11515:0013000000000000
#11518:0000001400000000
#11512:0013
#1161b:0000001300000000
#11612:0000000000140000
#11616:0000000000000014
#11214:14
#11218:0000001400000000
#11215:0000000000000014
#11212:0000000000130000
#1171a:0014000000000000
#11716:0000001400000000
#11712:0000000000130000
#1101b:13
#11015:13
#11012:00330000
#11018:00330000
#05818:0013000000000000
#05815:1300001300000000
#0581b:00130000
#05812:00000013
#0591b:0013
#05918:0000000000130000
#05915:00000013
#05912:0000000000000013
#06015:0013001300000000
#06018:1300000013000013
#0601b:00130000
#06012:0000000000130000
#06415:0000000000000013
#06418:0013000000000000
#06518:0000000000130000
#0651a:0000000000000014
#06618:0000001400000000
#06614:0014
#06712:0013000000000000
#0671b:0000000000000013
#06812:0000000000130000
#06818:0000000000000014
#06814:0000000000000014
#06212:0014000000000000
#06216:0000001400000000
#06218:13
#0621a:0000000000140014
#06215:00000013
#06115:0000000000000013
#06316:0014000000000000
#0631a:0014
#06312:0000001400000000
#0911f:0000000000110000
#09118:0024000000000000
#09114:0000002400000000
#08015:0000001300000000
#08018:0013000000130000
#08112:0000000000130000
#08118:0000000000000013
#0811b:13
#08215:1300001300000000
#08218:00130000
#08318:0014000000000000
#08314:0000001400000000
#0831b:0000000000000013
#08415:0000001300000000
#08418:0013
#08412:0000000000140000
#08414:0000000000000054
#08518:0000001300130000
#08515:0013
#08512:0000000000000013
#08514:54
#08715:0013000000000000
#08718:0000001300000000
#0871a:0000000000240000
#08712:0000000000240000
#0861b:13
#08615:00130000
#08618:0000001300000000
#07918:0013000000000000
#07915:0000001300000000
#0791a:0000000000240000
#07912:0000000000240000
#07910:0000000000410000
#09212:14
#09216:00000000000000140000000000000000
#09312:0000000000130000
#09317:00000013
#0931b:00130000
#09314:0000001300000000
#09319:0013
#0941b:0000000000130000
#09416:00000013
#09412:00130000
#09419:0000001300000000
#09414:0013
#00514:0000000000240000
#00618:24
#00613:0000002400000000
#00619:00000024
#00712:0024000000000000
#0071a:0024
#00812:0000000000000000000000002300000000330000000033000000003300000000
#03912:3434000000000000
#00912:33
#02515:33
#09915:3333333333000000
#01010:0000000000410000
#13017:0000000000520000
#07112:0000000000640000
#0711a:0000000000640000
#07214:0000000000640000
#07214:0000000000640000
#07218:0000000000640000
#07218:0000000000640000
#07312:0000000000630000
#0731b:0000000000630000
#07416:0000000000620000
#07418:0000000000620000
#07512:0062000000000000
#0751c:0062000000000000
#0145b:00530000
#01458:0063
#03058:5300000000630000
#0305b:0000005300000000
#0315b:0023000000000000
#03455:0000000000530000
#04052:0064000000000000
#03558:0000000000530000
#03552:0053000000000000
#0365b:0053000000000000
#03658:0000000000130000
#04855:13
#04852:00000063
#10552:0000000000640000
#10654:0024000000000000
#10658:0024000000000000
#10652:0000000000340000
#1065a:0000000000440000
#10852:0000000000140000
#1095a:0014000000000000
#10952:0000000000630000
#00455:0000000000000000000000000000000000000000000000000000000000000062
#04658:0000006300000000
#0465b:00000023
#04956:00000023000000000000000000000000
#05257:00000023
#0525b:0000006300000000
#0545b:0000000000630000
#05458:0000000000000063
#0895b:63
#08958:0000001300000000
#08858:0000000000630000
#09752:0000006300000000
#09755:00000063
#09758:53
#0965b:0000000000630000
#09658:00630000
#0955b:0000000000000063
#09552:14
#10755:00000000000000000000000000230000
#10752:0063
#12452:0000000000140000
#01752:0000006300000000
#01755:63
#01652:0000000000630000
#01958:0000000000530000
#0205b:53
#02058:0000000000130000
#02255:0053
#02255:0053
#02455:0000000000000053
#02452:00630000
#0295b:0000000000530000
#03355:63
#03252:0000000000630000
#09852:0063000000006300
#09855:0063
#11352:0000000000640000
#11552:0063
#11652:0000000000140000
#1175a:0014000000000000
#11752:0000000000630000
#1105b:63
#11055:63
#11052:0000001300000000
#11058:0000001300000000
#09055:0000005300000000
#09052:0000000000000014
#05855:0000005300000000
#05852:00000023
#06058:0000000000000053
#06858:0000000000000054
#06854:0000000000000054
#0815b:53
#08158:0000001300000000
#08058:0000000000530000
#08255:0000006300000000
#08252:0000000000000014
#08358:0014000000000000
#08354:0000001400000000
#0835b:0000000000000053
#08658:0000005300000000
#0865b:0000000000130000
#08452:0000000000540000
#08458:0013000000000000
#09252:64
#09256:00000000000000240000000000000000
#09357:00000053
#09456:00000063
#0945a:14
#00554:0000000000140000
#00658:14
#00653:0000001400000000
#00659:00000014
#00752:0014000000000000
#0075a:0014
#03858:0000000000140000
#03854:0000000000000054
#0875a:0000000000140000
#08752:0000000000140000
#10352:0000000000140000
#1035a:0000000000140000
#11952:0000000000140000
#1195a:0000000000140000
#11152:0000000000140000
#1115a:0000000000140000
#09158:0014000000000000
#09154:0000005400000000
#0795a:0000000000140000
#07952:0000000000140000
#04252:0013000000000000
#0425b:0000000000130000
#04352:0013000000000000
#08554:14
#07152:0000000000540000
#0715a:0000000000640000
#07254:0000000000640000
#07258:0000000000540000
#07352:0000000000530000
#0735b:0000000000630000
#04156:0014000000000000
#0535b:0013000000000000
#01054:0000000000180000
#01855:0000000000130000
#02352:0000000000130000
#07753:0000000000130000
#0775a:0000000000130000
#1015a:0000000000130000
#10153:0000000000130000
#11452:0000000000340000
#1145a:0000000000440000
#11852:0000001300000000
#11858:0000001300000000
#12252:0000000000340000
#1225a:0000000000440000
#001380:1222
#002360:1222
#004350:120000000000000000000000000000000000000000000000000000000000000032000000000000000000000000320000000000320000000000320000000000000000000000000000000000320000000000000000000000000000000000320000
#005340:0000000054240000
#008320:0000000000000000000000001300000000330000000033000000003300000000
#009320:33
#009360:0034000000000000
#010340:0000000000280000
#012320:0013000000230000
#0143b0:00130000
#014380:0033
#0153b0:0000000000000023
#016320:0000000000130000
#017350:33
#017320:0000003300000000
#018350:0000000000230000
#019380:0000000000130000
#0203b0:33
#020380:0000000000230000
#022350:0013
#023320:0000000000230000
#024320:00130000
#024350:0000000000330033
#025350:33
#026320:0023000000000000
#0293b0:0000000000130000
#030380:3300000000330000
#0303b0:0000003300000000
#0313b0:0053000000000000
#031380:0000000000230000
#032320:0000000000130000
#033350:33
#034320:0023000000000000
#034350:0000000000130000
#035320:3333000000000000
#035350:0000000033230000
#035381:0000000000130000
#0363b1:3333000000000000
#036381:0000000033230000
#038341:0000000000000014
#039321:340000340000000000000000000000340034003400340034
#040321:003400340000000000000000000000000000000000000000
#040361:000000000000000000000000340000000000000000340034
#041361:003400240000000000000000000000000000000000000000
#046381:0000001300000000
#0463b1:00000053
#047381:0023000000000000
#048321:00000013
#049361:00000053000000000000000000000000
#049321:0000000000230000
#0523b1:0000001333330033
#052371:00000033
#0533b1:3323000000000000
#0543b1:0000000000130000
#054381:0000000000000033
#0553b1:0000000000230000
#058351:0000001300000000
#058321:00000053
#059351:0023000000000000
#060381:0000000000000013
#0613b1:0000000000230000
#063321:0000000000140000
#064321:0000002400000000
#0643a0:0000001400000000
#0653a0:0024000000000000
#065321:0014000000000024
#066381:0000000000140000
#067381:0000002400000000
#067340:0000001400000000
#068340:0024000000000000
#068381:0014000000000034
#0693b1:00000000000000000000335353535300
#0693a1:0000000000000000000000000000000000000000005400540054005400000000
#0703b1:00005353535353005353530053535300
#0703a1:0000000000540054005400540000000000540054000000000054005400000000
#0713b1:53530000000000000000000000000000
#0713a1:0054005434000000000000000000000000000000240000000000000000000000
#068340:0000000000000014
#069320:0000000000000000000000000000000000000000335453545354535453000000
#070320:0000000053545354535453545300000053545354530000005354535453000000
#071320:5354535434000000000000000000000000000000240000000000000000000000
#075350:00000000000000000000135353535353
#075340:0000000000000000000000000000000000000000005400540054005400540054
#076350:53532300000000000000000000000000
#076340:0054005400000000000000000000000000000000000000000000000000000000
#076381:0000000013545354535453545354535453545354230000000000000000000000
#076330:00000000000000000000135353535353
#076320:0000000000000000000000000000000000000000005500550055005500550055
#077330:53533353535353535353230000000000
#077320:0055005500550055005500550055005500550055000000000000000000000000
#0773a1:00001353535353535353230000000000
#077391:0000000000550055005500550055005500550055000000000000000000000000
#080381:0000000000130000
#0813b1:33
#081381:0000002300000000
#082351:0000001300000000
#082321:0000000000000024
#0833b1:0000000000000013
#084381:0023000000000000
#086381:0000001300000000
#0863b1:0000000000230000
#088381:0000000000130000
#0893b1:33
#089381:0000002300000000
#090351:0000001300000000
#090321:0000000000000024
#091341:0000001400000000
#091321:0000000000000034
#092321:3400000000000024
#092361:00000000000000540000000000000000
#093371:00000013
#0943a1:24
#094361:00000013
#095321:24
#0953b1:0000000000000013
#096381:00330000
#0963b1:0000000000330000
#097381:33
#0973b1:0000002300000000
#097320:0000001300000000
#097350:00000033
#098320:0033000000003300
#098350:0000000033000033
#099350:3333333333230000
#099381:0000000000000000000000000000000000000000135453545354535453545354
#100381:5354535423000000000000000000000000000000000000000000000000000000
#100350:00001353535353535353230000000000
#100340:0000000000540054005400540054005400540054000000000000000000000000
#1003a1:00000000000000000000135353535353
#100391:0000000000000000000000000000000000000000005500550055005500550055
#1013a1:53533353535353535353230000000000
#101391:0055005500550055005500550055005500550055000000000000000000000000
#101330:00001353535353535353230000000000
#101320:0000000000550055005500550055005500550055000000000000000000000000
#105320:0000000000140000
#106340:0034000000000000
#106320:0000000000240000
#106381:0014000000000000
#1063a1:0000000000240000
#107321:0013
#107351:00000000000000000000000000530000
#108321:0023000000000000
#109321:0000000000130000
#110351:33
#110321:0000332300000000
#1103b0:13
#110380:0000332300000000
#113320:0000000000140000
#114340:000000000000000000000000340000000000000000000000000000000000000000000000000000000054000000000000000000000000000000000000000000000000000000000000000000000000000000000000000000000000000000000000
#114330:000000000000000000000000000000000000000000000000000000000000000000000000000000000000000000000000000000000054000000000000000000000000000000000000000000000000000000000000000000000000000000000000
#114320:0000000000240000
#114381:000000000000000000000000140000000000000000000000000000000000000000000000000000000054000000000000000000000000000000000000000000000000000000000000000000000000000000000000000000000000000000000000
#114391:000000000000000000000000005400000000000000000000
#1143a1:0000000000240000
#115321:0013
#115351:0000000000005353
#116341:53
#116321:0023000000000000
#117321:0000000000130000
#118351:33
#118331:0053000000000000
#118321:0000332300000000
#1183b0:13
#118390:0053000000000000
#118380:0000332300000000
#121320:0000000000140000
#121330:00000054
#122340:540000000000540000540000000000000000000000000000340000000000000000000000000000000000000000000000540000000000000000000000000000000000000000000000000000000000000000005400000000000000000000000000000000000000000000000000000000000000000000000000000000000000000000000000000000000000000000000000000000000000000000000000000000000000000000000000000000000000000000000000000000000000000000000000
#122330:000000000000000000000000000000550000000000000000000000000000000000000000000000000000000000000000000000000000000000000000000000000000000000000000000000000000000000000000000000000000000000000000000000000000000000000000000000000000000000000000000000000000000000000000000000000000000000000000000000000000000000000000000000000000000000000000000000000000000000000000000000000000000000000000000000000000000000000000000000000000000054000000000000000000000000000000000000000000000000000000000000000000000000000000000000000000000000000000000000000000000000000000000000000000000000000000000000000000000000000000000000000000000000000000000000000000000000000000000000000000000000000000000000000000000000000000000000000000000000000000000000000000000000000000000000000000000000000000
#122320:0000000000240000
#122381:000000000000000000000000000000000000000000000000000000000000000000000000000000000000000000000000140000000000000000000000000000000000000000000000000000000000000000000000000000000000000000540000560000540000000000000000000000000000000000000000000000000000000000000000000000000000000000000000000000000000000000000000000000000000000054000000000000000000000000000000000000000000000000000000000000000000000000000000000000000000000000000000000000000000000000000000000000000000000000000000000000000000000000000000000000000000000000000000000000000000000000000000000000000000000000000000000000000000000000000000000000000000000000000000000000000000000000000000000000000000000000000000000000000000000000000000000000000000000000000000000000000000000000000000000000000000000000000000
#122391:000000000000000000000000005400000000000000000000
#1223a1:0000000000240000
#123321:0013
#123341:0000000000000000000000000000000000000053000000540000000000000053
#123351:0000000000000000000000000000000000000000000000000000000000000000000000000000000000000000000000000000000000000000000000000000000000000000000000000000000000000000000000000000000000000053005300000000000000000000530000000000005355530000000000000000000000000000
#124331:0000000000000053005300000000000000000000000000000000000000000000000000000000000000000000000000000000000000000000000000000000000000000000000000000000000000000000000000000000000000000000000000000000000000000000000000000000000000000000000000000000000000000000
#124321:00542300000000000000000000000000
#124361:000000000000000000000000000000000000000000000000000000000000000000000000000000000000000000000000000000000000000000000000000000000000000000000000000000000000000000000000000000000000000000000000000000000000000000000000000000000000000000000000000000000000000000000000000000000000000000000000000000000000000000000000000000000000000000000000000000000000000000000000000000000000000000000000000000000000000000000000000000000000000000000000000000000000000000000000000000000000000000000000000000000000000000000000000000000000000000000000000000000000000000000000000000000000000000000000000000000000000000000000000000000000000000000000000000000000000000000000000000000000000000000000000000000000000000000000000000000000000000000000000000000000000000000000000000000000000000000000000000000000000000000000000000000000000000000000000000000000000000000000000000000000000000000000000000000000000000000000000000000000000000000000000000000000000000000000000000000000000000000000000000000000000000000000000000000000000000000000000000000000000000000000000000000000000000000000000000000000000000000000000000000000000000000000000000000000000000000000000000000000000000000000000000000000000000000000000000000000000000000000000000000000000000000000000000000000000000000000000000000000000000000000000000000000000000000000000000000000000000000000000000000000000000000000000000000000000000000000000000000000000000000000000000000000000000000000000000000000000000000000000000000000000000000000000000000000000000000000000000000000000000000000000000000000000000000000000000000000000000000000000000000000000000000000000000000000000000000000000000000000000000000000000000000000000000000000000000000000000000000000000000000000000000000000000000000000000000000000000000000000000000000000000000000000000000000000000000000000000000000000000000000000000000000000000000000000000000000000000000000000000000000000000000000000000000000000000000000000000000000000000000000000000000000000000000000000000000000000000000000000000000000000000000000000000000000000000000000000000000000000000000000000000000000000000000000000000000000000000000000000000000000000000000000000000000000000000000000000000000000000000000000000000000000000000000000000000000000000000000000000000000000000000000000000000000000000000000000000000000000000000000000000000000000000000000000000000000000000000000000000000000000000000000000000000000000000000000000000000000000000000000000000000000000000000000000000000000000000000000000000000000000000000000000000000000000000000000000000000000000000000000000000000000000000000000000000000000000000000000000000000000000000000000000000000000000000000000000000000000000000000000000000000000000000000000000000000000000000000000000000000000000000000000000000000000000000000000000000000000000000000000000000000000000000000000000000000000000000000000000000000000000000000000000000000000000000000000000000000000000000000000000000000000000000000000000000000000000000000000000000000000000000000000000000000000000000000000000000000000000000000000000000000000000000000000000000000000000000000000000000000000000000000000000000000000000000000000000000000000000000000000000000000000000000000000000000000000000000000000000000000000000000000000000000000000000000000000000000000000000000000000000000000000000000000000000000000000000000000000000000000000000000000000000000000000000000000000000000000000000000140000000000000000000000000000000000000000000000000000000000000000000000000000000000000000000000000000000000000000000000000000000000000000000000000000000000000000000000000000000000000000000000000000000000000000000000000000000000000000000000000000000000000000000000000000000000000000000000000000000000000000000000000000000000000000000000000000000000000000000000000000000000000000000000000000000000000000000000000000000000000000000000000000000000000000000000000000000000000000000054
#125341:3800003800000000
#130371:0000000000220000
#041940:0000000000000013
#042920:000000000000000000000000000000000000000000000000000000000000000000000000000000000000000000000000000000000000000000000000000000000000000000000000000000000000000000000000000000000000000000000000000000000000000000000000000000000000000000000000000000000000000000000000000000000000000000000000000000000000000000000000000000000000000000000000000000000000000000000000000000000000000000000000000000000000000000000000000000000000000000000000000000000000000000000000000000000000000000000053230000000000000000000000000000000000000000000000000000000000000000000000000000000000000000000000000000000000000000000000000000000000000000000000000000000000000000000000000000000000000000000000000000000000000000000000000000000000000000000000000000000000000000000000000000000000000000000000000000000000000000000000000000000000000000000000000000000000000000000000000000000000000000000000000000000000000000000000000000000000000000000000000000000000000000000000000000000000000000000000000000000000000000000000000000000000000000000000000000000000000000000000000000000000000000000000000000000000000000000000000000000000000000000000000000000000000000000000000000000000000000000000000000000000000000000000000000000000000000000000000000000000000000000000000000000000000000000000000000000000000000000000000000000000000000000000000000000000000000000000000000000000000000000000000000000000000000000000000000000000000000000000000000000000000000000000000000000000000000000000000000000000000000000000000000000000000000000000000000000000000000000000000000000000000000000000000000000000000000000000000000000000000000000000000000000000000000000000000000000000000000000000000000000000000000000000000000000000000000000000000000000000000000000000000000000000000000000000000000000000000000000000000000000000000000000000000000000000000000000000000000000000000000000000000000000000000000000000000000000000000000000000000000000000000000000000000000000000000000000000000000000000000000000000000000000000000000000000000000000000000000000000000000000000000000000000000000000000000000000000000000000000000000000000000000000000000000000000000000000000000000000000000000000000000000000000000000000000000000000000000000000000000000000000000000000000000000000000000000000000000000000000000000000000000000000000000000000000000000000000000000000000000000000000000000000000000000000000000000000000000000000000000000000000000000000000000000000000000000000000000000000000000000000000000000000000000000000000000000000000000000000000000000000000000000000000000000000000000000000000000000000000000000000000000000000000000000000000000000000000000000000000000000000000000000000000000000000000000000000000000000000000000000000000000000000000000000000000000000000000000000000000000000000000000000000000000000000000000000000000000000000000000000000000000000000000000000000000000000000000000000000000000000000000000000000000000000000000000000000000000000000000000000000000000000000000000000000000000000000000000000000000000000000000000000000000000000000000000000000000000000000000000000000000000000000000000000000000000000000000000000000000000000000000000000000000000000000000000000000000000000000000000000000000000000000000000000000000000000000000000000000000000000000000000000000000000000000000000000000000000000000000000000000000000000000000000000000000000000000000000000000000000000000000000000000000000000000000000000000000000000000000000000000000000000000000000000000000000000000000000000000000000000000000000000000000000000000000000000000000000000000000000000000000000000000000000000000000000000000000000000000000000000000000000000000000000000000000000000000000000000000000000000000000000000000000000000000000000000000000000000000000000000000000000000000000000000000000000000000000000000000000000000000000000000000000000000000000000000000000000000000000000000000000000000000000000000000000000000000000
#042990:0000001300000000
#0429b0:000000000000000000000000000000000000000000000000000000000000000000000000000000000000000000000000000000000000000000000000000000000000000000000000000000000000000000000000000000000000000000000000000000000000000000000000000000000000000000000000000000000000000000000000000000000000000000000000000000000000000000000000000000000000000000000000000000000000000000000000000000000000000000000000000000000000000000000000000000000000000000000000000000000000000000000000000000000000000000000000000000000000000000000000000000000000000000000000000000000000000000000000000000000000000000000000000000000000000000000000000000000000000000000000000000000000000000000000000000000000000000000000000000000000000000000000000000000000000000000000000000000000000000000000000000000000000000000000000000000000000000000000000000000000000000000000000000000000000000000000000000000000000000000000000000000000000000000000000000000000000000000000000000000000000000000000000000000000000000000000000000000000000000000000000000000000000000000000000000000000000000000000000000000000000000000000000000000000000000000000000000000000000000000000000000000000000000000000000000000000000000000000000000000000000000000000000000000000000000000000000000000000000000000000000000000000000000000000000000000000000000000000000000000000000000000000000000000000000000000000000000000000000000000000000000000000000000000000000000000000000000000000000000000000000000000000000000000000000000000000000000000000000000000000000000000000000000000000000000000000000000000000000000000000000000000000000000000000000000000000000000000000000000000000000000000000000000000000000000000000000000000000000000000000000000000000000000000000000000000000000000000000000000000000000000000000000000000000000000000000000000000000000000000000000000000000000000000000000000000000000000000000000000000000000000000000000000000000000000000000000000000000000000000000000000000000000000000000000000000000000000000000000000000000000000000000000000000000000000000000000000000000000000000000000000000000000000000000000000000000000000000000000000000000000000000000000000000000000000000000000000000000000000000000000000000000000000000000000000000000000000000000000000000000000000000000000000000000000000000000000000000000000000000000000000000000000000000000000000000000000000000000000000000000000000000000000000000000000000000000000000000000000000000000000000000000000000000000000000000053230000000000000000000000000000000000000000000000000000000000000000000000000000000000000000000000000000000000000000000000000000000000000000000000000000000000000000000000000000000000000000000000000000000000000000000000000000000000000000000000000000000000000000000000000000000000000000000000000000000000000000000000000000000000000000000000000000000000000000000000000000000000000000000000000000000000000000000000000000000000000000000000000000000000000000000000000000000000000000000000000000000000000000000000000000000000000000000000000000000000000000000000000000000000000000000000000000000000000000000000000000000000000000000000000000000000000000000000000000000000000000000000000000000000000000000000000000000000000000000000000000000000000000000000000000000000000000000000000000000000000000000000000000000000000000000000000000000000000000000000000000000000000000000000000000000000000000000000000000000000000000000000000000000000000000000000000000000000000000000000000000000000000000000000000000000000000000000000000000000000000000000000000000000000000000000000000000000000000000000000000000000000000000000000000000000000000000000000000000000000000000000000000000000000000000000000000000000000000000000000000000000000000000000000000000000000000000000000000000000000000000000000000000000000000000000000000000000000000000000000000000000000000000000000000000000000000000000000000000000000000000000000000000000000000000000000000000000000000000000000
#042940:0000000000000013
#043920:000000000000000000000000000000000000000000000000000000000000000000000000000000000000000000000000000000000000000000000000000000000000000000000000000000000000000000000000000000000000000000000000000000000000000000000000000000000000000000000000000000000000000000000000000000000000000000000000000000000000000000000000000000000000000000000000000000000000000000000000000000000000000000000000000000000000000000000000000000000000000000000000000000000000000000000000000000000000000000000053230000000000000000000000000000000000000000000000000000000000000000000000000000000000000000000000000000000000000000000000000000000000000000000000000000000000000000000000000000000000000000000000000000000000000000000000000000000000000000000000000000000000000000000000000000000000000000000000000000000000000000000000000000000000000000000000000000000000000000000000000000000000000000000000000000000000000000000000000000000000000000000000000000000000000000000000000000000000000000000000000000000000000000000000000000000000000000000000000000000000000000000000000000000000000000000000000000000000000000000000000000000000000000000000000000000000000000000000000000000000000000000000000000000000000000000000000000000000000000000000000000000000000000000000000000000000000000000000000000000000000000000000000000000000000000000000000000000000000000000000000000000000000000000000000000000000000000000000000000000000000000000000000000000000000000000000000000000000000000000000000000000000000000000000000000000000000000000000000000000000000000000000000000000000000000000000000000000000000000000000000000000000000000000000000000000000000000000000000000000000000000000000000000000000000000000000000000000000000000000000000000000000000000000000000000000000000000000000000000000000000000000000000000000000000000000000000000000000000000000000000000000000000000000000000000000000000000000000000000000000000000000000000000000000000000000000000000000000000000000000000000000000000000000000000000000000000000000000000000000000000000000000000000000000000000000000000000000000000000000000000000000000000000000000000000000000000000000000000000000000000000000000000000000000000000000000000000000000000000000000000000000000000000000000000000000000000000000000000000000000000000000000000000000000000000000000000000000000000000000000000000000000000000000000000000000000000000000000000000000000000000000000000000000000000000000000000000000000000000000000000000000000000000000000000000000000000000000000000000000000000000000000000000000000000000000000000000000000000000000000000000000000000000000000000000000000000000000000000000000000000000000000000000000000000000000000000000000000000000000000000000000000000000000000000000000000000000000000000000000000000000000000000000000000000000000000000000000000000000000000000000000000000000000000000000000000000000000000000000000000000000000000000000000000000000000000000000000000000000000000000000000000000000000000000000000000000000000000000000000000000000000000000000000000000000000000000000000000000000000000000000000000000000000000000000000000000000000000000000000000000000000000000000000000000000000000000000000000000000000000000000000000000000000000000000000000000000000000000000000000000000000000000000000000000000000000000000000000000000000000000000000000000000000000000000000000000000000000000000000000000000000000000000000000000000000000000000000000000000000000000000000000000000000000000000000000000000000000000000000000000000000000000000000000000000000000000000000000000000000000000000000000000000000000000000000000000000000000000000000000000000000000000000000000000000000000000000000000000000000000000000000000000000000000000000000000000000000000000000000000000000000000000000000000000000000000000000000000000000000000000000000000000000000000000000000000000000000000000000000000000000000000000000000000000000000000000000000000000000000000
#0719a0:0000000000140000
#072980:0000000000540000
#0739b0:0000000000530000
#074980:0000000000520000
#0759c0:000000000000000000000000000000000000000000000000000000000000000000000000000000000000000000000000000000000000000000000000000000000000000000000000000000000000000000000000000000000000000000000000000000000000000000000000000000000000000000000000000000000000000000000000000000000000000000000000000000000000000000000000000000000000000000000000000000000000000000000000000000000000000000000000000000000000000000000000000000000000000000000000000000000000000000000000000052525252525252525252220000000000000000000000000000000000000000000000000000000000000000000000000000000000000000000000000000000000000000000000000000000000000000000000000000000000000000000000000000000000000000000000000000000000000000000000000000000000000000000000000000000000000000000000000000000000000000000000000000000000000000000000000000000000000000000000000000000000000000000000000000000000000000000000000000000000000000000000000000000000000000000000000000000000000000000000000000000000000000000000000000000000000000000000000000000000000000000000000000000000000000000000000000000000000000000000000000000000000000000000000000000000000000000000000000000000000000000000000000000000000000000000000000000000000000000000000000000000000000000000000000000000000000000000000000000000000000000000000000000000000000000000000000000000000000000000000000000000000000000000000000000000000000000000000000000000000000000000000000000000000000000000000000000000000000000000000000000000000000000000000000000000000000000000000000000000000000000000000000000000000000000000000000000000000000000000000000000000000000000000000000000000000000000000000000000000000000000000000000000000000000000000000000000000000000000000000000000000000000000000000000000000000000000000000000000000000000000000000000000000000000000000000000000000000000000000000000000000000000000000000000000000000000000000000000000000000000000000000000000000000000000000000000000000000000000000000000000000000000000000000000000000000000000000000000000000000000000000000000000000000000000000000000000000000000000000000000000000000000000000000000000000000000000000000000000000000000000000000000000000000000000000000000000000000000000000000000000000000000000000000000000000000000000000000000000000000000000000000000000000000000000000000000000000000000000000000000000000000000000000000000000000000000000000000000000000000000000000000000000000000000000000000000000000000000000000000000000000000000000000000000000000000000000000000000000000000000000000000000000000000000000000000000000000000000000000000000000000000000000000000000000000000000000000000000000000000000000000000000000000000000000000000000000000000000000000000000000000000000000000000000000000000000000000000000000000000000000000000000000000000000000000000000000000000000000000000000000000000000000000000000000000000000000000000000000000000000000000000000000000000000000000000000000000000000000000000000000000000000000000000000000000000000000000000000000000000000000000000000000000000000000000000000000000000000000000000000000000000000000000000000000000000000000000000000000000000000000000000000000000000000000000000000000000000000000000000000000000000000000000000000000000000000000000000000000000000000000000000000000000000000000000000000000000000000000000000000000000000000000000000000000000000000000000000000000000000000000000000000000000000000000000000000000000000000000000000000000000000000000000000000000000000000000000000000000000000000000000000000000000000000000000000000000000000000000000000000000000000000000000000000000000000000000000000000000000000000000000000000000000000000000000000000000000000000000000000000000000000000000000000000000000000000000000000000000000000000000000000000000000000000000000000000000000000000000000000000000000000000000000000000000000000000000000000000000000000000000000000000000000000000000000000000000000000000000000000000000000000000000000
#071921:0000000000140000
#072941:0000000000540000
#073921:0000000000530000
#074961:0000000000520000
#075921:000000000000000000000000000000000000000000000000000000000000000000000000000000000000000000000000000000000000000000000000000000000000000000000000000000000000000000000000000000000000000000000000000000000000000000000000000000000000000000000000000000000000000000000000000000000000000000000000000000000000000000000000000000000000000000000000000000000000000000000000000000000000000000000000000000000000000000000000000000000000000000000000000000000000000000000000000052525252525252525252220000000000000000000000000000000000000000000000000000000000000000000000000000000000000000000000000000000000000000000000000000000000000000000000000000000000000000000000000000000000000000000000000000000000000000000000000000000000000000000000000000000000000000000000000000000000000000000000000000000000000000000000000000000000000000000000000000000000000000000000000000000000000000000000000000000000000000000000000000000000000000000000000000000000000000000000000000000000000000000000000000000000000000000000000000000000000000000000000000000000000000000000000000000000000000000000000000000000000000000000000000000000000000000000000000000000000000000000000000000000000000000000000000000000000000000000000000000000000000000000000000000000000000000000000000000000000000000000000000000000000000000000000000000000000000000000000000000000000000000000000000000000000000000000000000000000000000000000000000000000000000000000000000000000000000000000000000000000000000000000000000000000000000000000000000000000000000000000000000000000000000000000000000000000000000000000000000000000000000000000000000000000000000000000000000000000000000000000000000000000000000000000000000000000000000000000000000000000000000000000000000000000000000000000000000000000000000000000000000000000000000000000000000000000000000000000000000000000000000000000000000000000000000000000000000000000000000000000000000000000000000000000000000000000000000000000000000000000000000000000000000000000000000000000000000000000000000000000000000000000000000000000000000000000000000000000000000000000000000000000000000000000000000000000000000000000000000000000000000000000000000000000000000000000000000000000000000000000000000000000000000000000000000000000000000000000000000000000000000000000000000000000000000000000000000000000000000000000000000000000000000000000000000000000000000000000000000000000000000000000000000000000000000000000000000000000000000000000000000000000000000000000000000000000000000000000000000000000000000000000000000000000000000000000000000000000000000000000000000000000000000000000000000000000000000000000000000000000000000000000000000000000000000000000000000000000000000000000000000000000000000000000000000000000000000000000000000000000000000000000000000000000000000000000000000000000000000000000000000000000000000000000000000000000000000000000000000000000000000000000000000000000000000000000000000000000000000000000000000000000000000000000000000000000000000000000000000000000000000000000000000000000000000000000000000000000000000000000000000000000000000000000000000000000000000000000000000000000000000000000000000000000000000000000000000000000000000000000000000000000000000000000000000000000000000000000000000000000000000000000000000000000000000000000000000000000000000000000000000000000000000000000000000000000000000000000000000000000000000000000000000000000000000000000000000000000000000000000000000000000000000000000000000000000000000000000000000000000000000000000000000000000000000000000000000000000000000000000000000000000000000000000000000000000000000000000000000000000000000000000000000000000000000000000000000000000000000000000000000000000000000000000000000000000000000000000000000000000000000000000000000000000000000000000000000000000000000000000000000000000000000000000000000000000000000000000000000000000000000000000000000000000000000000000000000000000000000000000000000000000
#084921:0000000000140000
#084941:000000000000000000000000000000000000000000000000000000000000000000000000000000000000000000000000000000000000000000000000000000000000000000000000000000000000000000000000000000000000000000000000000000000000000000000000000000000000000000000000000000000000000000000000000000000000000000000000000000000000000000000000000000000000000000000000000000000000000000000000000000000000000000000000000000000000000000000000000000000000000000000000000000000000000000000000000000000000000000000000000000000000000000000000000000000000000000000000000000000000000000000000000000000000000000000000000000000000000000000000000000000000000000000000000000000000000000000000000000000000000000000000000000000000000000000000000000000000000000000000000000000000000000000000000000000000000000000000000000000000000000000000000000000000000000000000000000000000000000000000000000000000000000000000000000000000000000000000000000000000000000000000000000000000000000000000000000000000000000000000000000000000000000000000000000000000000000000000000000000000000000000000000000000000000000000000000000000000000000000000000000000000000000000000000000000000000000000000000000000000000000000000000000000000000000000000000000000000000000000000000000000000000000000000000000000000000000000000000000000000000000000000000000000000000000000000000000000000000000000000000000000000000000000000000000000000000000000000000000000000000000000000000000000000000000000000000000000000000000000000000000000000000000000000000000000000000000000000000000000000000000000000000000000000000000000000000000000000000000000000000000000000000000000000000000000000000000000000000000000000000000000000000000000000000000000000000000000000000000000000000000000000000000000000000000000000000000000000000000000000000000000000000000000000000000000000000000000000000000000000000000000000000000000000000000000000000000000000000000000000000000000000000000000000000000000000000000000000000000000000000000000000000000000000000000000000000000000000000000000000000000000000000000000000000000000000000000000000000000000000000000000000000000000000000000000000000000000000000000000000000000000000000000000000000000000000000000000000000000000000000000000000000000000000000000000000000000000000000000000000000000000000000000000000000000000000000000000000000000000000000000000000000000000000000000000000000000000000000000000000000000000000000000000000000000000000000000000000000000000000000000000000000000000000000000000000000000000000000000000000000000000000000000000000000000000000000000000000000000000000000000000000000000000000000000000000000000000000000000000000000000000000000000000000000000000000000000000000000000000000000000000000000000000000000000000000000000000000000000000000000000000000000000000000000000000000000000000000000000000000000000000000000000000000000000000000000000000000000000000000000000000000000000000000000000000000000000000000000000000000000000000000000000000000000000000000000000000000000000000000000000000000000000000000000000000000000000000000000000000000000000000000000000000000000000000000000000000000000000000000000000000000000000000000000000000000000000000000000000000000000000000000000000000000000000000000000000000000000000000000000000000000000000000000000000000000000000000000000000000000000000000000000000000000000000000000000000000000000000000000000000000000000000000000000000000000000000000000000000000000540000000000000000000000000000000000000000000000000000000000000000000000000000000000000000000000000000000000000000000000000000000000000000000000000000000000000000000000000000000000000000000000000000000000000000000000000000000000000000000000000000000000000000000000000000000000000000000000000000000000000000000000000000000000000000000000000000000000000000000000000000000000000000000000000000000000000000000000000000000000000000000000000000000000000000000000000000000000000000545454
#085941:24
