This file was generated by Ched 2.7.0.0.
#TITLE ""
#ARTIST ""
#DESIGNER ""
#DIFFICULTY 0
#PLAYLEVEL
#SONGID ""
#WAVE ""
#WAVEOFFSET 0
#JACKET ""
#REQUEST "ticks_per_beat 480"
#00002: 4
#BPM01: 230
#BPM02: 208
#BPM03: 178
#BPM04: 185
#BPM05: 192
#BPM06: 198
#BPM07: 200
#BPM08: 205
#BPM09: 210
#BPM0A: 220
#00008: 01
#00508: 0000000002010000
#07008: 0000000000010000
#04508: 0000000000030000
#05708: 0000000000040000
#06308: 0000000000050000
#06508: 0006000000000000
#06608: 0000000000070000
#06708: 0000000800000000
#06808: 0009000000000000
#06908: 00000000000A0000
#TIL00: ""
#VOLUME: ""
#HISPEED 00
#MEASUREHS 00
#04112:0000000000140000
#04216:0014000000000000
#0421a:0000000000140000
#04316:0014000000000000
#04312:0000000000140000
#04416:0014000000000000
#0441a:0000000000140000
#04516:0014000000000000
#04512:0000000000140000
#04510:0000000000410000
#05018:0014000000140000
#05014:0000001400000014
#05118:0014000000000000
#05114:0000001400000000
#0511a:0000000000140000
#05614:0014000000140000
#05618:0000001400000014
#05714:0014000000000000
#05718:0000001400000000
#05712:0000000000140000
#05710:0000000000410000
#0621a:0014000000000000
#06214:0000001400000000
#06218:0000000000140000
#06212:0000000000000014
#06318:0014000000000000
#06314:0000001400000000
#0631a:0000000000140000
#10318:0014000000000000
#10314:0000001400000000
#1031a:0000000000240000
#1031f:0000000000210000
#08718:0014000000000014
#08712:0000000000240000
#09512:0000000000140000
#09513:0000000000000034
#1041a:0000000000140000
#10414:0000000000000014
#10412:0014000000000000
#10410:0000000000410000
#10518:0014000000000000
#10512:0000001400000000
#1051a:0000000000140000
#10618:0014000000000000
#10712:0014000000000000
#1071a:0000000000140000
#02312:0014000000000000
#02314:0000000000000014
#02318:0000000000140000
#02412:0000000000140000
#02418:0014000000000000
#0271a:0014000000000000
#02714:0000000000140000
#02814:0014000000000000
#02818:0000000000140000
#02918:0014000000000000
#02912:0000000000140000
#03012:0014000000000000
#0301a:0000000000140000
#03212:0000000000140000
#03314:0014000000000000
#02514:0000000000140000
#02518:0000000000000014
#0251a:0014000000000000
#02614:0014000000000000
#0261a:0000000000140000
#02610:0000000000410000
#03118:0014000000000000
#0341a:0000000000140000
#03512:0014000000000000
#0351a:0000000000140000
#03612:0014000000000000
#03618:0000000000140000
#03814:0014000000000000
#0381a:0000000000240000
#03714:0014000000000000
#03718:0000000000140000
#03918:0014000000000000
#05814:14
#04812:0000000000140000
#0541a:0000000000140000
#0591a:0014000000000000
#05918:0014
#06012:0000000000140000
#06114:14
#06814:0000000000000014
#06812:0014000000000000
#06714:0000001400000000
#06612:0000000000140000
#06418:0000001400000000
#0651a:0014000000000000
#07214:0000000000140000
#07318:0000000000140000
#07414:0000000000140000
#0801a:0014000000000000
#08012:0000000000140000
#08018:0000000000000014
#08112:0014000000000014
#0811a:0000000000140000
#07914:0000000000000014
#0791a:0000000000240000
#07910:0000000000410000
#0821a:0014000000140000
#08212:0000001400000000
#08314:0000000000140000
#08318:0000000000000014
#08412:0014000000000000
#08418:0000000000140000
#08414:0000000000000014
#0851a:0014000000000000
#08514:0000000000140000
#08812:0014000000000000
#0881a:0000000000140000
#08814:0000000000000014
#0891a:0014000000000014
#08912:0000000000140000
#09012:0014000000140000
#0901a:0000001400000000
#09118:0000000000140000
#09114:0000000000000014
#0911f:0000000000110000
#0921a:0014000000000000
#09214:0000000000140000
#09218:0000000000000014
#09312:0014000000000000
#09318:0000000000140000
#09714:0000001400000000
#09713:34000034
#10812:0000000000140000
#1081a:0000000000000014
#10914:0014000000000000
#10918:0000001400000000
#10912:0000000000140000
#11016:0014000000000000
#1101a:0000000000140000
#11114:0014000000000000
#11118:0000001400000000
#11112:0000000000240000
#11212:0000000000140000
#11218:0000000000000014
#1121a:0014000000000000
#11314:0014000000000000
#1131a:0000001400000000
#11312:0000000000140000
#11414:0014000000000000
#1151a:0014000000000000
#11512:0000000000140000
#1161a:0000000000140000
#11612:0000000000000014
#11718:0014000000000000
#11714:0000001400000000
#1171a:0000000000140000
#11816:0014000000000000
#11812:0000000000140000
#11918:0014000000000000
#11914:0000001400000000
#1191a:0000000000240000
#1201a:0000000000140000
#12014:0000000000000014
#12012:0014000000000000
#12118:0014000000000000
#12112:0000001400000000
#1211a:0000000000140000
#1211a:0000000000140000
#12218:0014000000000000
#12312:0014000000000000
#1231a:0000000000140000
#12412:0000000000140000
#12518:0000001400000000
#04718:0014000000000000
#05314:0014000000000000
#01818:0000000000140000
#02014:0000000000140000
#0941a:0014000000000000
#09418:0000000000140000
#08612:0014000000000000
#0991a:0000000000240000
#10018:0024000000000000
#10016:0000000000240000
#10114:0024000000000000
#0221a:0000000000240000
#00512:0000000000240000
#07118:0000000000240000
#0751a:0000000000240000
#07618:0024000000000000
#07616:0000000000240000
#07714:0024000000000000
#07712:0000000000240000
#09813:0034000034000000
#09613:0000340000340000
#00914:34
#00814:0000000000000000000000000000000000340000000034000000003400000000
#00613:34
#00614:0000003400003400
#00714:0034000000000000
#01010:0000000000410000
#1301a:0000000000540000
#05752:0000000000640000
#09552:0000000000640000
#0955a:0014000000000000
#1055a:0000000000540000
#10658:0064000000000000
#1065a:0000000000140000
#0305a:0000000000540000
#03252:0000000000540000
#03354:0024000000000000
#03158:0024000000000000
#03958:0054000000000000
#0515a:0000000000540000
#04552:0000000000640000
#05854:24
#04852:0000000000640000
#0545a:0000000000540000
#0595a:0054000000000000
#05958:0024
#06052:0000000000640000
#06154:24
#06854:0000000000000054
#06852:0064000000000000
#06754:0000005400000000
#06652:0000000000640000
#0635a:0000000000540000
#06458:0000006400000000
#0655a:0054000000000000
#06558:0000000000000014
#0825a:0000000000640000
#09052:0000000000540000
#09754:0000005400000000
#1075a:0000000000540000
#11352:0000000000640000
#11454:0054000000000000
#11452:0000000000140000
#11552:0000000000640000
#1215a:0000000000540000
#1215a:0000000000540000
#12258:0064000000000000
#1225a:0000000000140000
#1235a:0000000000540000
#12558:0000006400000000
#04758:0064000000000000
#05354:0054000000000000
#01858:0000000000640000
#02054:0000000000640000
#09358:0000000000640000
#0945a:0054000000000000
#09458:0000000000640000
#08554:0000000000540000
#08652:0064000000000000
#08654:0000000000140000
#1035a:0000000000140000
#0385a:0000000000540000
#11152:0000000000140000
#1195a:0000000000140000
#09952:0014000000000000
#00952:0018000000000000
#0405a:0000000000140000
#07152:0014000000000000
#08358:0014000000000000
#09154:0014000000000000
#001340:14
#002340:24
#003380:14
#004380:24
#005320:0000000000140000
#006330:34
#006340:0000003400003400
#007340:0034000034000000
#008340:0000000000000000000000003400000000340000000034000000003400000000
#009340:34
#009320:0028000000000000
#0103a0:0000000000140000
#013380:0000000000240000
#014320:0000000000140000
#017340:0000000000240000
#018380:0000000000140000
#0193a0:0000000000240000
#020340:0000000000140000
#021320:0000000000240000
#0303a0:0000000000140000
#031380:0054000000000000
#0313a0:0000000000240000
#032320:0000000000140000
#033340:0054000000000000
#033320:0000000000240000
#0383a0:0000000000140000
#039380:0034000000000000
#0403a0:0000000000240000
#045320:0000000000140000
#046340:0000002400000000
#047380:0014000000000000
#0473a0:0000000000000024
#048320:0000000000140000
#049340:0000002400000000
#0513a0:0000000000140000
#052380:0000002400000000
#053340:0014000000000000
#053320:0000000000000024
#0543a0:0000000000140000
#055380:0000002400000000
#057320:0000000000140000
#058340:54
#058320:0000002400000000
#0593a0:0014000000000024
#059380:0054
#060320:0000000000140000
#061340:54
#061320:0000002400000000
#0633a0:0000000000140000
#064380:0000003400000000
#0653a0:0034000000000000
#065380:0000000000000024
#066320:0000000000140000
#067340:0000003400000000
#068320:0034000000000000
#068340:0000000000000034
#069320:0000000000345454
#069330:00000000000000000000005400540054
#070320:5454545454545454
#070330:00540054005400540054005400540054
#071320:5424000000000000
#071330:00540000000000000000000000000000
#0823a0:0000000000140000
#083380:0024000000000000
#085340:0000000000140000
#086320:0034000000000000
#086340:0000000000240000
#090320:0000000000140000
#091340:0024000000000000
#093380:0000000000140000
#0943a0:0034000000000000
#094380:0000000000340000
#0953a0:0024000000000000
#095320:0000000000140000
#095330:0000000000000034
#096330:0000340000340000
#097330:34000034
#097340:0000003400000000
#098330:0034000034000000
#098320:00000034
#099320:0024000000000000
#101320:0000000000140000
#102320:0000000000240000
#1053a0:0000000000140000
#106380:0034000000000000
#1063a0:0000000000240000
#1073a0:0000000000140000
#108380:0024000000000000
#113320:0000000000140000
#114340:0034000000000000
#114320:0000000000240000
#115320:0000000000140000
#116340:0024000000000000
#1213a0:0000000000140000
#122380:0034000000000000
#1223a0:0000000000240000
#1233a0:0000000000140000
#124380:0024000000000000
#124380:0000000000000014
#125380:0000003400000000
#1303a0:0000000000240000
