This file was generated by Ched 2.7.0.0.
#TITLE ""
#ARTIST ""
#DESIGNER ""
#DIFFICULTY 0
#PLAYLEVEL
#SONGID ""
#WAVE ""
#WAVEOFFSET 0
#JACKET ""
#REQUEST "ticks_per_beat 480"
#00002: 4
#BPM01: 142
#00008: 01
#TIL00: ""
#VOLUME: ""
#HISPEED 00
#MEASUREHS 00
#00518:14
#00618:14
#00714:14
#00814:14
#0091a:14
#00910:41
#0101a:14
#01112:14
#01212:14
#01318:14
#01414:14
#01518:14
#01614:14
#0171a:14
#01710:41
#01812:14
#0191a:14
#02012:14
#03718:2414
#03818:14
#03914:1414
#04014:14
#0411a:14
#04114:0014
#04110:41
#0421a:14
#04312:14
#04318:0014
#04412:14
#0451a:1414
#0451f:11
#04614:1414
#0491a:14
#04914:0014
#0501a:14
#05014:0014
#05118:14
#05112:0014
#04718:1414
#04812:1414
#05218:14
#05212:0014
#00318:26
#00412:26
#02118:24
#05318:24
#0531f:21
#02510:41
#03310:41
#05410:41
#021380:14
#022380:24
#023340:14
#024340:24
#0253a0:14
#0263a0:24
#027320:14
#028320:24
#029380:14
#0303a0:24
#031340:14
#032320:24
#033380:14
#0343a0:24
#035340:14
#036320:24
#053380:1424
#054340:1424
#0553a0:1424
#056320:1424
#057380:1424
#058340:1424
#0593a0:1424
#060320:1424
#061380:14
#0613a0:0024
#0623a0:14
#062380:0024
#063340:14
#063320:0024
#064320:14
#064340:0024
#065380:14
#0653a0:0024
#0663a0:14
#066380:0024
#067340:14
#068320:24
