This file was generated by Ched 2.7.0.0.
#TITLE ""
#ARTIST ""
#DESIGNER ""
#DIFFICULTY 0
#PLAYLEVEL
#SONGID ""
#WAVE ""
#WAVEOFFSET 0
#JACKET ""
#REQUEST "ticks_per_beat 480"
#00002: 4
#BPM01: 142
#00008: 01
#TIL00: ""
#VOLUME: ""
#HISPEED 00
#MEASUREHS 00
#00115:0000000000000000000000000000001300000000000000000000000000000000
#00112:00000000000000000000000000000013
#0011b:00000000000000000000002300000000
#00218:0000000000000013000000000000000000000000000000000000000000000000
#00215:00001313
#00318:0013
#0031a:24
#00312:00240024
#00418:13002424
#0041a:00240000
#00412:00240000
#00414:0000000000240024
#00515:0000130000130000
#00518:2413
#00512:00000013
#0061b:13
#00615:0013000000000000
#0061a:00130000
#00619:0013
#00613:0000000000130000
#00614:0000001300000000
#00618:00000013
#00712:13
#00718:0000130000130000
#00715:0013
#0071b:00000013
#00812:13
#00818:0013000000000000
#00813:00130000
#00814:0013
#0081a:0000000000130000
#00819:0000001300000000
#00815:00000013
#00912:00130000
#0091b:0013
#00915:00000013
#00918:2300000000130000
#00910:41
#0101b:13
#01012:0013000000130000
#0101a:00130000
#01019:0013
#01015:0000001300000000
#01018:00000013
#01115:1300000000130000
#0111b:00130000
#01112:0013
#01118:00000013
#01212:13
#0121b:0013000000130000
#01213:00130000
#01214:0013
#01218:0000001300000000
#01215:00000013
#02112:0000130000000013
#02119:00000013
#02114:0000000000130000
#0211b:0013
#0211a:24
#0131b:0013
#01315:0000130000130000
#01318:00000013
#01312:0000000000000013
#0131a:24
#01418:1313
#01412:0000130000000013
#01415:0000000000130000
#0141b:00000013
#0151b:2313
#01515:0000130000130000
#01518:00000013
#01512:0000000000000013
#0161b:1313
#01615:0013001300000000
#01618:00130013
#01612:0000000000130000
#02318:0000130000130000
#02315:00000013
#02312:1313
#0231b:0000000000000013
#02912:2413
#02918:0000130000130000
#02915:00000013
#0291b:0000000000000013
#03015:1300000000130000
#0301b:0013
#03018:00000013
#03012:0000000000000013
#03318:13000013
#03315:0000000000130000
#03312:0000000000000013
#0331b:00130000
#03310:41
#0341b:13
#03418:0000130000130013
#03415:00000013
#0311b:1300000000000013
#03112:0013
#03118:0000000000130000
#03115:00000013
#03212:1300000000000013
#0321b:0013
#03215:0000000000130000
#03218:00000013
#03618:00000013
#03612:13
#03615:0000130000130000
#0361b:0000000000000013
#03715:0013
#03718:0000130000130000
#0371b:00000013
#03712:24
#03812:1300000000000013
#03815:0013000013001300
#03818:0000130000130000
#0381b:0000001300000000
#03918:0013
#03915:0000130000130000
#03912:00000013
#0391b:23
#0401b:1313
#04018:0013000000130000
#04015:00130013
#04012:0000001300000000
#0461b:1300000000000053
#04618:0013000013000000
#04615:00130000
#04612:0000001300000000
#04619:0000000000530000
#0461a:00000053
#04712:1313
#04718:00130000
#04713:0000000000530000
#04714:00000053
#04715:0000000000000053
#04818:1313000000000053
#04815:0000131300000000
#0481b:0013
#0481a:0000000000530000
#04819:00000053
#04918:00130000
#04915:0013
#04912:2300000000000053
#04914:0000000000530000
#04913:00000053
#0501b:1300000000000053
#05018:0013000013000000
#05015:00130000
#05012:0000001300000000
#05019:0000000000530000
#0501a:00000053
#05112:1313
#05118:00130000
#05113:0000000000530000
#05114:00000053
#05115:0000000000000053
#05218:1313000000001300
#05215:0000131300130000
#0521b:0013
#05212:0000000000000013
#01712:2313
#01718:0000130000130000
#01715:00000013
#0171b:0000000000000013
#01710:41
#01815:1313
#0181b:0000130000000013
#01818:0000000000130000
#01812:00000013
#01912:2313
#01918:0000130000130000
#01915:00000013
#0191b:0000000000000013
#02012:1313
#02018:0013001300000000
#02015:00130013
#0201b:0000000000130000
#02412:1300000000130000
#0241b:00130000
#02415:0000001300000000
#02418:0013
#0251b:0000130000000013
#02514:00000013
#02519:0000000000130000
#02512:2313
#02510:41
#02715:0000130000130000
#02718:00000013
#0271b:1313
#02712:0000000000000013
#0281b:1300000000130000
#02812:00130000
#02818:0000001300000013
#02815:00001313
#03515:13000013
#03518:0000000000130000
#0351b:0000000000000013
#03512:00130000
#04118:0013
#04115:0000130000130000
#04112:00000013
#0411b:23
#04110:41
#0421b:1300000000000013
#04218:0013000013001300
#04215:0000130000130000
#04212:0000001300000000
#04315:0013
#04318:0000130000130000
#0431b:00000013
#04312:23
#04412:1313
#04415:0013000000130000
#04418:00130013
#0441b:0000001300000000
#04518:00130000
#04515:0013
#0451f:11
#04514:2400000000530000
#04513:00000053
#04512:0000000000000053
#05318:0013
#05315:0000130000130000
#0531b:00000013
#0531a:24
#0531f:21
#05412:1300000000330033
#05415:0013000000000000
#05418:00130000
#0541b:0000001300000000
#05410:41
#05518:00130000
#05512:0013
#05514:0000000000530053
#05516:00000053
#05618:00131300
#05612:5300001300000000
#05615:0000000000130000
#0561b:00000013
#05715:0013
#05718:0000130000130000
#05712:23000013
#0581b:1300000000330033
#05818:0013000000000000
#05815:00130000
#05812:0000001300000000
#05915:00130000
#0591b:0013
#05919:0000000000530053
#05917:00000053
#06015:00131300
#0601b:5300001300000000
#06018:0000000000130000
#06012:00000013
#06212:1313
#06215:0013000000000000
#06218:00130000
#0621b:0000001300000000
#06214:0000000000530053
#06216:00000053
#0631b:00130000
#06315:0000000013130000
#06318:0000000000001313
#06312:53
#06412:1313
#0641b:00130000
#06415:0000000000130000
#06418:00000013
#0661b:1313
#06618:0013000000000000
#06615:00130000
#06612:0000001300000000
#06619:0000000000530053
#06617:00000053
#06115:00130000
#0611a:24
#06118:0000000000330000
#06518:00130000
#06512:23
#06515:0000000000330000
#0671b:53
#03055:63
#03358:53
#0335b:00630000
#0345b:63
#03458:00530000
#0315b:63
#03252:53
#0135a:14
#01355:00130000
#01452:00130000
#01458:13
#0155b:13
#01555:00130000
#01658:00000013
#01855:13
#0185b:00130000
#01758:00130000
#01752:13
#01958:00130000
#01952:13
#02055:00000013
#02452:13
#0285b:13
#02952:14
#03555:63
#03552:00530000
#03652:53
#03655:00630000
#03752:14
#04055:00000013
#04458:00000013
#0415b:13
#0535a:14
#0535b:00000013
#05555:13
#05558:00130000
#05752:13000013
#05955:00130000
#05958:13
#06052:00000013
#0565b:00000013
#0615a:14
#0615b:00000013
#06352:13
#0635b:00130000
#06452:13
#0645b:00130000
#06458:00000013
#06552:13000013
#00558:14
#00658:00000013
#00855:00000013
#01058:00000013
#01255:00000013
#0215a:14
#04554:14
#022370:1333
#022390:0033003300330033
#0223b0:00330033
#023370:23
#0243b0:00000013
#024390:0000000000000033
#025370:23
#026360:1333
#026340:0033003300330033
#026320:00330033
#027360:23
#030350:13
#030320:00230000
#0313b0:13
#031380:00230000
#032320:13
#032350:00230000
#033380:1323
#0333b0:00330000
#0343b0:1323
#034380:00330000
#035350:1323
#035320:00330000
#036320:1323
#036350:00330000
#054350:0013
#054320:0000000000333333
#055350:23
#058380:0013
#0583b0:0000000000333333
#059380:23
#061380:0000000013330000
#0613b0:00000023
#065350:0000000013330000
#065320:00000023
#045950:0013
#045920:0000000000000023
#046980:0013
#0469b0:0000000000000023
#047920:0013
#047950:0000000000000023
#0489b0:0013
#048980:0000000000000023
#049950:0013
#049920:0000000000000023
#050980:0013
#0509b0:0000000000000023
#051920:0013
#051950:0000000000000023
#055920:0013
#055960:00000053
#056920:23
#0599b0:0013
#059970:00000053
#0609b0:23
#062920:0013
#062960:00000053
#063920:23
#0669b0:0013
#066970:00000053
#0679b0:53
#0689c0:22
